  0
SECTION
  2
HEADER
  9
$ACADVER
  1
AC1021
  9
$ACADMAINTVER
 70
    25
  9
$DWGCODEPAGE
  3
ANSI_1252
  9
$INSBASE
 10
0.0
 20
0.0
 30
0.0
  9
$EXTMIN
 10
0.0
 20
0.0
 30
0.0
  9
$EXTMAX
 10
297.0
 20
210.0
 30
0.0
  9
$LIMMIN
 10
0.0
 20
0.0
  9
$LIMMAX
 10
297.0
 20
210.0
  9
$ORTHOMODE
 70
     0
  9
$REGENMODE
 70
     1
  9
$FILLMODE
 70
     1
  9
$QTEXTMODE
 70
     0
  9
$MIRRTEXT
 70
     1
  9
$LTSCALE
 40
1.0
  9
$ATTMODE
 70
     1
  9
$TEXTSIZE
 40
3.5
  9
$TRACEWID
 40
1.0
  9
$TEXTSTYLE
  7
Standard
  9
$CLAYER
  8
0
  9
$CELTYPE
  6
ByLayer
  9
$CECOLOR
 62
   256
  9
$CELTSCALE
 40
1.0
  9
$DISPSILH
 70
     0
  9
$DIMSCALE
 40
1.0
  9
$DIMASZ
 40
3.302
  9
$DIMEXO
 40
1.0
  9
$DIMDLI
 40
3.75
  9
$DIMRND
 40
0.0
  9
$DIMDLE
 40
0.0
  9
$DIMEXE
 40
1.0
  9
$DIMTP
 40
0.0
  9
$DIMTM
 40
0.0
  9
$DIMTXT
 40
3.5
  9
$DIMCEN
 40
2.5
  9
$DIMTSZ
 40
0.0
  9
$DIMTOL
 70
     0
  9
$DIMLIM
 70
     0
  9
$DIMTIH
 70
     1
  9
$DIMTOH
 70
     1
  9
$DIMSE1
 70
     0
  9
$DIMSE2
 70
     0
  9
$DIMTAD
 70
     1
  9
$DIMZIN
 70
     0
  9
$DIMBLK
  1

  9
$DIMASO
 70
     1
  9
$DIMSHO
 70
     1
  9
$DIMPOST
  1

  9
$DIMAPOST
  1

  9
$DIMALT
 70
     0
  9
$DIMALTD
 70
     3
  9
$DIMALTF
 40
0.0393700787
  9
$DIMLFAC
 40
1.0
  9
$DIMTOFL
 70
     1
  9
$DIMTVP
 40
0.0
  9
$DIMTIX
 70
     0
  9
$DIMSOXD
 70
     0
  9
$DIMSAH
 70
     0
  9
$DIMBLK1
  1

  9
$DIMBLK2
  1

  9
$DIMSTYLE
  2
ISO-25
  9
$DIMCLRD
 70
     0
  9
$DIMCLRE
 70
     0
  9
$DIMCLRT
 70
     0
  9
$DIMTFAC
 40
1.0
  9
$DIMGAP
 40
1.524
  9
$DIMJUST
 70
     0
  9
$DIMSD1
 70
     0
  9
$DIMSD2
 70
     0
  9
$DIMTOLJ
 70
     0
  9
$DIMTZIN
 70
     0
  9
$DIMALTZ
 70
     0
  9
$DIMALTTZ
 70
     0
  9
$DIMUPT
 70
     0
  9
$DIMDEC
 70
     2
  9
$DIMTDEC
 70
     2
  9
$DIMALTU
 70
     2
  9
$DIMALTTD
 70
     3
  9
$DIMTXSTY
  7
Standard
  9
$DIMAUNIT
 70
     0
  9
$DIMADEC
 70
     2
  9
$DIMALTRND
 40
0.0
  9
$DIMAZIN
 70
     0
  9
$DIMDSEP
 70
    44
  9
$DIMATFIT
 70
     3
  9
$DIMFRAC
 70
     0
  9
$DIMLDRBLK
  1

  9
$DIMLUNIT
 70
     2
  9
$DIMLWD
 70
    -2
  9
$DIMLWE
 70
    -2
  9
$DIMTMOVE
 70
     0
  9
$DIMFXL
 40
1.0
  9
$DIMFXLON
 70
     0
  9
$DIMJOGANG
 40
0.7853981634
  9
$DIMTFILL
 70
     0
  9
$DIMTFILLCLR
 70
     0
  9
$DIMARCSYM
 70
     0
  9
$DIMLTYPE
  6

  9
$DIMLTEX1
  6

  9
$DIMLTEX2
  6

  9
$LUNITS
 70
     2
  9
$LUPREC
 70
     2
  9
$SKETCHINC
 40
1.0
  9
$FILLETRAD
 40
10.0
  9
$AUNITS
 70
     0
  9
$AUPREC
 70
     2
  9
$MENU
  1
.
  9
$ELEVATION
 40
0.0
  9
$PELEVATION
 40
0.0
  9
$THICKNESS
 40
0.0
  9
$LIMCHECK
 70
     0
  9
$CHAMFERA
 40
10.0
  9
$CHAMFERB
 40
10.0
  9
$CHAMFERC
 40
20.0
  9
$CHAMFERD
 40
0.0
  9
$SKPOLY
 70
     0
  9
$TDCREATE
 40
2456507.366634618
  9
$TDUCREATE
 40
2456507.283301285
  9
$TDUPDATE
 40
2456507.366635197
  9
$TDUUPDATE
 40
2456507.283301863
  9
$TDINDWG
 40
0.0000000116
  9
$TDUSRTIMER
 40
0.0000000116
  9
$USRTIMER
 70
     1
  9
$ANGBASE
 50
0.0
  9
$ANGDIR
 70
     0
  9
$PDMODE
 70
     0
  9
$PDSIZE
 40
-1.0
  9
$PLINEWID
 40
0.0
  9
$SPLFRAME
 70
     0
  9
$SPLINETYPE
 70
     6
  9
$SPLINESEGS
 70
     8
  9
$HANDSEED
  5
109
  9
$SURFTAB1
 70
     6
  9
$SURFTAB2
 70
     6
  9
$SURFTYPE
 70
     6
  9
$SURFU
 70
     6
  9
$SURFV
 70
     6
  9
$UCSBASE
  2

  9
$UCSNAME
  2

  9
$UCSORG
 10
0.0
 20
0.0
 30
0.0
  9
$UCSXDIR
 10
1.0
 20
0.0
 30
0.0
  9
$UCSYDIR
 10
0.0
 20
1.0
 30
0.0
  9
$UCSORTHOREF
  2

  9
$UCSORTHOVIEW
 70
     0
  9
$UCSORGTOP
 10
0.0
 20
0.0
 30
0.0
  9
$UCSORGBOTTOM
 10
0.0
 20
0.0
 30
0.0
  9
$UCSORGLEFT
 10
0.0
 20
0.0
 30
0.0
  9
$UCSORGRIGHT
 10
0.0
 20
0.0
 30
0.0
  9
$UCSORGFRONT
 10
0.0
 20
0.0
 30
0.0
  9
$UCSORGBACK
 10
0.0
 20
0.0
 30
0.0
  9
$PUCSBASE
  2

  9
$PUCSNAME
  2

  9
$PUCSORG
 10
0.0
 20
0.0
 30
0.0
  9
$PUCSXDIR
 10
1.0
 20
0.0
 30
0.0
  9
$PUCSYDIR
 10
0.0
 20
1.0
 30
0.0
  9
$PUCSORTHOREF
  2

  9
$PUCSORTHOVIEW
 70
     0
  9
$PUCSORGTOP
 10
0.0
 20
0.0
 30
0.0
  9
$PUCSORGBOTTOM
 10
0.0
 20
0.0
 30
0.0
  9
$PUCSORGLEFT
 10
0.0
 20
0.0
 30
0.0
  9
$PUCSORGRIGHT
 10
0.0
 20
0.0
 30
0.0
  9
$PUCSORGFRONT
 10
0.0
 20
0.0
 30
0.0
  9
$PUCSORGBACK
 10
0.0
 20
0.0
 30
0.0
  9
$USERI1
 70
     0
  9
$USERI2
 70
     0
  9
$USERI3
 70
     0
  9
$USERI4
 70
     0
  9
$USERI5
 70
     0
  9
$USERR1
 40
0.0
  9
$USERR2
 40
0.0
  9
$USERR3
 40
0.0
  9
$USERR4
 40
0.0
  9
$USERR5
 40
0.0
  9
$WORLDVIEW
 70
     1
  9
$SHADEDGE
 70
     3
  9
$SHADEDIF
 70
    70
  9
$TILEMODE
 70
     1
  9
$MAXACTVP
 70
    64
  9
$PINSBASE
 10
0.0
 20
0.0
 30
0.0
  9
$PLIMCHECK
 70
     0
  9
$PEXTMIN
 10
1.0000000000E+20
 20
1.0000000000E+20
 30
1.0000000000E+20
  9
$PEXTMAX
 10
-1.0000000000E+20
 20
-1.0000000000E+20
 30
-1.0000000000E+20
  9
$PLIMMIN
 10
0.0
 20
0.0
  9
$PLIMMAX
 10
420.0
 20
297.0
  9
$UNITMODE
 70
     0
  9
$VISRETAIN
 70
     1
  9
$PLINEGEN
 70
     0
  9
$PSLTSCALE
 70
     1
  9
$TREEDEPTH
 70
  3020
  9
$CMLSTYLE
  2
Standard
  9
$CMLJUST
 70
     0
  9
$CMLSCALE
 40
20.0
  9
$PROXYGRAPHICS
 70
     1
  9
$MEASUREMENT
 70
     1
  9
$CELWEIGHT
370
    -1
  9
$ENDCAPS
280
     0
  9
$JOINSTYLE
280
     0
  9
$LWDISPLAY
290
     1
  9
$INSUNITS
 70
     4
  9
$HYPERLINKBASE
  1

  9
$STYLESHEET
  1

  9
$XEDIT
290
     1
  9
$CEPSNTYPE
380
     0
  9
$PSTYLEMODE
290
     1
  9
$FINGERPRINTGUID
  2
{22B41E2C-9CD4-4B1A-A01C-77D2C24DD58B}
  9
$VERSIONGUID
  2
{FAEB1C32-E019-11D5-929B-00C0DF256EC4}
  9
$EXTNAMES
290
     1
  9
$PSVPSCALE
 40
0.0
  9
$OLESTARTUP
290
     0
  9
$SORTENTS
280
   127
  9
$INDEXCTL
280
     0
  9
$HIDETEXT
280
     1
  9
$XCLIPFRAME
290
     0
  9
$HALOGAP
280
     0
  9
$OBSCOLOR
 70
   257
  9
$OBSLTYPE
280
     0
  9
$INTERSECTIONDISPLAY
280
     0
  9
$INTERSECTIONCOLOR
 70
   257
  9
$DIMASSOC
280
     2
  9
$PROJECTNAME
  1

  9
$CAMERADISPLAY
290
     0
  9
$LENSLENGTH
 40
50.0
  9
$CAMERAHEIGHT
 40
0.0
  9
$STEPSPERSEC
 40
2.0
  9
$STEPSIZE
 40
6.0
  9
$3DDWFPREC
 40
2.0
  9
$PSOLWIDTH
 40
5.0
  9
$PSOLHEIGHT
 40
80.0
  9
$LOFTANG1
 40
1.5707963268
  9
$LOFTANG2
 40
1.5707963268
  9
$LOFTMAG1
 40
0.0
  9
$LOFTMAG2
 40
0.0
  9
$LOFTPARAM
 70
     7
  9
$LOFTNORMALS
280
     1
  9
$LATITUDE
 40
37.795
  9
$LONGITUDE
 40
-122.394
  9
$NORTHDIRECTION
 40
0.0
  9
$TIMEZONE
 70
 -8000
  9
$LIGHTGLYPHDISPLAY
280
     1
  9
$TILEMODELIGHTSYNCH
280
     1
  9
$SOLIDHIST
280
     1
  9
$SHOWHIST
280
     1
  9
$DWFFRAME
280
     2
  9
$DGNFRAME
280
     2
  9
$REALWORLDSCALE
290
     1
  9
$INTERFERECOLOR
 62
   256
  9
$CSHADOW
280
     0
  9
$SHADOWPLANELOCATION
 40
0.0
  0
ENDSEC
  0
SECTION
  2
CLASSES
  0
CLASS
  1
ACDBDICTIONARYWDFLT
  2
AcDbDictionaryWithDefault
  3
ObjectDBX Classes
 90
        0
 91
        4
280
     0
281
     0
  0
CLASS
  1
VISUALSTYLE
  2
AcDbVisualStyle
  3
ObjectDBX Classes
 90
     4095
 91
        4
280
     0
281
     0
  0
CLASS
  1
MATERIAL
  2
AcDbMaterial
  3
ObjectDBX Classes
 90
     1153
 91
        4
280
     0
281
     0
  0
ENDSEC
  0
SECTION
  2
TABLES
  0
TABLE
  2
VPORT
  5
8
330
0
100
AcDbSymbolTable
 70
     1
  0
VPORT
  5
29
330
8
100
AcDbSymbolTableRecord
100
AcDbViewportTableRecord
  2
*Active
 70
     0
 10
0.0
 20
0.0
 11
1.0
 21
1.0
 12
148.5
 22
105.0
 13
0.0
 23
0.0
 14
10.0
 24
10.0
 15
10.0
 25
10.0
 16
0.0
 26
0.0
 36
1.0
 17
0.0
 27
0.0
 37
0.0
 40
210.0
 41
1.4142857143
 42
50.0
 43
0.0
 44
0.0
 50
0.0
 51
0.0
 71
     0
 72
  2000
 73
     1
 74
     3
 75
     0
 76
     0
 77
     0
 78
     0
281
     0
 65
     1
110
0.0
120
0.0
130
0.0
111
1.0
121
0.0
131
0.0
112
0.0
122
1.0
132
0.0
 79
     0
146
0.0
 60
     3
 61
     5
292
     1
282
     1
141
0.0
142
0.0
 63
   250
  0
ENDTAB
  0
TABLE
  2
LTYPE
  5
5
330
0
100
AcDbSymbolTable
 70
     8
  0
LTYPE
  5
14
330
5
100
AcDbSymbolTableRecord
100
AcDbLinetypeTableRecord
  2
ByBlock
 70
     0
  3

 72
    65
 73
     0
 40
0.0
  0
LTYPE
  5
15
330
5
100
AcDbSymbolTableRecord
100
AcDbLinetypeTableRecord
  2
ByLayer
 70
     0
  3

 72
    65
 73
     0
 40
0.0
  0
LTYPE
  5
16
330
5
100
AcDbSymbolTableRecord
100
AcDbLinetypeTableRecord
  2
Continuous
 70
     0
  3
Solid line
 72
    65
 73
     0
 40
0.0
  0
LTYPE
  5
3F
330
5
100
AcDbSymbolTableRecord
100
AcDbLinetypeTableRecord
  2
SLD-Durchgehend
 70
     0
  3
SolidWorks Line Style
 72
    65
 73
     0
 40
0.0
  0
LTYPE
  5
40
330
5
100
AcDbSymbolTableRecord
100
AcDbLinetypeTableRecord
  2
SLD-Gestrichelt
 70
     0
  3
SolidWorks Line Style
 72
    65
 73
     2
 40
1.905
 49
1.27
 74
     0
 49
-0.635
 74
     0
  0
LTYPE
  5
41
330
5
100
AcDbSymbolTableRecord
100
AcDbLinetypeTableRecord
  2
SLD-Phantom
 70
     0
  3
SolidWorks Line Style
 72
    65
 73
     6
 40
12.7
 49
6.35
 74
     0
 49
-1.27
 74
     0
 49
1.27
 74
     0
 49
-1.27
 74
     0
 49
1.27
 74
     0
 49
-1.27
 74
     0
  0
LTYPE
  5
42
330
5
100
AcDbSymbolTableRecord
100
AcDbLinetypeTableRecord
  2
SLD-Kette
 70
     0
  3
SolidWorks Line Style
 72
    65
 73
     4
 40
10.16
 49
6.35
 74
     0
 49
-1.27
 74
     0
 49
1.27
 74
     0
 49
-1.27
 74
     0
  0
LTYPE
  5
43
330
5
100
AcDbSymbolTableRecord
100
AcDbLinetypeTableRecord
  2
SLD-Punktstrich
 70
     0
  3
SolidWorks Line Style
 72
    65
 73
     4
 40
19.05
 49
15.24
 74
     0
 49
-1.27
 74
     0
 49
1.27
 74
     0
 49
-1.27
 74
     0
  0
LTYPE
  5
44
330
5
100
AcDbSymbolTableRecord
100
AcDbLinetypeTableRecord
  2
SLD-Naht
 70
     0
  3
SolidWorks Line Style
 72
    65
 73
     2
 40
0.635
 49
0.0
 74
     0
 49
-0.635
 74
     0
  0
LTYPE
  5
45
330
5
100
AcDbSymbolTableRecord
100
AcDbLinetypeTableRecord
  2
SLD-Dicke-Dünne-Kette
 70
     0
  3
SolidWorks Line Style
 72
    65
 73
     4
 40
10.16
 49
6.35
 74
     0
 49
-1.27
 74
     0
 49
1.27
 74
     0
 49
-1.27
 74
     0
  0
ENDTAB
  0
TABLE
  2
LAYER
  5
2
330
0
100
AcDbSymbolTable
 70
     3
  0
LAYER
  5
10
330
2
100
AcDbSymbolTableRecord
100
AcDbLayerTableRecord
  2
0
 70
     0
 62
     7
  6
Continuous
370
    -3
390
F
347
3E
  0
LAYER
  5
46
330
2
100
AcDbSymbolTableRecord
100
AcDbLayerTableRecord
  2
1
 70
     0
 62
     4
  6
Continuous
370
    -1
390
F
347
3E
  0
LAYER
  5
47
330
2
100
AcDbSymbolTableRecord
100
AcDbLayerTableRecord
  2
2
 70
     0
 62
     7
  6
SLD-Durchgehend
370
    -3
390
F
347
3E
  0
ENDTAB
  0
TABLE
  2
STYLE
  5
3
330
0
100
AcDbSymbolTable
 70
     2
  0
STYLE
  5
11
330
3
100
AcDbSymbolTableRecord
100
AcDbTextStyleTableRecord
  2
Standard
 70
     0
 40
0.0
 41
1.0
 50
0.0
 71
     0
 42
3.5
  3
txt
  4

  0
STYLE
  5
7F
330
3
100
AcDbSymbolTableRecord
100
AcDbTextStyleTableRecord
  2
SLDTEXTSTYLE0
 70
     0
 40
0.0
 41
0.75
 50
0.0
 71
     0
 42
0.2
  3
TXT
  4

  0
ENDTAB
  0
TABLE
  2
VIEW
  5
6
330
0
100
AcDbSymbolTable
 70
     0
  0
ENDTAB
  0
TABLE
  2
UCS
  5
7
330
0
100
AcDbSymbolTable
 70
     0
  0
ENDTAB
  0
TABLE
  2
APPID
  5
9
330
0
100
AcDbSymbolTable
 70
     1
  0
APPID
  5
12
330
9
100
AcDbSymbolTableRecord
100
AcDbRegAppTableRecord
  2
ACAD
 70
     0
  0
ENDTAB
  0
TABLE
  2
DIMSTYLE
  5
A
330
0
100
AcDbSymbolTable
 70
     4
100
AcDbDimStyleTable
  0
DIMSTYLE
105
27
330
A
100
AcDbSymbolTableRecord
100
AcDbDimStyleTableRecord
  2
ISO-25
 70
     0
 41
2.5
 42
0.625
 43
3.75
 44
1.25
 73
     0
 74
     0
 77
     1
 78
     8
140
2.5
141
2.5
143
0.0393700787
147
0.625
171
     3
172
     1
178
     0
271
     2
272
     2
274
     3
278
    44
283
     0
284
     8
340
11
  0
DIMSTYLE
105
80
102
{ACAD_REACTORS
330
7E
330
8C
330
A3
330
EF
330
FB
102
}
330
A
100
AcDbSymbolTableRecord
100
AcDbDimStyleTableRecord
  2
SLDDIMSTYLE0
 70
     0
 41
3.302
 44
0.0
 45
0.000000001
 73
     0
 74
     0
 77
     1
 78
    12
 79
     3
140
3.5
147
0.875
172
     1
173
     1
178
     0
271
     2
272
     2
276
     2
284
    12
289
     0
340
7F
  0
DIMSTYLE
105
99
102
{ACAD_REACTORS
330
98
102
}
330
A
100
AcDbSymbolTableRecord
100
AcDbDimStyleTableRecord
  2
SLDDIMSTYLE1
 70
     0
 41
3.302
 44
0.0
 45
0.000000001
 73
     0
 74
     0
 77
     1
 78
    12
 79
     3
140
3.5
147
0.875
173
     1
178
     0
271
     2
272
     2
276
     2
284
    12
340
7F
  0
DIMSTYLE
105
B0
102
{ACAD_REACTORS
330
AF
102
}
330
A
100
AcDbSymbolTableRecord
100
AcDbDimStyleTableRecord
  2
SLDDIMSTYLE2
 70
     0
 41
3.302
 44
0.0
 45
0.000000001
 73
     0
 74
     0
 77
     1
 78
    12
 79
     3
140
3.5
141
0.0
147
0.875
172
     1
173
     1
178
     0
271
     2
272
     2
276
     2
284
    12
340
7F
341
B1
343
B1
  0
ENDTAB
  0
TABLE
  2
BLOCK_RECORD
  5
1
330
0
100
AcDbSymbolTable
 70
     9
  0
BLOCK_RECORD
  5
1F
330
1
100
AcDbSymbolTableRecord
100
AcDbBlockTableRecord
  2
*Model_Space
340
22
 70
     0
280
     1
281
     0
  0
BLOCK_RECORD
  5
1B
330
1
100
AcDbSymbolTableRecord
100
AcDbBlockTableRecord
  2
*Paper_Space
340
1E
 70
     0
280
     1
281
     0
  0
BLOCK_RECORD
  5
23
330
1
100
AcDbSymbolTableRecord
100
AcDbBlockTableRecord
  2
*Paper_Space0
340
26
 70
     0
280
     1
281
     0
  0
BLOCK_RECORD
  5
81
330
1
100
AcDbSymbolTableRecord
100
AcDbBlockTableRecord
  2
_D
340
0
 70
     0
280
     1
281
     0
  0
BLOCK_RECORD
  5
8D
330
1
100
AcDbSymbolTableRecord
100
AcDbBlockTableRecord
  2
_D_1
340
0
 70
     0
280
     1
281
     0
  0
BLOCK_RECORD
  5
9A
330
1
100
AcDbSymbolTableRecord
100
AcDbBlockTableRecord
  2
_D_2
340
0
 70
     0
280
     1
281
     0
  0
BLOCK_RECORD
  5
A4
330
1
100
AcDbSymbolTableRecord
100
AcDbBlockTableRecord
  2
_D_3
340
0
 70
     0
280
     1
281
     0
  0
BLOCK_RECORD
  5
B1
330
1
100
AcDbSymbolTableRecord
100
AcDbBlockTableRecord
  2
_NONE
340
0
 70
     0
280
     1
281
     0
  0
BLOCK_RECORD
  5
B4
330
1
100
AcDbSymbolTableRecord
100
AcDbBlockTableRecord
  2
_D_4
340
0
 70
     0
280
     1
281
     0
  0
BLOCK_RECORD
  5
F0
330
1
100
AcDbSymbolTableRecord
100
AcDbBlockTableRecord
  2
_D_5
340
0
 70
     0
280
     1
281
     0
  0
BLOCK_RECORD
  5
FC
330
1
100
AcDbSymbolTableRecord
100
AcDbBlockTableRecord
  2
_D_6
340
0
 70
     0
280
     1
281
     0
  0
ENDTAB
  0
ENDSEC
  0
SECTION
  2
BLOCKS
  0
BLOCK
  5
20
330
1F
100
AcDbEntity
  8
0
100
AcDbBlockBegin
  2
*Model_Space
 70
     0
 10
0.0
 20
0.0
 30
0.0
  3
*Model_Space
  1

  0
ENDBLK
  5
21
330
1F
100
AcDbEntity
  8
0
100
AcDbBlockEnd
  0
BLOCK
  5
1C
330
1B
100
AcDbEntity
 67
     1
  8
0
100
AcDbBlockBegin
  2
*Paper_Space
 70
     0
 10
0.0
 20
0.0
 30
0.0
  3
*Paper_Space
  1

  0
ENDBLK
  5
1D
330
1B
100
AcDbEntity
 67
     1
  8
0
100
AcDbBlockEnd
  0
BLOCK
  5
24
330
23
100
AcDbEntity
  8
0
100
AcDbBlockBegin
  2
*Paper_Space0
 70
     0
 10
0.0
 20
0.0
 30
0.0
  3
*Paper_Space0
  1

  0
ENDBLK
  5
25
330
23
100
AcDbEntity
  8
0
100
AcDbBlockEnd
  0
BLOCK
  5
82
330
81
100
AcDbEntity
  8
0
100
AcDbBlockBegin
  2
_D
 70
     0
 10
0.0
 20
0.0
 30
0.0
  3
_D
  1

  0
SOLID
  5
84
330
81
100
AcDbEntity
  8
2
 62
     7
420
 16777215
100
AcDbTrace
 10
28.5681221453
 20
4.4998362224
 30
0.0
 11
29.0761221453
 21
7.8018362224
 31
0.0
 12
28.0601221453
 22
7.8018362224
 32
0.0
 13
28.0601221453
 23
7.8018362224
 33
0.0
  0
SOLID
  5
85
330
81
100
AcDbEntity
  8
2
 62
     7
420
 16777215
100
AcDbTrace
 10
28.5681221453
 20
-11.5001637776
 30
0.0
 11
28.0601221453
 21
-14.8021637776
 31
0.0
 12
29.0761221453
 22
-14.8021637776
 32
0.0
 13
29.0761221453
 23
-14.8021637776
 33
0.0
  0
LINE
  5
86
330
81
100
AcDbEntity
  8
2
 62
     7
420
 16777215
100
AcDbLine
 10
20.9981221453
 20
4.4998362224
 30
0.0
 11
29.5681221453
 21
4.4998362224
 31
0.0
  0
LINE
  5
87
330
81
100
AcDbEntity
  8
2
 62
     7
420
 16777215
100
AcDbLine
 10
12.9981221453
 20
-11.5001637776
 30
0.0
 11
29.5681221453
 21
-11.5001637776
 31
0.0
  0
LINE
  5
88
330
81
100
AcDbEntity
  8
2
 62
     7
420
 16777215
100
AcDbLine
 10
28.5681221453
 20
4.4998362224
 30
0.0
 11
28.5681221453
 21
10.8498362224
 31
0.0
  0
LINE
  5
89
330
81
100
AcDbEntity
  8
2
 62
     7
420
 16777215
100
AcDbLine
 10
28.5681221453
 20
4.4998362224
 30
0.0
 11
28.5681221453
 21
-11.5001637776
 31
0.0
  0
LINE
  5
8A
330
81
100
AcDbEntity
  8
2
 62
     7
420
 16777215
100
AcDbLine
 10
28.5681221453
 20
-11.5001637776
 30
0.0
 11
28.5681221453
 21
-17.8501637776
 31
0.0
  0
MTEXT
  5
8B
330
81
100
AcDbEntity
  8
2
 62
     7
420
 16777215
100
AcDbMText
 10
24.0563852307
 20
-7.5081500586
 30
-5.4997908101
 40
3.5
 41
0.0
 46
0.0
 71
     1
 72
     1
  1
16
  7
SLDTEXTSTYLE0
 11
-7.044195017643634E-15
 21
1.0
 31
0.0
 73
     1
 44
1.0
  0
ENDBLK
  5
83
330
81
100
AcDbEntity
  8
0
100
AcDbBlockEnd
  0
BLOCK
  5
8E
330
8D
100
AcDbEntity
  8
0
100
AcDbBlockBegin
  2
_D_1
 70
     0
 10
0.0
 20
0.0
 30
0.0
  3
_D_1
  1

  0
SOLID
  5
90
330
8D
100
AcDbEntity
  8
2
 62
     7
420
 16777215
100
AcDbTrace
 10
40.5681221453
 20
-11.5001637776
 30
0.0
 11
40.0601221453
 21
-14.8021637776
 31
0.0
 12
41.0761221453
 22
-14.8021637776
 32
0.0
 13
41.0761221453
 23
-14.8021637776
 33
0.0
  0
SOLID
  5
91
330
8D
100
AcDbEntity
  8
2
 62
     7
420
 16777215
100
AcDbTrace
 10
40.5681221453
 20
7.9998362224
 30
0.0
 11
41.0761221453
 21
11.3018362224
 31
0.0
 12
40.0601221453
 22
11.3018362224
 32
0.0
 13
40.0601221453
 23
11.3018362224
 33
0.0
  0
LINE
  5
92
330
8D
100
AcDbEntity
  8
2
 62
     7
420
 16777215
100
AcDbLine
 10
12.9981221453
 20
-11.5001637776
 30
0.0
 11
41.5681221453
 21
-11.5001637776
 31
0.0
  0
LINE
  5
93
330
8D
100
AcDbEntity
  8
2
 62
     7
420
 16777215
100
AcDbLine
 10
11.7527178816
 20
7.9998362224
 30
0.0
 11
41.5681221453
 21
7.9998362224
 31
0.0
  0
LINE
  5
94
330
8D
100
AcDbEntity
  8
2
 62
     7
420
 16777215
100
AcDbLine
 10
40.5681221453
 20
-11.5001637776
 30
0.0
 11
40.5681221453
 21
-17.8501637776
 31
0.0
  0
LINE
  5
95
330
8D
100
AcDbEntity
  8
2
 62
     7
420
 16777215
100
AcDbLine
 10
40.5681221453
 20
-11.5001637776
 30
0.0
 11
40.5681221453
 21
7.9998362224
 31
0.0
  0
LINE
  5
96
330
8D
100
AcDbEntity
  8
2
 62
     7
420
 16777215
100
AcDbLine
 10
40.5681221453
 20
7.9998362224
 30
0.0
 11
40.5681221453
 21
14.3498362224
 31
0.0
  0
MTEXT
  5
97
330
8D
100
AcDbEntity
  8
2
 62
     7
420
 16777215
100
AcDbMText
 10
36.0563852307
 20
-8.9907888759
 30
-5.4997908101
 40
3.5
 41
0.0
 46
0.0
 71
     1
 72
     1
  1
19,50
  7
SLDTEXTSTYLE0
 11
6.123233995736766E-17
 21
1.0
 31
0.0
 73
     1
 44
1.0
  0
ENDBLK
  5
8F
330
8D
100
AcDbEntity
  8
0
100
AcDbBlockEnd
  0
BLOCK
  5
9B
330
9A
100
AcDbEntity
  8
0
100
AcDbBlockBegin
  2
_D_2
 70
     0
 10
0.0
 20
0.0
 30
0.0
  3
_D_2
  1

  0
SOLID
  5
9D
330
9A
100
AcDbEntity
  8
2
 62
     7
420
 16777215
100
AcDbTrace
 10
19.9981221453
 20
-27.5001637776
 30
0.0
 11
16.6961221453
 21
-26.9921637776
 31
0.0
 12
16.6961221453
 22
-28.0081637776
 32
0.0
 13
16.6961221453
 23
-28.0081637776
 33
0.0
  0
SOLID
  5
9E
330
9A
100
AcDbEntity
  8
2
 62
     7
420
 16777215
100
AcDbTrace
 10
-4.0018778547
 20
-27.5001637776
 30
0.0
 11
-0.6998778547
 21
-28.0081637776
 31
0.0
 12
-0.6998778547
 22
-26.9921637776
 32
0.0
 13
-0.6998778547
 23
-26.9921637776
 33
0.0
  0
LINE
  5
9F
330
9A
100
AcDbEntity
  8
2
 62
     7
420
 16777215
100
AcDbLine
 10
19.9981221453
 20
3.4998362224
 30
0.0
 11
19.9981221453
 21
-28.5001637776
 31
0.0
  0
LINE
  5
A0
330
9A
100
AcDbEntity
  8
2
 62
     7
420
 16777215
100
AcDbLine
 10
-4.0018778547
 20
-9.0001637776
 30
0.0
 11
-4.0018778547
 21
-28.5001637776
 31
0.0
  0
LINE
  5
A1
330
9A
100
AcDbEntity
  8
2
 62
     7
420
 16777215
100
AcDbLine
 10
19.9981221453
 20
-27.5001637776
 30
0.0
 11
-4.0018778547
 21
-27.5001637776
 31
0.0
  0
MTEXT
  5
A2
330
9A
100
AcDbEntity
  8
2
 62
     7
420
 16777215
100
AcDbMText
 10
3.9901358642
 20
-22.988426863
 30
-5.4997908101
 40
3.5
 41
0.0
 46
0.0
 71
     1
 72
     1
  1
24
  7
SLDTEXTSTYLE0
 73
     1
 44
1.0
  0
ENDBLK
  5
9C
330
9A
100
AcDbEntity
  8
0
100
AcDbBlockEnd
  0
BLOCK
  5
A5
330
A4
100
AcDbEntity
  8
0
100
AcDbBlockBegin
  2
_D_3
 70
     0
 10
0.0
 20
0.0
 30
0.0
  3
_D_3
  1

  0
SOLID
  5
A7
330
A4
100
AcDbEntity
  8
2
 62
     7
420
 16777215
100
AcDbTrace
 10
11.9981221453
 20
-21.5001637776
 30
0.0
 11
8.6961221453
 21
-20.9921637776
 31
0.0
 12
8.6961221453
 22
-22.0081637776
 32
0.0
 13
8.6961221453
 23
-22.0081637776
 33
0.0
  0
SOLID
  5
A8
330
A4
100
AcDbEntity
  8
2
 62
     7
420
 16777215
100
AcDbTrace
 10
19.9981221453
 20
-21.5001637776
 30
0.0
 11
23.3001221453
 21
-22.0081637776
 31
0.0
 12
23.3001221453
 22
-20.9921637776
 32
0.0
 13
23.3001221453
 23
-20.9921637776
 33
0.0
  0
LINE
  5
A9
330
A4
100
AcDbEntity
  8
2
 62
     7
420
 16777215
100
AcDbLine
 10
11.9981221453
 20
-12.5001637776
 30
0.0
 11
11.9981221453
 21
-22.5001637776
 31
0.0
  0
LINE
  5
AA
330
A4
100
AcDbEntity
  8
2
 62
     7
420
 16777215
100
AcDbLine
 10
19.9981221453
 20
3.4998362224
 30
0.0
 11
19.9981221453
 21
-22.5001637776
 31
0.0
  0
LINE
  5
AB
330
A4
100
AcDbEntity
  8
2
 62
     7
420
 16777215
100
AcDbLine
 10
11.9981221453
 20
-21.5001637776
 30
0.0
 11
5.6481221453
 21
-21.5001637776
 31
0.0
  0
LINE
  5
AC
330
A4
100
AcDbEntity
  8
2
 62
     7
420
 16777215
100
AcDbLine
 10
11.9981221453
 20
-21.5001637776
 30
0.0
 11
19.9981221453
 21
-21.5001637776
 31
0.0
  0
LINE
  5
AD
330
A4
100
AcDbEntity
  8
2
 62
     7
420
 16777215
100
AcDbLine
 10
19.9981221453
 20
-21.5001637776
 30
0.0
 11
26.3481221453
 21
-21.5001637776
 31
0.0
  0
MTEXT
  5
AE
330
A4
100
AcDbEntity
  8
2
 62
     7
420
 16777215
100
AcDbMText
 10
13.2831915774
 20
-16.988426863
 30
-5.4997908101
 40
3.5
 41
0.0
 46
0.0
 71
     1
 72
     1
  1
8
  7
SLDTEXTSTYLE0
 73
     1
 44
1.0
  0
ENDBLK
  5
A6
330
A4
100
AcDbEntity
  8
0
100
AcDbBlockEnd
  0
BLOCK
  5
B2
330
B1
100
AcDbEntity
  8
0
100
AcDbBlockBegin
  2
_NONE
 70
     0
 10
0.0
 20
0.0
 30
0.0
  3
_NONE
  1

  0
ENDBLK
  5
B3
330
B1
100
AcDbEntity
  8
0
100
AcDbBlockEnd
  0
BLOCK
  5
B5
330
B4
100
AcDbEntity
  8
0
100
AcDbBlockBegin
  2
_D_4
 70
     0
 10
0.0
 20
0.0
 30
0.0
  3
_D_4
  1

  0
ARC
  5
B7
330
B4
100
AcDbEntity
  8
2
 62
     7
420
 16777215
100
AcDbCircle
 10
35.9981221453
 20
4.4998362224
 30
0.0
 40
24.00000000000001
100
AcDbArc
 50
42.6140559696
 51
186.7588044435
  0
SOLID
  5
B8
330
B4
100
AcDbEntity
  8
2
 62
     7
420
 16777215
100
AcDbTrace
 10
52.9686848938
 20
21.4703989709
 30
0.0
 11
55.6627617301
 21
23.4460553176
 31
0.0
 12
54.9443412404
 22
24.1644758072
 32
0.0
 13
54.9443412404
 23
24.1644758072
 33
0.0
  0
LINE
  5
B9
330
B4
100
AcDbEntity
  8
2
 62
     7
420
 16777215
100
AcDbLine
 10
52.9686848938
 20
21.4703989709
 30
0.0
 11
66.1216241855
 21
34.6233382626
 31
0.0
  0
LINE
  5
BA
330
B4
100
AcDbEntity
  8
2
 62
     7
420
 16777215
100
AcDbLine
 10
52.9686848938
 20
21.4703989709
 30
0.0
 11
19.0275593968
 21
-12.470726526
 31
0.0
  0
MTEXT
  5
BB
330
B4
100
AcDbEntity
  8
2
 62
     7
420
 16777215
100
AcDbMText
 10
53.5367487771
 20
28.407078801
 30
-5.4997908101
 40
3.5
 41
0.0
 46
0.0
 71
     1
 72
     1
  1
%%c
  7
SLDTEXTSTYLE0
 11
0.7071067811865474
 21
0.7071067811865477
 31
0.0
 73
     1
 44
1.0
  0
MTEXT
  5
BC
330
B4
100
AcDbEntity
  8
2
 62
     7
420
 16777215
100
AcDbMText
 10
57.2313571169
 20
32.1773082182
 30
-5.4997908101
 40
3.5
 41
0.0
 46
0.0
 71
     1
 72
     1
  1
48
  7
SLDTEXTSTYLE0
 11
0.7071067811865474
 21
0.7071067811865477
 31
0.0
 73
     1
 44
1.0
  0
ENDBLK
  5
B6
330
B4
100
AcDbEntity
  8
0
100
AcDbBlockEnd
  0
BLOCK
  5
F1
330
F0
100
AcDbEntity
  8
0
100
AcDbBlockBegin
  2
_D_5
 70
     0
 10
0.0
 20
0.0
 30
0.0
  3
_D_5
  1

  0
SOLID
  5
F3
330
F0
100
AcDbEntity
  8
2
 62
     7
420
 16777215
100
AcDbTrace
 10
-13.6027100396
 20
-41.8422238542
 30
0.0
 11
-13.0947100396
 21
-38.5402238542
 31
0.0
 12
-14.1107100396
 22
-38.5402238542
 32
0.0
 13
-14.1107100396
 23
-38.5402238542
 33
0.0
  0
SOLID
  5
F4
330
F0
100
AcDbEntity
  8
2
 62
     7
420
 16777215
100
AcDbTrace
 10
-13.6027100396
 20
-45.6422238542
 30
0.0
 11
-14.1107100396
 21
-48.9442238542
 31
0.0
 12
-13.0947100396
 22
-48.9442238542
 32
0.0
 13
-13.0947100396
 23
-48.9442238542
 33
0.0
  0
LINE
  5
F5
330
F0
100
AcDbEntity
  8
2
 62
     7
420
 16777215
100
AcDbLine
 10
-4.6027100396
 20
-41.8422238542
 30
0.0
 11
-14.6027100396
 21
-41.8422238542
 31
0.0
  0
LINE
  5
F6
330
F0
100
AcDbEntity
  8
2
 62
     7
420
 16777215
100
AcDbLine
 10
-4.6027100396
 20
-45.6422238542
 30
0.0
 11
-14.6027100396
 21
-45.6422238542
 31
0.0
  0
LINE
  5
F7
330
F0
100
AcDbEntity
  8
2
 62
     7
420
 16777215
100
AcDbLine
 10
-13.6027100396
 20
-41.8422238542
 30
0.0
 11
-13.6027100396
 21
-35.4922238542
 31
0.0
  0
LINE
  5
F8
330
F0
100
AcDbEntity
  8
2
 62
     7
420
 16777215
100
AcDbLine
 10
-13.6027100396
 20
-41.8422238542
 30
0.0
 11
-13.6027100396
 21
-45.6422238542
 31
0.0
  0
LINE
  5
F9
330
F0
100
AcDbEntity
  8
2
 62
     7
420
 16777215
100
AcDbLine
 10
-13.6027100396
 20
-45.6422238542
 30
0.0
 11
-13.6027100396
 21
-63.758543483
 31
0.0
  0
MTEXT
  5
FA
330
F0
100
AcDbEntity
  8
2
 62
     7
420
 16777215
100
AcDbMText
 10
-18.1144469542
 20
-63.758543483
 30
1.1735079227
 40
3.5
 41
0.0
 46
0.0
 71
     1
 72
     1
  1
3,80
  7
SLDTEXTSTYLE0
 11
-7.044195017643634E-15
 21
1.0
 31
0.0
 73
     1
 44
1.0
  0
ENDBLK
  5
F2
330
F0
100
AcDbEntity
  8
0
100
AcDbBlockEnd
  0
BLOCK
  5
FD
330
FC
100
AcDbEntity
  8
0
100
AcDbBlockBegin
  2
_D_6
 70
     0
 10
0.0
 20
0.0
 30
0.0
  3
_D_6
  1

  0
SOLID
  5
FF
330
FC
100
AcDbEntity
  8
2
 62
     7
420
 16777215
100
AcDbTrace
 10
28.9672899604
 20
-41.8422238542
 30
0.0
 11
29.4752899604
 21
-38.5402238542
 31
0.0
 12
28.4592899604
 22
-38.5402238542
 32
0.0
 13
28.4592899604
 23
-38.5402238542
 33
0.0
  0
SOLID
  5
100
330
FC
100
AcDbEntity
  8
2
 62
     7
420
 16777215
100
AcDbTrace
 10
28.9672899604
 20
-43.1422238542
 30
0.0
 11
28.4592899604
 21
-46.4442238542
 31
0.0
 12
29.4752899604
 22
-46.4442238542
 32
0.0
 13
29.4752899604
 23
-46.4442238542
 33
0.0
  0
LINE
  5
101
330
FC
100
AcDbEntity
  8
2
 62
     7
420
 16777215
100
AcDbLine
 10
19.9672899604
 20
-41.8422238542
 30
0.0
 11
29.9672899604
 21
-41.8422238542
 31
0.0
  0
LINE
  5
102
330
FC
100
AcDbEntity
  8
2
 62
     7
420
 16777215
100
AcDbLine
 10
19.9672899604
 20
-43.1422238542
 30
0.0
 11
29.9672899604
 21
-43.1422238542
 31
0.0
  0
LINE
  5
103
330
FC
100
AcDbEntity
  8
2
 62
     7
420
 16777215
100
AcDbLine
 10
28.9672899604
 20
-41.8422238542
 30
0.0
 11
28.9672899604
 21
-23.7259042253
 31
0.0
  0
LINE
  5
104
330
FC
100
AcDbEntity
  8
2
 62
     7
420
 16777215
100
AcDbLine
 10
28.9672899604
 20
-41.8422238542
 30
0.0
 11
28.9672899604
 21
-43.1422238542
 31
0.0
  0
LINE
  5
105
330
FC
100
AcDbEntity
  8
2
 62
     7
420
 16777215
100
AcDbLine
 10
28.9672899604
 20
-43.1422238542
 30
0.0
 11
28.9672899604
 21
-49.4922238542
 31
0.0
  0
MTEXT
  5
106
330
FC
100
AcDbEntity
  8
2
 62
     7
420
 16777215
100
AcDbMText
 10
24.4555530458
 20
-35.6210429957
 30
1.1735079227
 40
3.5
 41
0.0
 46
0.0
 71
     1
 72
     1
  1
1,30
  7
SLDTEXTSTYLE0
 11
-4.701222390414927E-14
 21
1.0
 31
0.0
 73
     1
 44
1.0
  0
ENDBLK
  5
FE
330
FC
100
AcDbEntity
  8
0
100
AcDbBlockEnd
  0
ENDSEC
  0
SECTION
  2
ENTITIES
  0
LINE
  5
48
330
1F
100
AcDbEntity
  8
0
  6
SLD-Punktstrich
 62
     7
100
AcDbLine
 10
-4.0018778547
 20
-0.0001637776
 30
0.0
 11
19.9981221453
 21
-0.0001637776
 31
0.0
  0
POINT
  5
49
330
1F
100
AcDbEntity
  8
1
 62
     4
420
    65535
100
AcDbPoint
 10
-4.0018778547
 20
-0.0001637776
 30
0.0
  0
POINT
  5
4A
330
1F
100
AcDbEntity
  8
1
 62
     4
420
    65535
100
AcDbPoint
 10
19.9981221453
 20
-0.0001637776
 30
0.0
  0
POINT
  5
4B
330
1F
100
AcDbEntity
  8
1
 62
     4
420
    65535
100
AcDbPoint
 10
19.9981221453
 20
-0.0001637776
 30
0.0
  0
POINT
  5
4C
330
1F
100
AcDbEntity
  8
1
 62
     4
420
    65535
100
AcDbPoint
 10
18.5681221453
 20
-0.0001637776
 30
0.0
  0
POINT
  5
4D
330
1F
100
AcDbEntity
  8
1
 62
     4
420
    65535
100
AcDbPoint
 10
19.9981221453
 20
4.4998362224
 30
0.0
  0
LINE
  5
4E
330
1F
100
AcDbEntity
  8
1
 62
     4
420
    65535
100
AcDbLine
 10
11.9455907215
 20
1.7612403684
 30
0.0
 11
17.7274920698
 21
3.8656803567
 31
0.0
  0
LINE
  5
4F
330
1F
100
AcDbEntity
  8
1
 62
     4
420
    65535
100
AcDbLine
 10
18.5681221453
 20
1.5097324596
 30
0.0
 11
13.497005805
 21
-0.3360029428
 31
0.0
  0
CIRCLE
  5
50
330
1F
100
AcDbEntity
  8
1
 62
     4
420
    65535
100
AcDbCircle
 10
8.9981221453
 20
-4.0001637776
 30
0.0
 40
1.749999999999999
  0
CIRCLE
  5
51
330
1F
100
AcDbEntity
  8
1
 62
     4
420
    65535
100
AcDbCircle
 10
-0.0018778547
 20
-0.0001637776
 30
0.0
 40
1.75
  0
LINE
  5
52
330
1F
100
AcDbEntity
  8
1
 62
     4
420
    65535
100
AcDbLine
 10
16.4981221453
 20
-11.5001637776
 30
0.0
 11
11.9981221453
 21
-11.5001637776
 31
0.0
  0
LINE
  5
53
330
1F
100
AcDbEntity
  8
1
 62
     4
420
    65535
100
AcDbLine
 10
11.9981221453
 20
-11.5001637776
 30
0.0
 11
11.9981221453
 21
-8.0001637776
 31
0.0
  0
LINE
  5
54
330
1F
100
AcDbEntity
  8
1
 62
     4
420
    65535
100
AcDbLine
 10
11.9981221453
 20
-8.0001637776
 30
0.0
 11
-4.0018778547
 21
-8.0001637776
 31
0.0
  0
LINE
  5
55
330
1F
100
AcDbEntity
  8
1
 62
     4
420
    65535
100
AcDbLine
 10
-4.0018778547
 20
-8.0001637776
 30
0.0
 11
-4.0018778547
 21
3.8688362224
 31
0.0
  0
LINE
  5
56
330
1F
100
AcDbEntity
  8
1
 62
     4
420
    65535
100
AcDbLine
 10
11.9981221453
 20
4.4998362224
 30
0.0
 11
11.9981221453
 21
6.7055643124
 31
0.0
  0
LINE
  5
57
330
1F
100
AcDbEntity
  8
1
 62
     4
420
    65535
100
AcDbLine
 10
11.5408885582
 20
1.4216549325
 30
0.0
 11
12.1369837382
 21
1.9218381782
 31
0.0
  0
LINE
  5
58
330
1F
100
AcDbEntity
  8
1
 62
     4
420
    65535
100
AcDbLine
 10
12.3031625565
 20
0.6855354891
 30
0.0
 11
11.5408885582
 21
1.4216549325
 31
0.0
  0
ARC
  5
59
330
1F
100
AcDbEntity
  8
1
 62
     4
420
    65535
100
AcDbCircle
 10
35.9981221453
 20
4.4998362224
 30
0.0
 40
24.0
100
AcDbArc
 50
189.1447484739
 51
215.6590876961
  0
LINE
  5
5A
330
1F
100
AcDbEntity
  8
1
 62
     4
420
    65535
100
AcDbLine
 10
16.4981221453
 20
-11.5001637776
 30
0.0
 11
16.4981221453
 21
-9.4912323572
 31
0.0
  0
LINE
  5
5B
330
1F
100
AcDbEntity
  8
1
 62
     4
420
    65535
100
AcDbLine
 10
1.9981221453
 20
4.499461634
 30
0.0
 11
1.9981221453
 21
7.9998362224
 31
0.0
  0
LINE
  5
5C
330
1F
100
AcDbEntity
  8
1
 62
     4
420
    65535
100
AcDbLine
 10
-4.0018778547
 20
3.8688362224
 30
0.0
 11
1.9981221453
 21
4.499461634
 31
0.0
  0
ARC
  5
5D
330
1F
100
AcDbEntity
  8
1
 62
     4
420
    65535
100
AcDbCircle
 10
19.9981221453
 20
15.6498362224
 30
0.0
 40
12.0
100
AcDbArc
 50
219.6056523939
 51
228.1896851042
  0
CIRCLE
  5
5E
330
1F
100
AcDbEntity
  8
1
 62
     4
420
    65535
100
AcDbCircle
 10
7.5281221453
 20
3.9998362224
 30
0.0
 40
1.75
  0
ARC
  5
5F
330
1F
100
AcDbEntity
  8
1
 62
     4
420
    65535
100
AcDbCircle
 10
35.9981221453
 20
4.4998362224
 30
0.0
 40
24.0
100
AcDbArc
 50
180.0
 51
186.1664143257
  0
LINE
  5
60
330
1F
100
AcDbEntity
  8
1
 62
     4
420
    65535
100
AcDbLine
 10
1.9981221453
 20
7.9998362224
 30
0.0
 11
10.7527178816
 21
7.9998362224
 31
0.0
  0
LINE
  5
61
330
1F
100
AcDbEntity
  8
1
 62
     4
420
    65535
100
AcDbLine
 10
13.5981221453
 20
5.4989741901
 30
0.0
 11
13.5981221453
 21
4.4998362224
 31
0.0
  0
LINE
  5
62
330
1F
100
AcDbEntity
  8
1
 62
     4
420
    65535
100
AcDbLine
 10
13.5981221453
 20
4.4998362224
 30
0.0
 11
11.9981221453
 21
4.4998362224
 31
0.0
  0
SPLINE
  5
63
330
1F
100
AcDbEntity
  8
1
 62
     4
420
    65535
100
AcDbSpline
210
0.0
220
0.0
230
1.0
 70
     8
 71
     3
 72
    18
 73
    14
 74
     0
 42
0.00000001
 43
0.00000001
 12
1.0
 22
0.0
 32
0.0
 13
1.0
 23
0.0
 33
0.0
 40
0.0
 40
0.0
 40
0.0
 40
0.0
 40
0.1249999999999997
 40
0.1249999999999997
 40
0.2499999999999994
 40
0.2499999999999994
 40
0.3749999999999992
 40
0.3749999999999992
 40
0.4999999999999989
 40
0.4999999999999989
 40
0.7499999999999994
 40
0.7499999999999994
 40
1.0
 40
1.0
 40
1.0
 40
1.0
 10
11.99812214530969
 20
6.705564312439171
 30
0.0
 10
11.99812214530969
 20
6.70556431243917
 30
0.0
 10
12.01128432882236
 20
6.693745781518591
 30
0.0
 10
12.06168217902052
 20
6.649055425513319
 30
0.0
 10
12.09911085108165
 20
6.616044986165473
 30
0.0
 10
12.19188820523242
 20
6.535755072937411
 30
0.0
 10
12.24829022663357
 20
6.487591052035516
 30
0.0
 10
12.37334972967776
 20
6.383257730884978
 30
0.0
 10
12.44231771771577
 20
6.326799672438855
 30
0.0
 10
12.66720007726047
 20
6.147502515664849
 30
0.0
 10
12.83708835059411
 20
6.018081866291054
 30
0.0
 10
13.20491048391725
 20
5.755222924802975
 30
0.0
 10
13.39740018851015
 20
5.625527040410224
 30
0.0
 10
13.59812214530969
 20
5.498974190078714
 30
0.0
  0
SPLINE
  5
64
330
1F
100
AcDbEntity
  8
1
 62
     4
420
    65535
100
AcDbSpline
210
0.0
220
0.0
230
1.0
 70
    24
 71
     3
 72
     8
 73
     4
 74
     0
 42
0.00000001
 43
0.00000001
 12
1.0
 22
0.0
 32
0.0
 13
1.0
 23
0.0
 33
0.0
 40
0.0
 40
0.0
 40
0.0
 40
0.0
 40
1.0
 40
1.0
 40
1.0
 40
1.0
 10
13.30876567155072
 20
-0.2855641510586852
 30
0.0
 10
13.46950835992623
 20
-0.3286350245981105
 30
0.0
 10
13.63873853224714
 20
-0.3739801126064776
 30
0.0
 10
13.81581208399523
 20
-0.421426827798289
 30
0.0
  0
SPLINE
  5
65
330
1F
100
AcDbEntity
  8
1
 62
     4
420
    65535
100
AcDbSpline
210
0.0
220
0.0
230
1.0
 70
    24
 71
     3
 72
     8
 73
     4
 74
     0
 42
0.00000001
 43
0.00000001
 12
1.0
 22
0.0
 32
0.0
 13
1.0
 23
0.0
 33
0.0
 40
0.0
 40
0.0
 40
0.0
 40
0.0
 40
1.0
 40
1.0
 40
1.0
 40
1.0
 10
13.81581208399658
 20
-0.4214268277986527
 30
0.0
 10
13.91711131029348
 20
-0.3845569246723853
 30
0.0
 10
14.01874902325175
 20
-0.3475638224766822
 30
0.0
 10
14.12071095594629
 20
-0.3104527139476141
 30
0.0
  0
ARC
  5
66
330
1F
100
AcDbEntity
  8
1
 62
     4
420
    65535
100
AcDbCircle
 10
35.9981221453
 20
4.4998362224
 30
0.0
 40
22.4
100
AcDbArc
 50
192.4005699028
 51
216.9550748363
  0
SPLINE
  5
67
330
1F
100
AcDbEntity
  8
1
 62
     4
420
    65535
100
AcDbSpline
210
0.0
220
0.0
230
1.0
 70
     8
 71
     3
 72
    16
 73
    12
 74
     0
 42
0.00000001
 43
0.00000001
 12
1.0
 22
0.0
 32
0.0
 13
1.0
 23
0.0
 33
0.0
 40
0.0
 40
0.0
 40
0.0
 40
0.0
 40
0.1249999999999996
 40
0.1249999999999996
 40
0.2499999999999992
 40
0.2499999999999992
 40
0.4999999999999994
 40
0.4999999999999994
 40
0.7499999999999997
 40
0.7499999999999997
 40
1.0
 40
1.0
 40
1.0
 40
1.0
 10
16.49812214530969
 20
-9.491232357194882
 30
0.0
 10
16.49812214530969
 20
-9.491232357194882
 30
0.0
 10
16.50903952449952
 20
-9.487722203361772
 30
0.0
 10
16.55169601752993
 20
-9.473992253605662
 30
0.0
 10
16.58402879006765
 20
-9.463581016477182
 30
0.0
 10
16.70907493241893
 20
-9.423243468473244
 30
0.0
 10
16.83199295176857
 20
-9.383517810135773
 30
0.0
 10
17.13047622298818
 20
-9.286431211236934
 30
0.0
 10
17.30841775481413
 20
-9.228282741905751
 30
0.0
 10
17.68823754677274
 20
-9.103210207371289
 30
0.0
 10
17.89532908019078
 20
-9.03454618137764
 30
0.0
 10
18.09812214530969
 20
-8.96678919003973
 30
0.0
  0
SPLINE
  5
68
330
1F
100
AcDbEntity
  8
1
 62
     4
420
    65535
100
AcDbSpline
210
0.0
220
0.0
230
1.0
 70
    24
 71
     3
 72
    16
 73
    12
 74
     0
 42
0.00000001
 43
0.00000001
 12
1.0
 22
0.0
 32
0.0
 13
1.0
 23
0.0
 33
0.0
 40
0.0
 40
0.0
 40
0.0
 40
0.0
 40
0.2499999999999998
 40
0.2499999999999998
 40
0.3749999999999998
 40
0.3749999999999998
 40
0.4999999999999999
 40
0.4999999999999999
 40
0.75
 40
0.75
 40
1.0
 40
1.0
 40
1.0
 40
1.0
 10
12.30316255649954
 20
0.6855354890573969
 30
0.0
 10
12.30316255649944
 20
0.6855354890574958
 30
0.0
 10
12.33931544237772
 20
0.6506230529879511
 30
0.0
 10
12.43093984552124
 20
0.5621423953738478
 30
0.0
 10
12.46795994772289
 20
0.526392498235509
 30
0.0
 10
12.54931556411916
 20
0.4478282927141224
 30
0.0
 10
12.59390431986748
 20
0.4047694318053478
 30
0.0
 10
12.73714767784255
 20
0.2664409289431505
 30
0.0
 10
12.84495804345858
 20
0.1623296690598996
 30
0.0
 10
13.07040346486899
 20
-0.0553804437277842
 30
0.0
 10
13.18800433984883
 20
-0.1689462886033017
 30
0.0
 10
13.30876567155249
 20
-0.2855641510602914
 30
0.0
  0
LINE
  5
69
330
1F
100
AcDbEntity
  8
1
 62
     4
420
    65535
100
AcDbLine
 10
18.0981221453
 20
-8.96678919
 30
0.0
 11
18.0981221453
 21
-11.5001637776
 31
0.0
  0
LINE
  5
6A
330
1F
100
AcDbEntity
  8
1
 62
     4
420
    65535
100
AcDbLine
 10
18.0981221453
 20
-11.5001637776
 30
0.0
 11
16.4981221453
 21
-11.5001637776
 31
0.0
  0
ARC
  5
6B
330
1F
100
AcDbEntity
  8
1
 62
     4
420
    65535
100
AcDbCircle
 10
35.9981221453
 20
4.4998362224
 30
0.0
 40
22.4
100
AcDbArc
 50
180.0
 51
184.8813975055
  0
SPLINE
  5
6C
330
1F
100
AcDbEntity
  8
1
 62
     4
420
    65535
100
AcDbSpline
210
0.0
220
0.0
230
1.0
 70
    24
 71
     3
 72
    12
 73
     8
 74
     0
 42
0.00000001
 43
0.00000001
 12
1.0
 22
0.0
 32
0.0
 13
1.0
 23
0.0
 33
0.0
 40
0.0
 40
0.0
 40
0.0
 40
0.0
 40
0.5000000000000016
 40
0.5000000000000016
 40
0.7500000000000008
 40
0.7500000000000008
 40
1.0
 40
1.0
 40
1.0
 40
1.0
 10
13.67936747402356
 20
2.593743380275728
 30
0.0
 10
13.4688179405517
 20
2.517109617253336
 30
0.0
 10
13.25611314038952
 20
2.439691401308762
 30
0.0
 10
12.96442354926477
 20
2.333525072494074
 30
0.0
 10
12.86977989170507
 20
2.299077598280259
 30
0.0
 10
12.69532484135852
 20
2.235581152736704
 30
0.0
 10
12.61478709890119
 20
2.206267811747236
 30
0.0
 10
12.54119023490654
 20
2.179480743917845
 30
0.0
  0
SPLINE
  5
6D
330
1F
100
AcDbEntity
  8
1
 62
     4
420
    65535
100
AcDbSpline
210
0.0
220
0.0
230
1.0
 70
    24
 71
     3
 72
     8
 73
     4
 74
     0
 42
0.00000001
 43
0.00000001
 12
1.0
 22
0.0
 32
0.0
 13
1.0
 23
0.0
 33
0.0
 40
0.0
 40
0.0
 40
0.0
 40
0.0
 40
1.0
 40
1.0
 40
1.0
 40
1.0
 10
12.52281016885965
 20
2.245584993826188
 30
0.0
 10
12.52893458623218
 20
2.223558412659714
 30
0.0
 10
12.53506130931213
 20
2.201523538973612
 30
0.0
 10
12.54119023490308
 20
2.179480743915611
 30
0.0
  0
SPLINE
  5
6E
330
1F
100
AcDbEntity
  8
1
 62
     4
420
    65535
100
AcDbSpline
210
0.0
220
0.0
230
1.0
 70
    24
 71
     3
 72
    12
 73
     8
 74
     0
 42
0.00000001
 43
0.00000001
 12
1.0
 22
0.0
 32
0.0
 13
1.0
 23
0.0
 33
0.0
 40
0.0
 40
0.0
 40
0.0
 40
0.0
 40
0.2500000000000003
 40
0.2500000000000003
 40
0.5000000000000007
 40
0.5000000000000007
 40
1.0
 40
1.0
 40
1.0
 40
1.0
 10
12.13698373819115
 20
1.921838178153795
 30
0.0
 10
12.13698373819116
 20
1.921838178153796
 30
0.0
 10
12.14589551466307
 20
1.929316046504519
 30
0.0
 10
12.18122680750505
 20
1.958962521297243
 30
0.0
 10
12.20770717397404
 20
1.981182187034807
 30
0.0
 10
12.30859340885685
 20
2.065835789515839
 30
0.0
 10
12.40607362692025
 20
2.147631404539919
 30
0.0
 10
12.52281016885613
 20
2.245584993823232
 30
0.0
  0
LINE
  5
6F
330
1F
100
AcDbEntity
  8
1
 62
     4
420
    65535
100
AcDbLine
 10
17.3770421191
 20
3.9395868871
 30
0.0
 11
13.679367474
 21
2.5937433803
 31
0.0
  0
ARC
  5
70
330
1F
100
AcDbEntity
  8
1
 62
     4
420
    65535
100
AcDbCircle
 10
19.9981221453
 20
15.6498362224
 30
0.0
 40
12.0
100
AcDbArc
 50
237.7690473645
 51
257.3835552307
  0
LINE
  5
71
330
1F
100
AcDbEntity
  8
1
 62
     4
420
    65535
100
AcDbLine
 10
18.5681221453
 20
-5.9481811501
 30
0.0
 11
17.9528567678
 21
1.0843342949
 31
0.0
  0
LINE
  5
72
330
1F
100
AcDbEntity
  8
1
 62
     4
420
    65535
100
AcDbLine
 10
18.5681221453
 20
-5.9481811501
 30
0.0
 11
18.5681221453
 21
-11.5001637776
 31
0.0
  0
LINE
  5
73
330
1F
100
AcDbEntity
  8
1
 62
     4
420
    65535
100
AcDbLine
 10
14.1207109559
 20
-0.3104527139
 30
0.0
 11
17.9528567678
 21
1.0843342949
 31
0.0
  0
LINE
  5
74
330
1F
100
AcDbEntity
  8
1
 62
     4
420
    65535
100
AcDbLine
 10
18.5681221453
 20
-11.5001637776
 30
0.0
 11
18.0981221453
 21
-11.5001637776
 31
0.0
  0
LINE
  5
75
330
1F
100
AcDbEntity
  8
1
 62
     4
420
    65535
100
AcDbLine
 10
18.0014988372
 20
1.1020385603
 30
0.0
 11
18.4745790548
 21
1.4582921828
 31
0.0
  0
ELLIPSE
  5
76
330
1F
100
AcDbEntity
  8
1
 62
     4
420
    65535
100
AcDbEllipse
 10
18.5951912246
 20
1.200331467
 30
0.0
 11
0.1872300930150423
 21
0.2938923766080845
 31
0.0
210
0.0
220
0.0
230
1.0
 40
0.767326988
 41
0.7853981633974404
 42
1.117010721276351
  0
LINE
  5
77
330
1F
100
AcDbEntity
  8
1
 62
     4
420
    65535
100
AcDbLine
 10
18.5681221453
 20
1.5097324596
 30
0.0
 11
18.5681221453
 21
-5.9481811501
 31
0.0
  0
LINE
  5
78
330
1F
100
AcDbEntity
  8
1
 62
     4
420
    65535
100
AcDbLine
 10
18.0014988372
 20
1.1020385603
 30
0.0
 11
17.9528567678
 21
1.0843342949
 31
0.0
  0
LINE
  5
79
330
1F
100
AcDbEntity
  8
1
 62
     4
420
    65535
100
AcDbLine
 10
12.3696012802
 20
2.1170274719
 30
0.0
 11
12.5411902349
 21
2.1794807439
 31
0.0
  0
LINE
  5
7A
330
1F
100
AcDbEntity
  8
1
 62
     4
420
    65535
100
AcDbLine
 10
11.9821983833
 20
1.7919578439
 30
0.0
 11
17.6979993162
 21
3.8723392485
 31
0.0
  0
ARC
  5
7B
330
1F
100
AcDbEntity
  8
1
 62
     4
420
    65535
100
AcDbCircle
 10
19.9981221453
 20
15.6498362224
 30
0.0
 40
12.0
100
AcDbArc
 50
257.3835552307
 51
258.9493374959
  0
LINE
  5
7C
330
1F
100
AcDbEntity
  8
1
 62
     4
420
    65535
100
AcDbLine
 10
13.5245304791
 20
-0.343378157
 30
0.0
 11
18.4745790548
 21
1.4582921828
 31
0.0
  0
SPLINE
  5
7D
330
1F
100
AcDbEntity
  8
1
 62
     4
420
    65535
100
AcDbSpline
210
0.0
220
0.0
230
1.0
 70
     8
 71
     3
 72
    10
 73
     6
 74
     0
 42
0.00000001
 43
0.00000001
 12
1.0
 22
0.0
 32
0.0
 13
1.0
 23
0.0
 33
0.0
 40
0.0
 40
0.0
 40
0.0
 40
0.0
 40
0.1389512218560681
 40
0.6485781295141403
 40
0.9999999999999999
 40
0.9999999999999999
 40
0.9999999999999999
 40
0.9999999999999999
 10
17.7271250715814
 20
3.866688676061791
 30
0.0
 10
17.7277506855362
 20
3.866568093761579
 30
0.0
 10
17.73067084358292
 20
3.866005255654227
 30
0.0
 10
17.71872406385898
 20
3.868302377837255
 30
0.0
 10
17.70400616643198
 20
3.871169203981109
 30
0.0
 10
17.69799931621083
 20
3.872339248502865
 30
0.0
  0
DIMENSION
  5
7E
330
1F
100
AcDbEntity
  8
2
 62
     7
420
 16777215
100
AcDbDimension
  2
_D
 10
28.5681221453
 20
-11.5001637776
 30
0.0
 11
28.5681221453
 21
-3.5001637776
 31
0.0
 70
   160
  1
<>
 71
     2
 42
-1.0
 73
     0
 74
     0
 75
     0
  3
SLDDIMSTYLE0
100
AcDbAlignedDimension
 13
19.9981221453
 23
4.4998362224
 33
0.0
 14
11.9981221453
 24
-11.5001637776
 34
0.0
 50
90.0
100
AcDbRotatedDimension
  0
DIMENSION
  5
8C
330
1F
100
AcDbEntity
  8
2
 62
     7
420
 16777215
100
AcDbDimension
  2
_D_1
 10
40.5681221453
 20
7.9998362224
 30
0.0
 11
40.5681221453
 21
-1.7501637776
 31
0.0
 70
   160
  1
<>
 71
     2
 42
-1.0
 73
     0
 74
     0
 75
     0
  3
SLDDIMSTYLE0
100
AcDbAlignedDimension
 13
11.9981221453
 23
-11.5001637776
 33
0.0
 14
10.7527178816
 24
7.9998362224
 34
0.0
 50
90.0
100
AcDbRotatedDimension
  0
DIMENSION
  5
98
330
1F
100
AcDbEntity
  8
2
 62
     7
420
 16777215
100
AcDbDimension
  2
_D_2
 10
-4.0018778547
 20
-27.5001637776
 30
0.0
 11
7.9981221453
 21
-27.5001637776
 31
0.0
 70
   160
  1
<>
 71
     2
 42
-1.0
 73
     0
 74
     0
 75
     0
  3
SLDDIMSTYLE1
100
AcDbAlignedDimension
 13
19.9981221453
 23
4.4998362224
 33
0.0
 14
-4.0018778547
 24
-8.0001637776
 34
0.0
100
AcDbRotatedDimension
  0
DIMENSION
  5
A3
330
1F
100
AcDbEntity
  8
2
 62
     7
420
 16777215
100
AcDbDimension
  2
_D_3
 10
19.9981221453
 20
-21.5001637776
 30
0.0
 11
15.9981221453
 21
-21.5001637776
 31
0.0
 70
   160
  1
<>
 71
     2
 42
-1.0
 73
     0
 74
     0
 75
     0
  3
SLDDIMSTYLE0
100
AcDbAlignedDimension
 13
11.9981221453
 23
-11.5001637776
 33
0.0
 14
19.9981221453
 24
4.4998362224
 34
0.0
100
AcDbRotatedDimension
  0
DIMENSION
  5
AF
330
1F
100
AcDbEntity
  8
2
 62
     7
420
 16777215
100
AcDbDimension
  2
_D_4
 10
19.0275593968
 20
-12.470726526
 30
0.0
 11
61.4981321453
 21
29.9998462224
 31
0.0
 70
   163
  1
<>
 71
     1
 42
-1.0
 73
     0
 74
     0
 75
     0
  3
SLDDIMSTYLE2
100
AcDbDiametricDimension
 15
52.9686848938
 25
21.4703989709
 35
0.0
 40
0.0
  0
LINE
  5
BD
330
1F
100
AcDbEntity
  8
1
 62
     4
420
    65535
100
AcDbLine
 10
2.3972899604
 20
-45.6422238542
 30
0.0
 11
11.1518856966
 21
-45.6422238542
 31
0.0
  0
LINE
  5
BE
330
1F
100
AcDbEntity
  8
1
 62
     4
420
    65535
100
AcDbLine
 10
2.3972899604
 20
-41.8422238542
 30
0.0
 11
2.3972899604
 21
-45.6422238542
 31
0.0
  0
LINE
  5
BF
330
1F
100
AcDbEntity
  8
1
 62
     4
420
    65535
100
AcDbLine
 10
2.3972899604
 20
-41.8422238542
 30
0.0
 11
11.1518856966
 21
-41.8422238542
 31
0.0
  0
LINE
  5
C0
330
1F
100
AcDbEntity
  8
1
 62
     4
420
    65535
100
AcDbLine
 10
11.1518856966
 20
-41.8422238542
 30
0.0
 11
11.1518856966
 21
-45.6422238542
 31
0.0
  0
SPLINE
  5
C1
330
1F
100
AcDbEntity
  8
1
 62
     4
420
    65535
100
AcDbSpline
210
0.0
220
0.0
230
1.0
 70
     8
 71
     3
 72
    18
 73
    14
 74
     0
 42
0.00000001
 43
0.00000001
 12
1.0
 22
0.0
 32
0.0
 13
1.0
 23
0.0
 33
0.0
 40
0.0
 40
0.0
 40
0.0
 40
0.0
 40
0.1249999999999997
 40
0.1249999999999997
 40
0.2499999999999994
 40
0.2499999999999994
 40
0.3749999999999992
 40
0.3749999999999992
 40
0.4999999999999989
 40
0.4999999999999989
 40
0.7499999999999994
 40
0.7499999999999994
 40
1.0
 40
1.0
 40
1.0
 40
1.0
 10
12.39728996038111
 20
-44.74222385415131
 30
0.0
 10
12.39728996038111
 20
-44.62294122652685
 30
0.0
 10
12.41045214389377
 20
-44.50696081018263
 30
0.0
 10
12.46084999409194
 20
-44.28096992660051
 30
0.0
 10
12.49827866615307
 20
-44.1719518371162
 30
0.0
 10
12.59105602030384
 20
-43.97102275235538
 30
0.0
 10
12.64745804170499
 20
-43.87675268922819
 30
0.0
 10
12.77251754474918
 20
-43.70732333917542
 30
0.0
 10
12.84148553278719
 20
-43.63116499267323
 30
0.0
 10
13.06636789233188
 20
-43.42513358493274
 30
0.0
 10
13.23625616566552
 20
-43.32105897209796
 30
0.0
 10
13.60407829898868
 20
-43.17880879472982
 30
0.0
 10
13.79656800358157
 20
-43.14222385415131
 30
0.0
 10
13.99728996038111
 20
-43.1422238541513
 30
0.0
  0
LINE
  5
C2
330
1F
100
AcDbEntity
  8
1
 62
     4
420
    65535
100
AcDbLine
 10
12.3972899604
 20
-45.6422238542
 30
0.0
 11
12.3972899604
 21
-44.7422238542
 31
0.0
  0
LINE
  5
C3
330
1F
100
AcDbEntity
  8
1
 62
     4
420
    65535
100
AcDbLine
 10
12.3972899604
 20
-45.6422238542
 30
0.0
 11
11.1518856966
 21
-45.6422238542
 31
0.0
  0
LINE
  5
C4
330
1F
100
AcDbEntity
  8
1
 62
     4
420
    65535
100
AcDbLine
 10
17.7762099342
 20
-41.8422238542
 30
0.0
 11
11.1518856966
 21
-41.8422238542
 31
0.0
  0
LINE
  5
C5
330
1F
100
AcDbEntity
  8
1
 62
     4
420
    65535
100
AcDbLine
 10
17.7762099342
 20
-41.8922238542
 30
0.0
 11
17.7762099342
 21
-41.8422238542
 31
0.0
  0
ELLIPSE
  5
C6
330
1F
100
AcDbEntity
  8
1
 62
     4
420
    65535
100
AcDbEllipse
 10
20.3972899604
 20
-12.5377012087
 30
0.0
 11
-4.572021556867632
 21
34.82006885115575
 31
0.0
210
0.0
220
0.0
230
1.0
 40
0.3186349692
 41
2.530514575773148
 42
2.557842631670703
  0
SPLINE
  5
C7
330
1F
100
AcDbEntity
  8
1
 62
     4
420
    65535
100
AcDbSpline
210
0.0
220
0.0
230
1.0
 70
     8
 71
     3
 72
    10
 73
     6
 74
     0
 42
0.00000001
 43
0.00000001
 12
1.0
 22
0.0
 32
0.0
 13
1.0
 23
0.0
 33
0.0
 40
0.0
 40
0.0
 40
0.0
 40
0.0
 40
0.5
 40
0.5
 40
1.0
 40
1.0
 40
1.0
 40
1.0
 10
18.09716713128228
 20
-42.39455340781416
 30
0.0
 10
18.11621594329066
 20
-42.42362722755045
 30
0.0
 10
18.12829353533762
 20
-42.4574003880754
 30
0.0
 10
18.12839398149326
 20
-42.52659180737153
 30
0.0
 10
18.11624049137922
 20
-42.56078301349689
 30
0.0
 10
18.09716713128225
 20
-42.58989430048847
 30
0.0
  0
ELLIPSE
  5
C8
330
1F
100
AcDbEntity
  8
1
 62
     4
420
    65535
100
AcDbEllipse
 10
20.3972899604
 20
-72.4467464996
 30
0.0
 11
4.572021556867629
 21
34.82006885115575
 31
0.0
210
0.0
220
0.0
230
1.0
 40
0.3186349692
 41
0.58375002191909
 42
0.6110780778166449
  0
LINE
  5
C9
330
1F
100
AcDbEntity
  8
1
 62
     4
420
    65535
100
AcDbLine
 10
17.7762099342
 20
-43.1422238542
 30
0.0
 11
17.7762099342
 21
-43.0922238542
 31
0.0
  0
LINE
  5
CA
330
1F
100
AcDbEntity
  8
1
 62
     4
420
    65535
100
AcDbLine
 10
17.7762099342
 20
-43.1422238542
 30
0.0
 11
13.9972899604
 21
-43.1422238542
 31
0.0
  0
LINE
  5
CB
330
1F
100
AcDbEntity
  8
1
 62
     4
420
    65535
100
AcDbLine
 10
12.5361515533
 20
-44.7422238542
 30
0.0
 11
12.3972899604
 21
-44.7422238542
 31
0.0
  0
SPLINE
  5
CC
330
1F
100
AcDbEntity
  8
1
 62
     4
420
    65535
100
AcDbSpline
210
0.0
220
0.0
230
1.0
 70
     8
 71
     3
 72
    12
 73
     8
 74
     0
 42
0.00000001
 43
0.00000001
 12
1.0
 22
0.0
 32
0.0
 13
1.0
 23
0.0
 33
0.0
 40
0.0
 40
0.0
 40
0.0
 40
0.0
 40
0.0943380335586213
 40
0.3369920141159912
 40
0.5868881448639865
 40
0.7911902518831258
 40
1.0
 40
1.0
 40
1.0
 40
1.0
 10
13.9146704370501
 20
-43.15680645044782
 30
0.0
 10
13.88001038377645
 20
-43.1591371301521
 30
0.0
 10
13.75619858993835
 20
-43.16746272713752
 30
0.0
 10
13.54666510488219
 20
-43.23167333522808
 30
0.0
 10
13.31190258311307
 20
-43.34202177747752
 30
0.0
 10
13.10615834863774
 20
-43.48416448122643
 30
0.0
 10
12.99602538556856
 20
-43.59589494587962
 30
0.0
 10
12.94035804997426
 20
-43.6523697477793
 30
0.0
  0
SPLINE
  5
CD
330
1F
100
AcDbEntity
  8
1
 62
     4
420
    65535
100
AcDbSpline
210
0.0
220
0.0
230
1.0
 70
     8
 71
     3
 72
     8
 73
     4
 74
     0
 42
0.00000001
 43
0.00000001
 12
1.0
 22
0.0
 32
0.0
 13
1.0
 23
0.0
 33
0.0
 40
0.0
 40
0.0
 40
0.0
 40
0.0
 40
1.0
 40
1.0
 40
1.0
 40
1.0
 10
12.92197798393107
 20
-43.66528048261409
 30
0.0
 10
12.9281024013036
 20
-43.66089543214363
 30
0.0
 10
12.93422912438355
 20
-43.65659308775849
 30
0.0
 10
12.9403580499745
 20
-43.65236974778816
 30
0.0
  0
SPLINE
  5
CE
330
1F
100
AcDbEntity
  8
1
 62
     4
420
    65535
100
AcDbSpline
210
0.0
220
0.0
230
1.0
 70
     8
 71
     3
 72
    12
 73
     8
 74
     0
 42
0.00000001
 43
0.00000001
 12
1.0
 22
0.0
 32
0.0
 13
1.0
 23
0.0
 33
0.0
 40
0.0
 40
0.0
 40
0.0
 40
0.0
 40
0.2500000000000003
 40
0.2500000000000003
 40
0.5000000000000007
 40
0.5000000000000007
 40
1.0
 40
1.0
 40
1.0
 40
1.0
 10
12.53615155326257
 20
-44.74222385415131
 30
0.0
 10
12.53615155326257
 20
-44.64022132634413
 30
0.0
 10
12.54506332973449
 20
-44.53947253436478
 30
0.0
 10
12.58039462257647
 20
-44.34043799252166
 30
0.0
 10
12.60687498904546
 20
-44.243117488643
 30
0.0
 10
12.70776122392827
 20
-43.96832537262188
 30
0.0
 10
12.80524144199167
 20
-43.80324581522004
 30
0.0
 10
12.92197798392755
 20
-43.66528048261014
 30
0.0
  0
LINE
  5
CF
330
1F
100
AcDbEntity
  8
1
 62
     4
420
    65535
100
AcDbLine
 10
12.5361515533
 20
-44.7422238542
 30
0.0
 11
12.5361515533
 21
-45.6422238542
 31
0.0
  0
LINE
  5
D0
330
1F
100
AcDbEntity
  8
1
 62
     4
420
    65535
100
AcDbLine
 10
12.5361515533
 20
-45.6422238542
 30
0.0
 11
12.3972899604
 21
-45.6422238542
 31
0.0
  0
LINE
  5
D1
330
1F
100
AcDbEntity
  8
1
 62
     4
420
    65535
100
AcDbLine
 10
-3.6027100396
 20
-41.8422238542
 30
0.0
 11
-3.6027100396
 21
-45.6422238542
 31
0.0
  0
LINE
  5
D2
330
1F
100
AcDbEntity
  8
1
 62
     4
420
    65535
100
AcDbLine
 10
-3.6027100396
 20
-45.6422238542
 30
0.0
 11
2.3972899604
 21
-45.6422238542
 31
0.0
  0
LINE
  5
D3
330
1F
100
AcDbEntity
  8
1
 62
     4
420
    65535
100
AcDbLine
 10
-3.6027100396
 20
-41.8422238542
 30
0.0
 11
2.3972899604
 21
-41.8422238542
 31
0.0
  0
ELLIPSE
  5
D4
330
1F
100
AcDbEntity
  8
1
 62
     4
420
    65535
100
AcDbEllipse
 10
18.9943590397
 20
-42.4922238542
 30
0.0
 11
-0.2927769438593479
 21
0.2996940808914842
 31
0.0
210
0.0
220
0.0
230
1.0
 40
0.0462627357
 41
1.194019541540666
 42
1.525632099419415
  0
LINE
  5
D5
330
1F
100
AcDbEntity
  8
1
 62
     4
420
    65535
100
AcDbLine
 10
18.8737468699
 20
-42.3945534078
 30
0.0
 11
18.4006666522
 21
-41.8922238542
 31
0.0
  0
LINE
  5
D6
330
1F
100
AcDbEntity
  8
1
 62
     4
420
    65535
100
AcDbLine
 10
18.3520245829
 20
-41.8422238542
 30
0.0
 11
18.4006666522
 21
-41.8922238542
 31
0.0
  0
LINE
  5
D7
330
1F
100
AcDbEntity
  8
1
 62
     4
420
    65535
100
AcDbLine
 10
18.9672899604
 20
-41.8422238542
 30
0.0
 11
18.9672899604
 21
-42.4922238542
 31
0.0
  0
LINE
  5
D8
330
1F
100
AcDbEntity
  8
1
 62
     4
420
    65535
100
AcDbLine
 10
18.9672899604
 20
-41.8422238542
 30
0.0
 11
18.3520245829
 21
-41.8422238542
 31
0.0
  0
ELLIPSE
  5
D9
330
1F
100
AcDbEntity
  8
1
 62
     4
420
    65535
100
AcDbEllipse
 10
18.9943590397
 20
-42.4922238542
 30
0.0
 11
0.2927769438593408
 21
0.2996940808914772
 31
0.0
210
0.0
220
0.0
230
1.0
 40
0.0462627357
 41
1.615960554170402
 42
1.947573112049581
  0
LINE
  5
DA
330
1F
100
AcDbEntity
  8
1
 62
     4
420
    65535
100
AcDbLine
 10
18.9672899604
 20
-43.1422238542
 30
0.0
 11
18.3520245829
 21
-43.1422238542
 31
0.0
  0
LINE
  5
DB
330
1F
100
AcDbEntity
  8
1
 62
     4
420
    65535
100
AcDbLine
 10
18.4006666522
 20
-43.0922238542
 30
0.0
 11
18.3520245829
 21
-43.1422238542
 31
0.0
  0
LINE
  5
DC
330
1F
100
AcDbEntity
  8
1
 62
     4
420
    65535
100
AcDbLine
 10
18.4006666522
 20
-43.0922238542
 30
0.0
 11
18.8737468699
 21
-42.5898943005
 31
0.0
  0
LINE
  5
DD
330
1F
100
AcDbEntity
  8
1
 62
     4
420
    65535
100
AcDbLine
 10
18.9672899604
 20
-42.4922238542
 30
0.0
 11
18.9672899604
 21
-43.1422238542
 31
0.0
  0
LINE
  5
DE
330
1F
100
AcDbEntity
  8
1
 62
     4
420
    65535
100
AcDbLine
 10
17.7762099342
 20
-41.8922238542
 30
0.0
 11
18.4006666522
 21
-41.8922238542
 31
0.0
  0
LINE
  5
DF
330
1F
100
AcDbEntity
  8
1
 62
     4
420
    65535
100
AcDbLine
 10
17.7762099342
 20
-43.0922238542
 30
0.0
 11
18.4006666522
 21
-43.0922238542
 31
0.0
  0
LINE
  5
E0
330
1F
100
AcDbEntity
  8
1
 62
     4
420
    65535
100
AcDbLine
 10
13.7079334866
 20
-43.3500121564
 30
0.0
 11
13.7079334866
 21
-43.1941254076
 31
0.0
  0
SPLINE
  5
E1
330
1F
100
AcDbEntity
  8
1
 62
     4
420
    65535
100
AcDbSpline
210
0.0
220
0.0
230
1.0
 70
     8
 71
     3
 72
    16
 73
    12
 74
     0
 42
0.00000001
 43
0.00000001
 12
1.0
 22
0.0
 32
0.0
 13
1.0
 23
0.0
 33
0.0
 40
0.0
 40
0.0
 40
0.0
 40
0.0
 40
0.2499999999999998
 40
0.2499999999999998
 40
0.3749999999999998
 40
0.3749999999999998
 40
0.4999999999999999
 40
0.4999999999999999
 40
0.75
 40
0.75
 40
1.0
 40
1.0
 40
1.0
 40
1.0
 10
12.70233037157096
 20
-44.7422238541521
 30
0.0
 10
12.70233037157086
 20
-44.56715779841998
 30
0.0
 10
12.73848325744914
 20
-44.39326183234041
 30
0.0
 10
12.83010766059266
 20
-44.16351861632294
 30
0.0
 10
12.86712776279431
 20
-44.09071548460923
 30
0.0
 10
12.94848337919058
 20
-43.95739895358544
 30
0.0
 10
12.9930721349389
 20
-43.8960925213351
 30
0.0
 10
13.13631549291397
 20
-43.72514190001147
 30
0.0
 10
13.24412585853
 20
-43.62905254033532
 30
0.0
 10
13.46957127994041
 20
-43.46826162186717
 30
0.0
 10
13.58717215492025
 20
-43.40330515525059
 30
0.0
 10
13.70793348662391
 20
-43.35001215644961
 30
0.0
  0
LINE
  5
E2
330
1F
100
AcDbEntity
  8
1
 62
     4
420
    65535
100
AcDbLine
 10
12.7023303716
 20
-45.6422238542
 30
0.0
 11
12.7023303716
 21
-44.7422238542
 31
0.0
  0
LINE
  5
E3
330
1F
100
AcDbEntity
  8
1
 62
     4
420
    65535
100
AcDbLine
 10
12.7023303716
 20
-45.6422238542
 30
0.0
 11
12.5361515533
 21
-45.6422238542
 31
0.0
  0
LINE
  5
E4
330
1F
100
AcDbEntity
  8
1
 62
     4
420
    65535
100
AcDbLine
 10
17.7762099342
 20
-41.8422238542
 30
0.0
 11
18.3520245829
 21
-41.8422238542
 31
0.0
  0
LINE
  5
E5
330
1F
100
AcDbEntity
  8
1
 62
     4
420
    65535
100
AcDbLine
 10
17.7762099342
 20
-43.1422238542
 30
0.0
 11
18.3520245829
 21
-43.1422238542
 31
0.0
  0
SPLINE
  5
E6
330
1F
100
AcDbEntity
  8
1
 62
     4
420
    65535
100
AcDbSpline
210
0.0
220
0.0
230
1.0
 70
     8
 71
     3
 72
     8
 73
     4
 74
     0
 42
0.00000001
 43
0.00000001
 12
1.0
 22
0.0
 32
0.0
 13
1.0
 23
0.0
 33
0.0
 40
0.0
 40
0.0
 40
0.0
 40
0.0
 40
1.0
 40
1.0
 40
1.0
 40
1.0
 10
14.214979899068
 20
-43.17488962285931
 30
0.0
 10
14.3162791253649
 20
-43.15295503914245
 30
0.0
 10
14.41791683832317
 20
-43.14222385415131
 30
0.0
 10
14.51987877101771
 20
-43.14222385415131
 30
0.0
  0
LINE
  5
E7
330
1F
100
AcDbEntity
  8
1
 62
     4
420
    65535
100
AcDbLine
 10
14.2149798991
 20
-43.1748896229
 30
0.0
 11
14.2149798991
 21
-43.1422238542
 31
0.0
  0
SPLINE
  5
E8
330
1F
100
AcDbEntity
  8
1
 62
     4
420
    65535
100
AcDbSpline
210
0.0
220
0.0
230
1.0
 70
     8
 71
     3
 72
     8
 73
     4
 74
     0
 42
0.00000001
 43
0.00000001
 12
1.0
 22
0.0
 32
0.0
 13
1.0
 23
0.0
 33
0.0
 40
0.0
 40
0.0
 40
0.0
 40
0.0
 40
1.0
 40
1.0
 40
1.0
 40
1.0
 10
13.70793348662214
 20
-43.35001215644353
 30
0.0
 10
13.86867617499765
 20
-43.26596598871777
 30
0.0
 10
14.03790634731856
 20
-43.20825806975004
 30
0.0
 10
14.21497989906665
 20
-43.17488962285505
 30
0.0
  0
SPLINE
  5
E9
330
1F
100
AcDbEntity
  8
1
 62
     4
420
    65535
100
AcDbSpline
210
0.0
220
0.0
230
1.0
 70
     8
 71
     3
 72
    16
 73
    12
 74
     0
 42
0.00000001
 43
0.00000001
 12
1.0
 22
0.0
 32
0.0
 13
1.0
 23
0.0
 33
0.0
 40
0.0
 40
0.0
 40
0.0
 40
0.0
 40
0.1249999999999996
 40
0.1249999999999996
 40
0.2499999999999992
 40
0.2499999999999992
 40
0.4999999999999994
 40
0.4999999999999994
 40
0.7499999999999997
 40
0.7499999999999997
 40
1.0
 40
1.0
 40
1.0
 40
1.0
 10
16.89728996038111
 20
-44.74222385415131
 30
0.0
 10
16.89728996038111
 20
-44.63374640959599
 30
0.0
 10
16.90820733957094
 20
-44.52724238781012
 30
0.0
 10
16.95086383260135
 20
-44.31799886908892
 30
0.0
 10
16.98319660513907
 20
-44.21414487414139
 30
0.0
 10
17.10824274749035
 20
-43.92007287627322
 30
0.0
 10
17.23116076683999
 20
-43.7420449243255
 30
0.0
 10
17.5296440380596
 20
-43.45106065942372
 30
0.0
 10
17.70758556988555
 20
-43.33569276224983
 30
0.0
 10
18.08740536184416
 20
-43.18210932222241
 30
0.0
 10
18.2944968952622
 20
-43.14222385415131
 30
0.0
 10
18.49728996038111
 20
-43.14222385415131
 30
0.0
  0
LINE
  5
EA
330
1F
100
AcDbEntity
  8
1
 62
     4
420
    65535
100
AcDbLine
 10
16.8972899604
 20
-44.7422238542
 30
0.0
 11
12.7023303716
 21
-44.7422238542
 31
0.0
  0
LINE
  5
EB
330
1F
100
AcDbEntity
  8
1
 62
     4
420
    65535
100
AcDbLine
 10
16.8972899604
 20
-44.7422238542
 30
0.0
 11
16.8972899604
 21
-45.6422238542
 31
0.0
  0
LINE
  5
EC
330
1F
100
AcDbEntity
  8
1
 62
     4
420
    65535
100
AcDbLine
 10
16.8972899604
 20
-45.6422238542
 30
0.0
 11
12.7023303716
 21
-45.6422238542
 31
0.0
  0
LINE
  5
ED
330
1F
100
AcDbEntity
  8
1
 62
     4
420
    65535
100
AcDbLine
 10
18.0971671313
 20
-42.3945534078
 30
0.0
 11
18.8737468699
 21
-42.3945534078
 31
0.0
  0
LINE
  5
EE
330
1F
100
AcDbEntity
  8
1
 62
     4
420
    65535
100
AcDbLine
 10
18.0971671313
 20
-42.5898943005
 30
0.0
 11
18.8737468699
 21
-42.5898943005
 31
0.0
  0
DIMENSION
  5
EF
330
1F
100
AcDbEntity
  8
2
 62
     7
420
 16777215
100
AcDbDimension
  2
_D_5
 10
-13.6027100396
 20
-45.6422238542
 30
0.0
 11
-13.6027100396
 21
-57.8109740978
 31
0.0
 70
   160
  1
<>
 71
     2
 42
-1.0
 73
     0
 74
     0
 75
     0
  3
SLDDIMSTYLE0
100
AcDbAlignedDimension
 13
-3.6027100396
 23
-41.8422238542
 33
0.0
 14
-3.6027100396
 24
-45.6422238542
 34
0.0
 50
90.0
100
AcDbRotatedDimension
  0
DIMENSION
  5
FB
330
1F
100
AcDbEntity
  8
2
 62
     7
420
 16777215
100
AcDbDimension
  2
_D_6
 10
28.9672899604
 20
-43.1422238542
 30
0.0
 11
28.9672899604
 21
-29.6734736105
 31
0.0
 70
   160
  1
<>
 71
     2
 42
-1.0
 73
     0
 74
     0
 75
     0
  3
SLDDIMSTYLE0
100
AcDbAlignedDimension
 13
18.9672899604
 23
-41.8422238542
 33
0.0
 14
18.9672899604
 24
-43.1422238542
 34
0.0
 50
90.0
100
AcDbRotatedDimension
  0
ENDSEC
  0
SECTION
  2
OBJECTS
  0
DICTIONARY
  5
C
330
0
100
AcDbDictionary
281
     1
  3
ACAD_GROUP
350
D
  3
ACAD_LAYOUT
350
1A
  3
ACAD_MATERIAL
350
3B
  3
ACAD_MLEADERSTYLE
350
108
  3
ACAD_MLINESTYLE
350
17
  3
ACAD_PLOTSETTINGS
350
19
  3
ACAD_PLOTSTYLENAME
350
E
  3
ACAD_TABLESTYLE
350
107
  3
ACAD_VISUALSTYLE
350
2A
  0
DICTIONARY
  5
D
102
{ACAD_REACTORS
330
C
102
}
330
C
100
AcDbDictionary
281
     1
  0
DICTIONARY
  5
1A
102
{ACAD_REACTORS
330
C
102
}
330
C
100
AcDbDictionary
281
     1
  3
Layout1
350
1E
  3
Layout2
350
26
  3
Model
350
22
  0
DICTIONARY
  5
3B
102
{ACAD_REACTORS
330
C
102
}
330
C
100
AcDbDictionary
281
     1
  3
ByBlock
350
3D
  3
ByLayer
350
3C
  3
Global
350
3E
  0
DICTIONARY
  5
108
102
{ACAD_REACTORS
330
C
102
}
330
C
100
AcDbDictionary
281
     1
  0
DICTIONARY
  5
17
102
{ACAD_REACTORS
330
C
102
}
330
C
100
AcDbDictionary
281
     1
  3
Standard
350
18
  0
DICTIONARY
  5
19
102
{ACAD_REACTORS
330
C
102
}
330
C
100
AcDbDictionary
281
     1
  0
ACDBDICTIONARYWDFLT
  5
E
102
{ACAD_REACTORS
330
C
102
}
330
C
100
AcDbDictionary
281
     1
  3
Normal
350
F
100
AcDbDictionaryWithDefault
340
F
  0
DICTIONARY
  5
107
102
{ACAD_REACTORS
330
C
102
}
330
C
100
AcDbDictionary
281
     1
  0
DICTIONARY
  5
2A
102
{ACAD_REACTORS
330
C
102
}
330
C
100
AcDbDictionary
281
     1
  3
2dWireframe
350
2F
  3
3D Hidden
350
31
  3
3dWireframe
350
30
  3
Basic
350
32
  3
Brighten
350
36
  3
ColorChange
350
3A
  3
Conceptual
350
34
  3
Dim
350
35
  3
Facepattern
350
39
  3
Flat
350
2B
  3
FlatWithEdges
350
2C
  3
Gouraud
350
2D
  3
GouraudWithEdges
350
2E
  3
Linepattern
350
38
  3
Realistic
350
33
  3
Thicken
350
37
  0
LAYOUT
  5
1E
102
{ACAD_REACTORS
330
1A
102
}
330
1A
100
AcDbPlotSettings
  1

  2
none_device
  4

  6

 40
0.0
 41
0.0
 42
0.0
 43
0.0
 44
0.0
 45
0.0
 46
0.0
 47
0.0
 48
0.0
 49
0.0
140
0.0
141
0.0
142
1.0
143
1.0
 70
   688
 72
     0
 73
     0
 74
     5
  7

 75
    16
 76
     0
 77
     2
 78
   300
147
1.0
148
0.0
149
0.0
100
AcDbLayout
  1
Layout1
 70
     1
 71
     1
 10
0.0
 20
0.0
 11
420.0
 21
297.0
 12
0.0
 22
0.0
 32
0.0
 14
1.0000000000E+20
 24
1.0000000000E+20
 34
1.0000000000E+20
 15
-1.0000000000E+20
 25
-1.0000000000E+20
 35
-1.0000000000E+20
146
0.0
 13
0.0
 23
0.0
 33
0.0
 16
1.0
 26
0.0
 36
0.0
 17
0.0
 27
1.0
 37
0.0
 76
     0
330
1B
  0
LAYOUT
  5
26
102
{ACAD_REACTORS
330
1A
102
}
330
1A
100
AcDbPlotSettings
  1

  2
none_device
  4

  6

 40
0.0
 41
0.0
 42
0.0
 43
0.0
 44
0.0
 45
0.0
 46
0.0
 47
0.0
 48
0.0
 49
0.0
140
0.0
141
0.0
142
1.0
143
1.0
 70
   688
 72
     0
 73
     0
 74
     5
  7

 75
    16
 76
     0
 77
     2
 78
   300
147
1.0
148
0.0
149
0.0
100
AcDbLayout
  1
Layout2
 70
     1
 71
     2
 10
0.0
 20
0.0
 11
0.0
 21
0.0
 12
0.0
 22
0.0
 32
0.0
 14
0.0
 24
0.0
 34
0.0
 15
0.0
 25
0.0
 35
0.0
146
0.0
 13
0.0
 23
0.0
 33
0.0
 16
1.0
 26
0.0
 36
0.0
 17
0.0
 27
1.0
 37
0.0
 76
     0
330
23
  0
LAYOUT
  5
22
102
{ACAD_REACTORS
330
1A
102
}
330
1A
100
AcDbPlotSettings
  1

  2
none_device
  4

  6

 40
0.0
 41
0.0
 42
0.0
 43
0.0
 44
0.0
 45
0.0
 46
0.0
 47
0.0
 48
0.0
 49
0.0
140
0.0
141
0.0
142
1.0
143
1.0
 70
  1712
 72
     0
 73
     0
 74
     0
  7

 75
     0
 76
     0
 77
     2
 78
   300
147
1.0
148
0.0
149
0.0
100
AcDbLayout
  1
Model
 70
     1
 71
     0
 10
0.0
 20
0.0
 11
297.0
 21
210.0
 12
0.0
 22
0.0
 32
0.0
 14
0.0
 24
0.0
 34
0.0
 15
297.0
 25
210.0
 35
0.0
146
0.0
 13
0.0
 23
0.0
 33
0.0
 16
1.0
 26
0.0
 36
0.0
 17
0.0
 27
1.0
 37
0.0
 76
     0
330
1F
331
29
  0
MATERIAL
  5
3D
102
{ACAD_REACTORS
330
3B
102
}
330
3B
100
AcDbMaterial
  1
ByBlock
 72
     1
 94
      127
  0
MATERIAL
  5
3C
102
{ACAD_REACTORS
330
3B
102
}
330
3B
100
AcDbMaterial
  1
ByLayer
 72
     1
 94
      127
  0
MATERIAL
  5
3E
102
{ACAD_REACTORS
330
3B
102
}
330
3B
100
AcDbMaterial
  1
Global
 72
     1
 94
      127
  0
MLINESTYLE
  5
18
102
{ACAD_REACTORS
330
17
102
}
330
17
100
AcDbMlineStyle
  2
Standard
 70
     0
  3

 62
   256
 51
90.0
 52
90.0
 71
     2
 49
0.5
 62
   256
  6
BYLAYER
 49
-0.5
 62
   256
  6
BYLAYER
  0
ACDBPLACEHOLDER
  5
F
102
{ACAD_REACTORS
330
E
102
}
330
E
  0
VISUALSTYLE
  5
2F
102
{ACAD_REACTORS
330
2A
102
}
330
2A
100
AcDbVisualStyle
  2
2dWireframe
 70
     4
 71
     0
 72
     2
 73
     0
 90
        0
 40
-0.6
 41
-30.0
 62
     5
 63
     7
421
 16777215
 74
     1
 91
        4
 64
     7
 65
   257
 75
     1
175
     1
 42
1.0
 92
        0
 66
   257
 43
1.0
 76
     1
 77
     6
 78
     2
 67
     7
 79
     5
170
     0
171
     0
290
     0
174
     0
 93
        1
 44
0.0
173
     0
291
     0
 45
0.0
  0
VISUALSTYLE
  5
31
102
{ACAD_REACTORS
330
2A
102
}
330
2A
100
AcDbVisualStyle
  2
3D Hidden
 70
     6
 71
     1
 72
     2
 73
     2
 90
        0
 40
-0.6
 41
-30.0
 62
     5
 63
     7
421
 16777215
 74
     2
 91
        2
 64
     7
 65
   257
 75
     2
175
     1
 42
40.0
 92
        0
 66
   257
 43
1.0
 76
     1
 77
     6
 78
     2
 67
     7
 79
     3
170
     0
171
     0
290
     0
174
     0
 93
        1
 44
0.0
173
     0
291
     0
 45
0.0
  0
VISUALSTYLE
  5
30
102
{ACAD_REACTORS
330
2A
102
}
330
2A
100
AcDbVisualStyle
  2
3dWireframe
 70
     5
 71
     0
 72
     2
 73
     0
 90
        0
 40
-0.6
 41
-30.0
 62
     5
 63
     7
421
 16777215
 74
     1
 91
        4
 64
     7
 65
   257
 75
     1
175
     1
 42
1.0
 92
        0
 66
   257
 43
1.0
 76
     1
 77
     6
 78
     2
 67
     7
 79
     5
170
     0
171
     0
290
     0
174
     0
 93
        1
 44
0.0
173
     0
291
     0
 45
0.0
  0
VISUALSTYLE
  5
32
102
{ACAD_REACTORS
330
2A
102
}
330
2A
100
AcDbVisualStyle
  2
Basic
 70
     7
 71
     1
 72
     0
 73
     1
 90
        0
 40
-0.6
 41
-30.0
 62
     5
 63
     7
421
 16777215
 74
     0
 91
        4
 64
     7
 65
   257
 75
     1
175
     1
 42
1.0
 92
        8
 66
     7
 43
1.0
 76
     1
 77
     6
 78
     2
 67
     7
 79
     5
170
     0
171
     0
290
     0
174
     0
 93
        1
 44
0.0
173
     0
291
     1
 45
0.0
  0
VISUALSTYLE
  5
36
102
{ACAD_REACTORS
330
2A
102
}
330
2A
100
AcDbVisualStyle
  2
Brighten
 70
    12
 71
     2
 72
     2
 73
     0
 90
        0
 40
-0.6
 41
-30.0
 62
     5
 63
     7
421
 16777215
 74
     1
 91
        4
 64
     7
 65
   257
 75
     1
175
     1
 42
1.0
 92
        8
 66
     7
 43
1.0
 76
     1
 77
     6
 78
     2
 67
     7
 79
     5
170
     0
171
     0
290
     0
174
     0
 93
        1
 44
50.0
173
     0
291
     1
 45
0.0
  0
VISUALSTYLE
  5
3A
102
{ACAD_REACTORS
330
2A
102
}
330
2A
100
AcDbVisualStyle
  2
ColorChange
 70
    16
 71
     2
 72
     2
 73
     3
 90
        0
 40
-0.6
 41
-30.0
 62
     5
 63
     8
421
  8421504
 74
     1
 91
        4
 64
     7
 65
   257
 75
     1
175
     1
 42
1.0
 92
        8
 66
     8
424
  8421504
 43
1.0
 76
     1
 77
     6
 78
     2
 67
     7
 79
     5
170
     0
171
     0
290
     0
174
     0
 93
        1
 44
0.0
173
     0
291
     1
 45
0.0
  0
VISUALSTYLE
  5
34
102
{ACAD_REACTORS
330
2A
102
}
330
2A
100
AcDbVisualStyle
  2
Conceptual
 70
     9
 71
     3
 72
     2
 73
     0
 90
        0
 40
-0.6
 41
-30.0
 62
     5
 63
     7
421
 16777215
 74
     2
 91
        2
 64
     7
 65
   257
 75
     1
175
     1
 42
40.0
 92
        8
 66
     7
 43
1.0
 76
     1
 77
     6
 78
     2
 67
     7
 79
     3
170
     0
171
     0
290
     0
174
     0
 93
        1
 44
0.0
173
     0
291
     0
 45
0.0
  0
VISUALSTYLE
  5
35
102
{ACAD_REACTORS
330
2A
102
}
330
2A
100
AcDbVisualStyle
  2
Dim
 70
    11
 71
     2
 72
     2
 73
     0
 90
        0
 40
-0.6
 41
-30.0
 62
     5
 63
     7
421
 16777215
 74
     1
 91
        4
 64
     7
 65
   257
 75
     1
175
     1
 42
1.0
 92
        8
 66
     7
 43
1.0
 76
     1
 77
     6
 78
     2
 67
     7
 79
     5
170
     0
171
     0
290
     0
174
     0
 93
        1
 44
-50.0
173
     0
291
     1
 45
0.0
  0
VISUALSTYLE
  5
39
102
{ACAD_REACTORS
330
2A
102
}
330
2A
100
AcDbVisualStyle
  2
Facepattern
 70
    15
 71
     2
 72
     2
 73
     0
 90
        0
 40
-0.6
 41
-30.0
 62
     5
 63
     7
421
 16777215
 74
     1
 91
        4
 64
     7
 65
   257
 75
     1
175
     1
 42
1.0
 92
        8
 66
     7
 43
1.0
 76
     1
 77
     6
 78
     2
 67
     7
 79
     5
170
     0
171
     0
290
     0
174
     0
 93
        1
 44
0.0
173
     0
291
     1
 45
0.0
  0
VISUALSTYLE
  5
2B
102
{ACAD_REACTORS
330
2A
102
}
330
2A
100
AcDbVisualStyle
  2
Flat
 70
     0
 71
     2
 72
     1
 73
     1
 90
        2
 40
-0.6
 41
30.0
 62
     5
 63
     7
421
 16777215
 74
     0
 91
        4
 64
     7
 65
   257
 75
     1
175
     1
 42
1.0
 92
        8
 66
     7
 43
1.0
 76
     1
 77
     6
 78
     2
 67
     7
 79
     5
170
     0
171
     0
290
     0
174
     0
 93
       13
 44
0.0
173
     0
291
     1
 45
0.0
  0
VISUALSTYLE
  5
2C
102
{ACAD_REACTORS
330
2A
102
}
330
2A
100
AcDbVisualStyle
  2
FlatWithEdges
 70
     1
 71
     2
 72
     1
 73
     1
 90
        2
 40
-0.6
 41
30.0
 62
     5
 63
     7
421
 16777215
 74
     1
 91
        4
 64
     7
 65
   257
 75
     1
175
     1
 42
1.0
 92
        0
 66
   257
 43
1.0
 76
     1
 77
     6
 78
     2
 67
     7
 79
     5
170
     0
171
     0
290
     0
174
     0
 93
       13
 44
0.0
173
     0
291
     1
 45
0.0
  0
VISUALSTYLE
  5
2D
102
{ACAD_REACTORS
330
2A
102
}
330
2A
100
AcDbVisualStyle
  2
Gouraud
 70
     2
 71
     2
 72
     2
 73
     1
 90
        2
 40
-0.6
 41
30.0
 62
     5
 63
     7
421
 16777215
 74
     0
 91
        4
 64
     7
 65
   257
 75
     1
175
     1
 42
1.0
 92
        0
 66
     7
 43
1.0
 76
     1
 77
     6
 78
     2
 67
     7
 79
     5
170
     0
171
     0
290
     0
174
     0
 93
       13
 44
0.0
173
     0
291
     1
 45
0.0
  0
VISUALSTYLE
  5
2E
102
{ACAD_REACTORS
330
2A
102
}
330
2A
100
AcDbVisualStyle
  2
GouraudWithEdges
 70
     3
 71
     2
 72
     2
 73
     1
 90
        2
 40
-0.6
 41
30.0
 62
     5
 63
     7
421
 16777215
 74
     1
 91
        4
 64
     7
 65
   257
 75
     1
175
     1
 42
1.0
 92
        0
 66
   257
 43
1.0
 76
     1
 77
     6
 78
     2
 67
     7
 79
     5
170
     0
171
     0
290
     0
174
     0
 93
       13
 44
0.0
173
     0
291
     1
 45
0.0
  0
VISUALSTYLE
  5
38
102
{ACAD_REACTORS
330
2A
102
}
330
2A
100
AcDbVisualStyle
  2
Linepattern
 70
    14
 71
     2
 72
     2
 73
     0
 90
        0
 40
-0.6
 41
-30.0
 62
     5
 63
     7
421
 16777215
 74
     1
 91
        4
 64
     7
 65
   257
 75
     7
175
     7
 42
1.0
 92
        8
 66
     7
 43
1.0
 76
     1
 77
     6
 78
     2
 67
     7
 79
     5
170
     0
171
     0
290
     0
174
     0
 93
        1
 44
0.0
173
     0
291
     1
 45
0.0
  0
VISUALSTYLE
  5
33
102
{ACAD_REACTORS
330
2A
102
}
330
2A
100
AcDbVisualStyle
  2
Realistic
 70
     8
 71
     2
 72
     2
 73
     0
 90
        0
 40
-0.6
 41
-30.0
 62
     5
 63
     7
421
 16777215
 74
     1
 91
        0
 64
     7
 65
   257
 75
     1
175
     1
 42
1.0
 92
        8
 66
     8
424
  7895160
 43
1.0
 76
     1
 77
     6
 78
     2
 67
     7
 79
     5
170
     0
171
     0
290
     0
174
     0
 93
       13
 44
0.0
173
     0
291
     0
 45
0.0
  0
VISUALSTYLE
  5
37
102
{ACAD_REACTORS
330
2A
102
}
330
2A
100
AcDbVisualStyle
  2
Thicken
 70
    13
 71
     2
 72
     2
 73
     0
 90
        0
 40
-0.6
 41
-30.0
 62
     5
 63
     7
421
 16777215
 74
     1
 91
        4
 64
     7
 65
   257
 75
     1
175
     1
 42
1.0
 92
       12
 66
     7
 43
1.0
 76
     1
 77
     6
 78
     2
 67
     7
 79
     5
170
     0
171
     0
290
     0
174
     0
 93
        1
 44
0.0
173
     0
291
     1
 45
0.0
  0
ENDSEC
  0
EOF
