  0
SECTION
  2
HEADER
  9
$ACADVER
  1
AC1018
  9
$ACADMAINTVER
 70
     0
  9
$DWGCODEPAGE
  3
ANSI_1252
  9
$INSBASE
 10
0.0
 20
0.0
 30
0.0
  9
$EXTMIN
 10
0.0
 20
0.0
 30
0.0
  9
$EXTMAX
 10
297.0
 20
210.0
 30
0.0
  9
$LIMMIN
 10
0.0
 20
0.0
  9
$LIMMAX
 10
297.0
 20
210.0
  9
$ORTHOMODE
 70
     0
  9
$REGENMODE
 70
     1
  9
$FILLMODE
 70
     1
  9
$QTEXTMODE
 70
     0
  9
$MIRRTEXT
 70
     1
  9
$LTSCALE
 40
1.0
  9
$ATTMODE
 70
     1
  9
$TEXTSIZE
 40
3.5
  9
$TRACEWID
 40
1.0
  9
$TEXTSTYLE
  7
Standard
  9
$CLAYER
  8
0
  9
$CELTYPE
  6
ByLayer
  9
$CECOLOR
 62
   256
  9
$CELTSCALE
 40
1.0
  9
$DISPSILH
 70
     0
  9
$DIMSCALE
 40
1.0
  9
$DIMASZ
 40
3.302
  9
$DIMEXO
 40
1.0
  9
$DIMDLI
 40
3.75
  9
$DIMRND
 40
0.0
  9
$DIMDLE
 40
0.0
  9
$DIMEXE
 40
1.0
  9
$DIMTP
 40
0.0
  9
$DIMTM
 40
0.0
  9
$DIMTXT
 40
3.5
  9
$DIMCEN
 40
2.5
  9
$DIMTSZ
 40
0.0
  9
$DIMTOL
 70
     0
  9
$DIMLIM
 70
     0
  9
$DIMTIH
 70
     1
  9
$DIMTOH
 70
     1
  9
$DIMSE1
 70
     0
  9
$DIMSE2
 70
     0
  9
$DIMTAD
 70
     1
  9
$DIMZIN
 70
     0
  9
$DIMBLK
  1

  9
$DIMASO
 70
     1
  9
$DIMSHO
 70
     1
  9
$DIMPOST
  1

  9
$DIMAPOST
  1

  9
$DIMALT
 70
     0
  9
$DIMALTD
 70
     3
  9
$DIMALTF
 40
0.0393700787
  9
$DIMLFAC
 40
1.0
  9
$DIMTOFL
 70
     1
  9
$DIMTVP
 40
0.0
  9
$DIMTIX
 70
     0
  9
$DIMSOXD
 70
     0
  9
$DIMSAH
 70
     0
  9
$DIMBLK1
  1

  9
$DIMBLK2
  1

  9
$DIMSTYLE
  2
ISO-25
  9
$DIMCLRD
 70
     0
  9
$DIMCLRE
 70
     0
  9
$DIMCLRT
 70
     0
  9
$DIMTFAC
 40
1.0
  9
$DIMGAP
 40
1.524
  9
$DIMJUST
 70
     0
  9
$DIMSD1
 70
     0
  9
$DIMSD2
 70
     0
  9
$DIMTOLJ
 70
     0
  9
$DIMTZIN
 70
     0
  9
$DIMALTZ
 70
     0
  9
$DIMALTTZ
 70
     0
  9
$DIMUPT
 70
     0
  9
$DIMDEC
 70
     2
  9
$DIMTDEC
 70
     2
  9
$DIMALTU
 70
     2
  9
$DIMALTTD
 70
     3
  9
$DIMTXSTY
  7
Standard
  9
$DIMAUNIT
 70
     0
  9
$DIMADEC
 70
     2
  9
$DIMALTRND
 40
0.0
  9
$DIMAZIN
 70
     0
  9
$DIMDSEP
 70
    44
  9
$DIMATFIT
 70
     3
  9
$DIMFRAC
 70
     0
  9
$DIMLDRBLK
  1

  9
$DIMLUNIT
 70
     2
  9
$DIMLWD
 70
    -2
  9
$DIMLWE
 70
    -2
  9
$DIMTMOVE
 70
     0
  9
$LUNITS
 70
     2
  9
$LUPREC
 70
     2
  9
$SKETCHINC
 40
1.0
  9
$FILLETRAD
 40
10.0
  9
$AUNITS
 70
     0
  9
$AUPREC
 70
     2
  9
$MENU
  1
.
  9
$ELEVATION
 40
0.0
  9
$PELEVATION
 40
0.0
  9
$THICKNESS
 40
0.0
  9
$LIMCHECK
 70
     0
  9
$CHAMFERA
 40
0.0
  9
$CHAMFERB
 40
0.0
  9
$CHAMFERC
 40
0.0
  9
$CHAMFERD
 40
0.0
  9
$SKPOLY
 70
     0
  9
$TDCREATE
 40
2457661.442718796
  9
$TDUCREATE
 40
2457661.359385463
  9
$TDUPDATE
 40
2457661.442719224
  9
$TDUUPDATE
 40
2457661.359385891
  9
$TDINDWG
 40
0.0000000116
  9
$TDUSRTIMER
 40
0.0000000116
  9
$USRTIMER
 70
     1
  9
$ANGBASE
 50
0.0
  9
$ANGDIR
 70
     0
  9
$PDMODE
 70
     0
  9
$PDSIZE
 40
-1.0
  9
$PLINEWID
 40
0.0
  9
$SPLFRAME
 70
     0
  9
$SPLINETYPE
 70
     6
  9
$SPLINESEGS
 70
     8
  9
$HANDSEED
  5
126
  9
$SURFTAB1
 70
     6
  9
$SURFTAB2
 70
     6
  9
$SURFTYPE
 70
     6
  9
$SURFU
 70
     6
  9
$SURFV
 70
     6
  9
$UCSBASE
  2

  9
$UCSNAME
  2

  9
$UCSORG
 10
0.0
 20
0.0
 30
0.0
  9
$UCSXDIR
 10
1.0
 20
0.0
 30
0.0
  9
$UCSYDIR
 10
0.0
 20
1.0
 30
0.0
  9
$UCSORTHOREF
  2

  9
$UCSORTHOVIEW
 70
     0
  9
$UCSORGTOP
 10
0.0
 20
0.0
 30
0.0
  9
$UCSORGBOTTOM
 10
0.0
 20
0.0
 30
0.0
  9
$UCSORGLEFT
 10
0.0
 20
0.0
 30
0.0
  9
$UCSORGRIGHT
 10
0.0
 20
0.0
 30
0.0
  9
$UCSORGFRONT
 10
0.0
 20
0.0
 30
0.0
  9
$UCSORGBACK
 10
0.0
 20
0.0
 30
0.0
  9
$PUCSBASE
  2

  9
$PUCSNAME
  2

  9
$PUCSORG
 10
0.0
 20
0.0
 30
0.0
  9
$PUCSXDIR
 10
1.0
 20
0.0
 30
0.0
  9
$PUCSYDIR
 10
0.0
 20
1.0
 30
0.0
  9
$PUCSORTHOREF
  2

  9
$PUCSORTHOVIEW
 70
     0
  9
$PUCSORGTOP
 10
0.0
 20
0.0
 30
0.0
  9
$PUCSORGBOTTOM
 10
0.0
 20
0.0
 30
0.0
  9
$PUCSORGLEFT
 10
0.0
 20
0.0
 30
0.0
  9
$PUCSORGRIGHT
 10
0.0
 20
0.0
 30
0.0
  9
$PUCSORGFRONT
 10
0.0
 20
0.0
 30
0.0
  9
$PUCSORGBACK
 10
0.0
 20
0.0
 30
0.0
  9
$USERI1
 70
     0
  9
$USERI2
 70
     0
  9
$USERI3
 70
     0
  9
$USERI4
 70
     0
  9
$USERI5
 70
     0
  9
$USERR1
 40
0.0
  9
$USERR2
 40
0.0
  9
$USERR3
 40
0.0
  9
$USERR4
 40
0.0
  9
$USERR5
 40
0.0
  9
$WORLDVIEW
 70
     1
  9
$SHADEDGE
 70
     3
  9
$SHADEDIF
 70
    70
  9
$TILEMODE
 70
     1
  9
$MAXACTVP
 70
    64
  9
$PINSBASE
 10
0.0
 20
0.0
 30
0.0
  9
$PLIMCHECK
 70
     0
  9
$PEXTMIN
 10
1.0000000000E+20
 20
1.0000000000E+20
 30
1.0000000000E+20
  9
$PEXTMAX
 10
-1.0000000000E+20
 20
-1.0000000000E+20
 30
-1.0000000000E+20
  9
$PLIMMIN
 10
0.0
 20
0.0
  9
$PLIMMAX
 10
420.0
 20
297.0
  9
$UNITMODE
 70
     0
  9
$VISRETAIN
 70
     1
  9
$PLINEGEN
 70
     0
  9
$PSLTSCALE
 70
     1
  9
$TREEDEPTH
 70
  3020
  9
$CMLSTYLE
  2
Standard
  9
$CMLJUST
 70
     0
  9
$CMLSCALE
 40
20.0
  9
$PROXYGRAPHICS
 70
     1
  9
$MEASUREMENT
 70
     1
  9
$CELWEIGHT
370
    -1
  9
$ENDCAPS
280
     0
  9
$JOINSTYLE
280
     0
  9
$LWDISPLAY
290
     1
  9
$INSUNITS
 70
     4
  9
$HYPERLINKBASE
  1

  9
$STYLESHEET
  1

  9
$XEDIT
290
     1
  9
$CEPSNTYPE
380
     0
  9
$PSTYLEMODE
290
     1
  9
$FINGERPRINTGUID
  2
{E70B43A0-B557-4382-842C-82F71DA42310}
  9
$VERSIONGUID
  2
{FAEB1C32-E019-11D5-929B-00C0DF256EC4}
  9
$EXTNAMES
290
     1
  9
$PSVPSCALE
 40
0.0
  9
$OLESTARTUP
290
     0
  9
$SORTENTS
280
   127
  9
$INDEXCTL
280
     0
  9
$HIDETEXT
280
     1
  9
$XCLIPFRAME
290
     0
  9
$HALOGAP
280
     0
  9
$OBSCOLOR
 70
   257
  9
$OBSLTYPE
280
     0
  9
$INTERSECTIONDISPLAY
280
     0
  9
$INTERSECTIONCOLOR
 70
   257
  9
$DIMASSOC
280
     2
  9
$PROJECTNAME
  1

  0
ENDSEC
  0
SECTION
  2
CLASSES
  0
CLASS
  1
ACDBDICTIONARYWDFLT
  2
AcDbDictionaryWithDefault
  3
ObjectDBX Classes
 90
        0
 91
        4
280
     0
281
     0
  0
CLASS
  1
VISUALSTYLE
  2
AcDbVisualStyle
  3
ObjectDBX Classes
 90
     4095
 91
        4
280
     0
281
     0
  0
CLASS
  1
MATERIAL
  2
AcDbMaterial
  3
ObjectDBX Classes
 90
     1153
 91
        4
280
     0
281
     0
  0
CLASS
  1
SCALE
  2
AcDbScale
  3
ObjectDBX Classes
 90
     1153
 91
        4
280
     0
281
     0
  0
CLASS
  1
TABLESTYLE
  2
AcDbTableStyle
  3
ObjectDBX Classes
 90
     4095
 91
        4
280
     0
281
     0
  0
CLASS
  1
MLEADERSTYLE
  2
AcDbMLeaderStyle
  3
ACDB_MLEADERSTYLE_CLASS
 90
     4095
 91
        4
280
     0
281
     0
  0
CLASS
  1
SUN
  2
AcDbSun
  3
SCENEOE
 90
     1153
 91
        4
280
     0
281
     0
  0
CLASS
  1
DICTIONARYVAR
  2
AcDbDictionaryVar
  3
ObjectDBX Classes
 90
        0
 91
        4
280
     0
281
     0
  0
CLASS
  1
CELLSTYLEMAP
  2
AcDbCellStyleMap
  3
ObjectDBX Classes
 90
     1152
 91
        4
280
     0
281
     0
  0
ENDSEC
  0
SECTION
  2
TABLES
  0
TABLE
  2
VPORT
  5
8
330
0
100
AcDbSymbolTable
 70
     1
  0
VPORT
  5
29
330
8
100
AcDbSymbolTableRecord
100
AcDbViewportTableRecord
  2
*Active
 70
     0
 10
0.0
 20
0.0
 11
1.0
 21
1.0
 12
148.5
 22
105.0
 13
0.0
 23
0.0
 14
10.0
 24
10.0
 15
10.0
 25
10.0
 16
0.0
 26
0.0
 36
1.0
 17
0.0
 27
0.0
 37
0.0
 40
210.0
 41
1.4142857143
 42
50.0
 43
0.0
 44
0.0
 50
0.0
 51
0.0
 71
     0
 72
  2000
 73
     1
 74
     3
 75
     0
 76
     0
 77
     0
 78
     0
281
     0
 65
     1
110
0.0
120
0.0
130
0.0
111
1.0
121
0.0
131
0.0
112
0.0
122
1.0
132
0.0
 79
     0
146
0.0
  0
ENDTAB
  0
TABLE
  2
LTYPE
  5
5
330
0
100
AcDbSymbolTable
 70
     8
  0
LTYPE
  5
14
330
5
100
AcDbSymbolTableRecord
100
AcDbLinetypeTableRecord
  2
ByBlock
 70
     0
  3

 72
    65
 73
     0
 40
0.0
  0
LTYPE
  5
15
330
5
100
AcDbSymbolTableRecord
100
AcDbLinetypeTableRecord
  2
ByLayer
 70
     0
  3

 72
    65
 73
     0
 40
0.0
  0
LTYPE
  5
16
330
5
100
AcDbSymbolTableRecord
100
AcDbLinetypeTableRecord
  2
Continuous
 70
     0
  3
Solid line
 72
    65
 73
     0
 40
0.0
  0
LTYPE
  5
6E
330
5
100
AcDbSymbolTableRecord
100
AcDbLinetypeTableRecord
  2
SLD-Durchgehend
 70
     0
  3
SolidWorks Line Style
 72
    65
 73
     0
 40
0.0
  0
LTYPE
  5
6F
330
5
100
AcDbSymbolTableRecord
100
AcDbLinetypeTableRecord
  2
SLD-Gestrichelt
 70
     0
  3
SolidWorks Line Style
 72
    65
 73
     2
 40
1.905
 49
1.27
 74
     0
 49
-0.635
 74
     0
  0
LTYPE
  5
70
330
5
100
AcDbSymbolTableRecord
100
AcDbLinetypeTableRecord
  2
SLD-Phantom
 70
     0
  3
SolidWorks Line Style
 72
    65
 73
     6
 40
12.7
 49
6.35
 74
     0
 49
-1.27
 74
     0
 49
1.27
 74
     0
 49
-1.27
 74
     0
 49
1.27
 74
     0
 49
-1.27
 74
     0
  0
LTYPE
  5
71
330
5
100
AcDbSymbolTableRecord
100
AcDbLinetypeTableRecord
  2
SLD-Kette
 70
     0
  3
SolidWorks Line Style
 72
    65
 73
     4
 40
10.16
 49
6.35
 74
     0
 49
-1.27
 74
     0
 49
1.27
 74
     0
 49
-1.27
 74
     0
  0
LTYPE
  5
72
330
5
100
AcDbSymbolTableRecord
100
AcDbLinetypeTableRecord
  2
SLD-Punktstrich
 70
     0
  3
SolidWorks Line Style
 72
    65
 73
     4
 40
19.05
 49
15.24
 74
     0
 49
-1.27
 74
     0
 49
1.27
 74
     0
 49
-1.27
 74
     0
  0
LTYPE
  5
73
330
5
100
AcDbSymbolTableRecord
100
AcDbLinetypeTableRecord
  2
SLD-Naht
 70
     0
  3
SolidWorks Line Style
 72
    65
 73
     2
 40
0.635
 49
0.0
 74
     0
 49
-0.635
 74
     0
  0
LTYPE
  5
74
330
5
100
AcDbSymbolTableRecord
100
AcDbLinetypeTableRecord
  2
SLD-Dicke-Dünne-Kette
 70
     0
  3
SolidWorks Line Style
 72
    65
 73
     4
 40
10.16
 49
6.35
 74
     0
 49
-1.27
 74
     0
 49
1.27
 74
     0
 49
-1.27
 74
     0
  0
ENDTAB
  0
TABLE
  2
LAYER
  5
2
330
0
100
AcDbSymbolTable
 70
     3
  0
LAYER
  5
10
330
2
100
AcDbSymbolTableRecord
100
AcDbLayerTableRecord
  2
0
 70
     0
 62
     7
  6
Continuous
370
    -3
390
F
  0
LAYER
  5
75
330
2
100
AcDbSymbolTableRecord
100
AcDbLayerTableRecord
  2
1
 70
     0
 62
     4
  6
Continuous
370
    -1
390
F
  0
LAYER
  5
76
330
2
100
AcDbSymbolTableRecord
100
AcDbLayerTableRecord
  2
2
 70
     0
 62
     7
  6
SLD-Durchgehend
370
    -3
390
F
  0
ENDTAB
  0
TABLE
  2
STYLE
  5
3
330
0
100
AcDbSymbolTable
 70
     2
  0
STYLE
  5
11
330
3
100
AcDbSymbolTableRecord
100
AcDbTextStyleTableRecord
  2
Standard
 70
     0
 40
0.0
 41
1.0
 50
0.0
 71
     0
 42
3.5
  3
txt
  4

  0
STYLE
  5
A9
330
3
100
AcDbSymbolTableRecord
100
AcDbTextStyleTableRecord
  2
SLDTEXTSTYLE0
 70
     0
 40
0.0
 41
0.75
 50
0.0
 71
     0
 42
3.5
  3
TXT
  4

  0
ENDTAB
  0
TABLE
  2
VIEW
  5
6
330
0
100
AcDbSymbolTable
 70
     0
  0
ENDTAB
  0
TABLE
  2
UCS
  5
7
330
0
100
AcDbSymbolTable
 70
     0
  0
ENDTAB
  0
TABLE
  2
APPID
  5
9
330
0
100
AcDbSymbolTable
 70
     2
  0
APPID
  5
12
330
9
100
AcDbSymbolTableRecord
100
AcDbRegAppTableRecord
  2
ACAD
 70
     0
  0
APPID
  5
120
330
9
100
AcDbSymbolTableRecord
100
AcDbRegAppTableRecord
  2
ACAD_MLEADERVER
 70
     0
  0
ENDTAB
  0
TABLE
  2
DIMSTYLE
  5
A
330
0
100
AcDbSymbolTable
 70
     4
100
AcDbDimStyleTable
  0
DIMSTYLE
105
27
330
A
100
AcDbSymbolTableRecord
100
AcDbDimStyleTableRecord
  2
ISO-25
 70
     0
 41
2.5
 42
0.625
 43
3.75
 44
1.25
 73
     0
 74
     0
 77
     1
 78
     8
140
2.5
141
2.5
143
0.0393700787
147
0.625
171
     3
172
     1
178
     0
271
     2
272
     2
274
     3
278
    44
283
     0
284
     8
340
11
  0
DIMSTYLE
105
AA
102
{ACAD_REACTORS
330
A8
330
103
330
10F
102
}
330
A
100
AcDbSymbolTableRecord
100
AcDbDimStyleTableRecord
  2
SLDDIMSTYLE0
 70
     0
 41
3.302
 44
0.0
 45
0.000000001
 73
     0
 74
     0
 77
     1
 78
    12
 79
     3
140
3.5
147
0.875
172
     1
173
     1
178
     0
271
     2
272
     2
276
     2
284
    12
289
     0
340
A9
  0
DIMSTYLE
105
B5
102
{ACAD_REACTORS
330
B4
330
BF
330
C9
102
}
330
A
100
AcDbSymbolTableRecord
100
AcDbDimStyleTableRecord
  2
SLDDIMSTYLE1
 70
     0
 41
3.302
 44
0.0
 45
0.000000001
 73
     0
 74
     0
 77
     1
 78
    12
 79
     3
140
3.5
147
0.875
173
     1
178
     0
271
     2
272
     2
276
     2
284
    12
340
A9
  0
DIMSTYLE
105
D4
102
{ACAD_REACTORS
330
D3
102
}
330
A
100
AcDbSymbolTableRecord
100
AcDbDimStyleTableRecord
  2
SLDDIMSTYLE2
 70
     0
 41
3.302
 44
0.0
 45
0.000000001
 73
     0
 74
     0
 77
     1
 78
    12
 79
     3
140
3.5
141
0.0
147
0.875
172
     1
173
     1
178
     0
271
     2
272
     2
276
     2
284
    12
340
A9
341
D5
343
D5
  0
ENDTAB
  0
TABLE
  2
BLOCK_RECORD
  5
1
330
0
100
AcDbSymbolTable
 70
     9
  0
BLOCK_RECORD
  5
1F
330
1
100
AcDbSymbolTableRecord
100
AcDbBlockTableRecord
  2
*Model_Space
340
22
  0
BLOCK_RECORD
  5
1B
330
1
100
AcDbSymbolTableRecord
100
AcDbBlockTableRecord
  2
*Paper_Space
340
1E
  0
BLOCK_RECORD
  5
23
330
1
100
AcDbSymbolTableRecord
100
AcDbBlockTableRecord
  2
*Paper_Space0
340
26
  0
BLOCK_RECORD
  5
AB
330
1
100
AcDbSymbolTableRecord
100
AcDbBlockTableRecord
  2
_D
340
0
  0
BLOCK_RECORD
  5
B6
330
1
100
AcDbSymbolTableRecord
100
AcDbBlockTableRecord
  2
_D_1
340
0
  0
BLOCK_RECORD
  5
C0
330
1
100
AcDbSymbolTableRecord
100
AcDbBlockTableRecord
  2
_D_2
340
0
  0
BLOCK_RECORD
  5
CA
330
1
100
AcDbSymbolTableRecord
100
AcDbBlockTableRecord
  2
_D_3
340
0
  0
BLOCK_RECORD
  5
D5
330
1
100
AcDbSymbolTableRecord
100
AcDbBlockTableRecord
  2
_NONE
340
0
  0
BLOCK_RECORD
  5
D8
330
1
100
AcDbSymbolTableRecord
100
AcDbBlockTableRecord
  2
_D_4
340
0
  0
BLOCK_RECORD
  5
104
330
1
100
AcDbSymbolTableRecord
100
AcDbBlockTableRecord
  2
_D_5
340
0
  0
BLOCK_RECORD
  5
110
330
1
100
AcDbSymbolTableRecord
100
AcDbBlockTableRecord
  2
_D_6
340
0
  0
ENDTAB
  0
ENDSEC
  0
SECTION
  2
BLOCKS
  0
BLOCK
  5
20
330
1F
100
AcDbEntity
  8
0
100
AcDbBlockBegin
  2
*Model_Space
 70
     0
 10
0.0
 20
0.0
 30
0.0
  3
*Model_Space
  1

  0
ENDBLK
  5
21
330
1F
100
AcDbEntity
  8
0
100
AcDbBlockEnd
  0
BLOCK
  5
1C
330
1B
100
AcDbEntity
 67
     1
  8
0
100
AcDbBlockBegin
  2
*Paper_Space
 70
     0
 10
0.0
 20
0.0
 30
0.0
  3
*Paper_Space
  1

  0
ENDBLK
  5
1D
330
1B
100
AcDbEntity
 67
     1
  8
0
100
AcDbBlockEnd
  0
BLOCK
  5
24
330
23
100
AcDbEntity
  8
0
100
AcDbBlockBegin
  2
*Paper_Space0
 70
     0
 10
0.0
 20
0.0
 30
0.0
  3
*Paper_Space0
  1

  0
ENDBLK
  5
25
330
23
100
AcDbEntity
  8
0
100
AcDbBlockEnd
  0
BLOCK
  5
AC
330
AB
100
AcDbEntity
  8
0
100
AcDbBlockBegin
  2
_D
 70
     0
 10
0.0
 20
0.0
 30
0.0
  3
_D
  1

  0
SOLID
  5
AE
330
AB
100
AcDbEntity
  8
2
 62
     7
420
 16777215
100
AcDbTrace
 10
46.6981221453
 20
4.9998362224
 30
0.0
 11
46.1901221453
 21
1.6978362224
 31
0.0
 12
47.2061221453
 22
1.6978362224
 32
0.0
 13
47.2061221453
 23
1.6978362224
 33
0.0
  0
SOLID
  5
AF
330
AB
100
AcDbEntity
  8
2
 62
     7
420
 16777215
100
AcDbTrace
 10
46.6981221453
 20
-15.0001637776
 30
0.0
 11
47.2061221453
 21
-11.6981637776
 31
0.0
 12
46.1901221453
 22
-11.6981637776
 32
0.0
 13
46.1901221453
 23
-11.6981637776
 33
0.0
  0
LINE
  5
B0
330
AB
100
AcDbEntity
  8
2
 62
     7
420
 16777215
100
AcDbLine
 10
38.4981221453
 20
4.9998362224
 30
0.0
 11
47.6981221453
 21
4.9998362224
 31
0.0
  0
LINE
  5
B1
330
AB
100
AcDbEntity
  8
2
 62
     7
420
 16777215
100
AcDbLine
 10
16.4981221453
 20
-15.0001637776
 30
0.0
 11
47.6981221453
 21
-15.0001637776
 31
0.0
  0
LINE
  5
B2
330
AB
100
AcDbEntity
  8
2
 62
     7
420
 16777215
100
AcDbLine
 10
46.6981221453
 20
4.9998362224
 30
0.0
 11
46.6981221453
 21
-15.0001637776
 31
0.0
  0
MTEXT
  5
B3
330
AB
100
AcDbEntity
  8
2
 62
     7
420
 16777215
100
AcDbMText
 10
42.1863852307
 20
-7.5862749711
 30
0.0
 40
3.5
 41
0.0
 71
     1
 72
     1
  1
20
  7
SLDTEXTSTYLE0
 11
-7.044195017643634E-15
 21
1.0
 31
0.0
 73
     1
 44
1.0
  0
ENDBLK
  5
AD
330
AB
100
AcDbEntity
  8
0
100
AcDbBlockEnd
  0
BLOCK
  5
B7
330
B6
100
AcDbEntity
  8
0
100
AcDbBlockBegin
  2
_D_1
 70
     0
 10
0.0
 20
0.0
 30
0.0
  3
_D_1
  1

  0
SOLID
  5
B9
330
B6
100
AcDbEntity
  8
2
 62
     7
420
 16777215
100
AcDbTrace
 10
52.6981221453
 20
-15.0001637776
 30
0.0
 11
53.2061221453
 21
-11.6981637776
 31
0.0
 12
52.1901221453
 22
-11.6981637776
 32
0.0
 13
52.1901221453
 23
-11.6981637776
 33
0.0
  0
SOLID
  5
BA
330
B6
100
AcDbEntity
  8
2
 62
     7
420
 16777215
100
AcDbTrace
 10
52.6981221453
 20
8.9998362224
 30
0.0
 11
52.1901221453
 21
5.6978362224
 31
0.0
 12
53.2061221453
 22
5.6978362224
 32
0.0
 13
53.2061221453
 23
5.6978362224
 33
0.0
  0
LINE
  5
BB
330
B6
100
AcDbEntity
  8
2
 62
     7
420
 16777215
100
AcDbLine
 10
16.4981221453
 20
-15.0001637776
 30
0.0
 11
53.6981221453
 21
-15.0001637776
 31
0.0
  0
LINE
  5
BC
330
B6
100
AcDbEntity
  8
2
 62
     7
420
 16777215
100
AcDbLine
 10
14.4981221453
 20
8.9998362224
 30
0.0
 11
53.6981221453
 21
8.9998362224
 31
0.0
  0
LINE
  5
BD
330
B6
100
AcDbEntity
  8
2
 62
     7
420
 16777215
100
AcDbLine
 10
52.6981221453
 20
-15.0001637776
 30
0.0
 11
52.6981221453
 21
8.9998362224
 31
0.0
  0
MTEXT
  5
BE
330
B6
100
AcDbEntity
  8
2
 62
     7
420
 16777215
100
AcDbMText
 10
48.1863852307
 20
-5.5862749711
 30
0.0
 40
3.5
 41
0.0
 71
     1
 72
     1
  1
24
  7
SLDTEXTSTYLE0
 11
2.832769448823990E-16
 21
1.0
 31
0.0
 73
     1
 44
1.0
  0
ENDBLK
  5
B8
330
B6
100
AcDbEntity
  8
0
100
AcDbBlockEnd
  0
BLOCK
  5
C1
330
C0
100
AcDbEntity
  8
0
100
AcDbBlockBegin
  2
_D_2
 70
     0
 10
0.0
 20
0.0
 30
0.0
  3
_D_2
  1

  0
SOLID
  5
C3
330
C0
100
AcDbEntity
  8
2
 62
     7
420
 16777215
100
AcDbTrace
 10
37.4981221453
 20
-25.0001637776
 30
0.0
 11
34.1961221453
 21
-24.4921637776
 31
0.0
 12
34.1961221453
 22
-25.5081637776
 32
0.0
 13
34.1961221453
 23
-25.5081637776
 33
0.0
  0
SOLID
  5
C4
330
C0
100
AcDbEntity
  8
2
 62
     7
420
 16777215
100
AcDbTrace
 10
15.4981221453
 20
-25.0001637776
 30
0.0
 11
18.8001221453
 21
-25.5081637776
 31
0.0
 12
18.8001221453
 22
-24.4921637776
 32
0.0
 13
18.8001221453
 23
-24.4921637776
 33
0.0
  0
LINE
  5
C5
330
C0
100
AcDbEntity
  8
2
 62
     7
420
 16777215
100
AcDbLine
 10
37.4981221453
 20
3.9998362224
 30
0.0
 11
37.4981221453
 21
-26.0001637776
 31
0.0
  0
LINE
  5
C6
330
C0
100
AcDbEntity
  8
2
 62
     7
420
 16777215
100
AcDbLine
 10
15.4981221453
 20
-16.0001637776
 30
0.0
 11
15.4981221453
 21
-26.0001637776
 31
0.0
  0
LINE
  5
C7
330
C0
100
AcDbEntity
  8
2
 62
     7
420
 16777215
100
AcDbLine
 10
37.4981221453
 20
-25.0001637776
 30
0.0
 11
15.4981221453
 21
-25.0001637776
 31
0.0
  0
MTEXT
  5
C8
330
C0
100
AcDbEntity
  8
2
 62
     7
420
 16777215
100
AcDbMText
 10
23.9120109518
 20
-20.488426863
 30
0.0
 40
3.5
 41
0.0
 71
     1
 72
     1
  1
22
  7
SLDTEXTSTYLE0
 73
     1
 44
1.0
  0
ENDBLK
  5
C2
330
C0
100
AcDbEntity
  8
0
100
AcDbBlockEnd
  0
BLOCK
  5
CB
330
CA
100
AcDbEntity
  8
0
100
AcDbBlockBegin
  2
_D_3
 70
     0
 10
0.0
 20
0.0
 30
0.0
  3
_D_3
  1

  0
SOLID
  5
CD
330
CA
100
AcDbEntity
  8
2
 62
     7
420
 16777215
100
AcDbTrace
 10
37.4981221453
 20
-37.0001637776
 30
0.0
 11
34.1961221453
 21
-36.4921637776
 31
0.0
 12
34.1961221453
 22
-37.5081637776
 32
0.0
 13
34.1961221453
 23
-37.5081637776
 33
0.0
  0
SOLID
  5
CE
330
CA
100
AcDbEntity
  8
2
 62
     7
420
 16777215
100
AcDbTrace
 10
-4.5018778547
 20
-37.0001637776
 30
0.0
 11
-1.1998778547
 21
-37.5081637776
 31
0.0
 12
-1.1998778547
 22
-36.4921637776
 32
0.0
 13
-1.1998778547
 23
-36.4921637776
 33
0.0
  0
LINE
  5
CF
330
CA
100
AcDbEntity
  8
2
 62
     7
420
 16777215
100
AcDbLine
 10
37.4981221453
 20
3.9998362224
 30
0.0
 11
37.4981221453
 21
-38.0001637776
 31
0.0
  0
LINE
  5
D0
330
CA
100
AcDbEntity
  8
2
 62
     7
420
 16777215
100
AcDbLine
 10
-4.5018778547
 20
-12.0001637776
 30
0.0
 11
-4.5018778547
 21
-38.0001637776
 31
0.0
  0
LINE
  5
D1
330
CA
100
AcDbEntity
  8
2
 62
     7
420
 16777215
100
AcDbLine
 10
37.4981221453
 20
-37.0001637776
 30
0.0
 11
-4.5018778547
 21
-37.0001637776
 31
0.0
  0
MTEXT
  5
D2
330
CA
100
AcDbEntity
  8
2
 62
     7
420
 16777215
100
AcDbMText
 10
13.9120109518
 20
-32.488426863
 30
0.0
 40
3.5
 41
0.0
 71
     1
 72
     1
  1
42
  7
SLDTEXTSTYLE0
 73
     1
 44
1.0
  0
ENDBLK
  5
CC
330
CA
100
AcDbEntity
  8
0
100
AcDbBlockEnd
  0
BLOCK
  5
D6
330
D5
100
AcDbEntity
  8
0
100
AcDbBlockBegin
  2
_NONE
 70
     0
 10
0.0
 20
0.0
 30
0.0
  3
_NONE
  1

  0
ENDBLK
  5
D7
330
D5
100
AcDbEntity
  8
0
100
AcDbBlockEnd
  0
BLOCK
  5
D9
330
D8
100
AcDbEntity
  8
0
100
AcDbBlockBegin
  2
_D_4
 70
     0
 10
0.0
 20
0.0
 30
0.0
  3
_D_4
  1

  0
ARC
  5
DB
330
D8
100
AcDbEntity
  8
2
 62
     7
420
 16777215
100
AcDbCircle
 10
45.6981221453
 20
4.9998362224
 30
0.0
 40
30.0
100
AcDbArc
 50
43.090847567
 51
178.090847567
  0
SOLID
  5
DC
330
D8
100
AcDbEntity
  8
2
 62
     7
420
 16777215
100
AcDbTrace
 10
66.9113255809
 20
26.213039658
 30
0.0
 11
69.6054024172
 21
28.1886960047
 31
0.0
 12
68.8869819275
 22
28.9071164944
 32
0.0
 13
68.8869819275
 23
28.9071164944
 33
0.0
  0
LINE
  5
DD
330
D8
100
AcDbEntity
  8
2
 62
     7
420
 16777215
100
AcDbLine
 10
66.9113255809
 20
26.213039658
 30
0.0
 11
80.3297370895
 21
39.6314511667
 31
0.0
  0
LINE
  5
DE
330
D8
100
AcDbEntity
  8
2
 62
     7
420
 16777215
100
AcDbLine
 10
66.9113255809
 20
26.213039658
 30
0.0
 11
24.4849187097
 21
-16.2133672132
 31
0.0
  0
MTEXT
  5
DF
330
D8
100
AcDbEntity
  8
2
 62
     7
420
 16777215
100
AcDbMText
 10
69.7537712043
 20
35.4279515891
 30
0.0
 40
3.5
 41
0.0
 71
     1
 72
     1
  1
%%c
  7
SLDTEXTSTYLE0
 11
0.7071067811865475
 21
0.7071067811865476
 31
0.0
 73
     1
 44
1.0
  0
MTEXT
  5
E0
330
D8
100
AcDbEntity
  8
2
 62
     7
420
 16777215
100
AcDbMText
 10
73.448379544
 20
39.1981810062
 30
0.0
 40
3.5
 41
0.0
 71
     1
 72
     1
  1
60
  7
SLDTEXTSTYLE0
 11
0.7071067811865475
 21
0.7071067811865476
 31
0.0
 73
     1
 44
1.0
  0
ENDBLK
  5
DA
330
D8
100
AcDbEntity
  8
0
100
AcDbBlockEnd
  0
BLOCK
  5
105
330
104
100
AcDbEntity
  8
0
100
AcDbBlockBegin
  2
_D_5
 70
     0
 10
0.0
 20
0.0
 30
0.0
  3
_D_5
  1

  0
SOLID
  5
107
330
104
100
AcDbEntity
  8
2
 62
     7
420
 16777215
100
AcDbTrace
 10
-14.3718778547
 20
-54.8150005157
 30
0.0
 11
-13.8638778547
 21
-51.5130005157
 31
0.0
 12
-14.8798778547
 22
-51.5130005157
 32
0.0
 13
-14.8798778547
 23
-51.5130005157
 33
0.0
  0
SOLID
  5
108
330
104
100
AcDbEntity
  8
2
 62
     7
420
 16777215
100
AcDbTrace
 10
-14.3718778547
 20
-59.2150005157
 30
0.0
 11
-14.8798778547
 21
-62.5170005157
 31
0.0
 12
-13.8638778547
 22
-62.5170005157
 32
0.0
 13
-13.8638778547
 23
-62.5170005157
 33
0.0
  0
LINE
  5
109
330
104
100
AcDbEntity
  8
2
 62
     7
420
 16777215
100
AcDbLine
 10
-5.3718778547
 20
-54.8150005157
 30
0.0
 11
-15.3718778547
 21
-54.8150005157
 31
0.0
  0
LINE
  5
10A
330
104
100
AcDbEntity
  8
2
 62
     7
420
 16777215
100
AcDbLine
 10
-5.3718778547
 20
-59.2150005157
 30
0.0
 11
-15.3718778547
 21
-59.2150005157
 31
0.0
  0
LINE
  5
10B
330
104
100
AcDbEntity
  8
2
 62
     7
420
 16777215
100
AcDbLine
 10
-14.3718778547
 20
-54.8150005157
 30
0.0
 11
-14.3718778547
 21
-48.4650005157
 31
0.0
  0
LINE
  5
10C
330
104
100
AcDbEntity
  8
2
 62
     7
420
 16777215
100
AcDbLine
 10
-14.3718778547
 20
-54.8150005157
 30
0.0
 11
-14.3718778547
 21
-59.2150005157
 31
0.0
  0
LINE
  5
10D
330
104
100
AcDbEntity
  8
2
 62
     7
420
 16777215
100
AcDbLine
 10
-14.3718778547
 20
-59.2150005157
 30
0.0
 11
-14.3718778547
 21
-75.9094452898
 31
0.0
  0
MTEXT
  5
10E
330
104
100
AcDbEntity
  8
2
 62
     7
420
 16777215
100
AcDbMText
 10
-18.8836147693
 20
-75.9094452898
 30
0.0
 40
3.5
 41
0.0
 71
     1
 72
     1
  1
4,40
  7
SLDTEXTSTYLE0
 11
-7.044195017643634E-15
 21
1.0
 31
0.0
 73
     1
 44
1.0
  0
ENDBLK
  5
106
330
104
100
AcDbEntity
  8
0
100
AcDbBlockEnd
  0
BLOCK
  5
111
330
110
100
AcDbEntity
  8
0
100
AcDbBlockBegin
  2
_D_6
 70
     0
 10
0.0
 20
0.0
 30
0.0
  3
_D_6
  1

  0
SOLID
  5
113
330
110
100
AcDbEntity
  8
2
 62
     7
420
 16777215
100
AcDbTrace
 10
46.8281221453
 20
-56.4650005157
 30
0.0
 11
46.3201221453
 21
-59.7670005157
 31
0.0
 12
47.3361221453
 22
-59.7670005157
 32
0.0
 13
47.3361221453
 23
-59.7670005157
 33
0.0
  0
SOLID
  5
114
330
110
100
AcDbEntity
  8
2
 62
     7
420
 16777215
100
AcDbTrace
 10
46.8281221453
 20
-54.8150005157
 30
0.0
 11
47.3361221453
 21
-51.5130005157
 31
0.0
 12
46.3201221453
 22
-51.5130005157
 32
0.0
 13
46.3201221453
 23
-51.5130005157
 33
0.0
  0
LINE
  5
115
330
110
100
AcDbEntity
  8
2
 62
     7
420
 16777215
100
AcDbLine
 10
34.3281221453
 20
-56.4650005157
 30
0.0
 11
47.8281221453
 21
-56.4650005157
 31
0.0
  0
LINE
  5
116
330
110
100
AcDbEntity
  8
2
 62
     7
420
 16777215
100
AcDbLine
 10
34.3281221453
 20
-54.8150005157
 30
0.0
 11
47.8281221453
 21
-54.8150005157
 31
0.0
  0
LINE
  5
117
330
110
100
AcDbEntity
  8
2
 62
     7
420
 16777215
100
AcDbLine
 10
46.8281221453
 20
-56.4650005157
 30
0.0
 11
46.8281221453
 21
-62.8150005157
 31
0.0
  0
LINE
  5
118
330
110
100
AcDbEntity
  8
2
 62
     7
420
 16777215
100
AcDbLine
 10
46.8281221453
 20
-56.4650005157
 30
0.0
 11
46.8281221453
 21
-54.8150005157
 31
0.0
  0
LINE
  5
119
330
110
100
AcDbEntity
  8
2
 62
     7
420
 16777215
100
AcDbLine
 10
46.8281221453
 20
-54.8150005157
 30
0.0
 11
46.8281221453
 21
-38.1205557416
 31
0.0
  0
MTEXT
  5
11A
330
110
100
AcDbEntity
  8
2
 62
     7
420
 16777215
100
AcDbMText
 10
42.3163852307
 20
-47.1719448025
 30
0.0
 40
3.5
 41
0.0
 71
     1
 72
     1
  1
1,65
  7
SLDTEXTSTYLE0
 11
6.123233995736766E-17
 21
1.0
 31
0.0
 73
     1
 44
1.0
  0
ENDBLK
  5
112
330
110
100
AcDbEntity
  8
0
100
AcDbBlockEnd
  0
ENDSEC
  0
SECTION
  2
ENTITIES
  0
LINE
  5
77
330
1F
100
AcDbEntity
  8
0
  6
SLD-Punktstrich
 62
     7
100
AcDbLine
 10
-4.5018778547
 20
-0.0001637776
 30
0.0
 11
37.4981221453
 21
-0.0001637776
 31
0.0
  0
POINT
  5
78
330
1F
100
AcDbEntity
  8
1
 62
     4
420
    65535
100
AcDbPoint
 10
37.4981221453
 20
-0.0001637776
 30
0.0
  0
POINT
  5
79
330
1F
100
AcDbEntity
  8
1
 62
     4
420
    65535
100
AcDbPoint
 10
36.6981221453
 20
-0.0001637776
 30
0.0
  0
POINT
  5
7A
330
1F
100
AcDbEntity
  8
1
 62
     4
420
    65535
100
AcDbPoint
 10
37.4981221453
 20
4.9998362224
 30
0.0
  0
LINE
  5
7B
330
1F
100
AcDbEntity
  8
1
 62
     4
420
    65535
100
AcDbLine
 10
27.1649374534
 20
3.4989561251
 30
0.0
 11
33.0141276955
 21
4.010693962
 31
0.0
  0
LINE
  5
7C
330
1F
100
AcDbEntity
  8
1
 62
     4
420
    65535
100
AcDbLine
 10
36.6981221453
 20
0.0056797639
 30
0.0
 11
26.9565808621
 21
-0.8465946637
 31
0.0
  0
CIRCLE
  5
7D
330
1F
100
AcDbEntity
  8
1
 62
     4
420
    65535
100
AcDbCircle
 10
11.4981221453
 20
-6.5001637776
 30
0.0
 40
2.0
  0
CIRCLE
  5
7E
330
1F
100
AcDbEntity
  8
1
 62
     4
420
    65535
100
AcDbCircle
 10
8.3981221453
 20
4.4998362224
 30
0.0
 40
2.0
  0
CIRCLE
  5
7F
330
1F
100
AcDbEntity
  8
1
 62
     4
420
    65535
100
AcDbCircle
 10
-0.0018778547
 20
-0.0001637776
 30
0.0
 40
2.0
  0
ARC
  5
80
330
1F
100
AcDbEntity
  8
1
 62
     4
420
    65535
100
AcDbCircle
 10
45.6981221453
 20
4.9998362224
 30
0.0
 40
30.0
100
AcDbArc
 50
180.0
 51
216.2284774381
  0
LINE
  5
81
330
1F
100
AcDbEntity
  8
1
 62
     4
420
    65535
100
AcDbLine
 10
21.4981221453
 20
-12.730364002
 30
0.0
 11
21.4981221453
 21
-15.0001637776
 31
0.0
  0
LINE
  5
82
330
1F
100
AcDbEntity
  8
1
 62
     4
420
    65535
100
AcDbLine
 10
21.4981221453
 20
-15.0001637776
 30
0.0
 11
15.4981221453
 21
-15.0001637776
 31
0.0
  0
LINE
  5
83
330
1F
100
AcDbEntity
  8
1
 62
     4
420
    65535
100
AcDbLine
 10
15.4981221453
 20
-11.0001637776
 30
0.0
 11
-4.5018778547
 21
-11.0001637776
 31
0.0
  0
LINE
  5
84
330
1F
100
AcDbEntity
  8
1
 62
     4
420
    65535
100
AcDbLine
 10
-4.5018778547
 20
-11.0001637776
 30
0.0
 11
-4.5018778547
 21
4.2688362224
 31
0.0
  0
LINE
  5
85
330
1F
100
AcDbEntity
  8
1
 62
     4
420
    65535
100
AcDbLine
 10
-4.5018778547
 20
4.2688362224
 30
0.0
 11
2.4981221453
 21
5.0045658693
 31
0.0
  0
LINE
  5
86
330
1F
100
AcDbEntity
  8
1
 62
     4
420
    65535
100
AcDbLine
 10
2.4981221453
 20
5.0045658693
 30
0.0
 11
2.4981221453
 21
8.9998362224
 31
0.0
  0
LINE
  5
87
330
1F
100
AcDbEntity
  8
1
 62
     4
420
    65535
100
AcDbLine
 10
2.4981221453
 20
8.9998362224
 30
0.0
 11
13.4981221453
 21
8.9998362224
 31
0.0
  0
ARC
  5
88
330
1F
100
AcDbEntity
  8
1
 62
     4
420
    65535
100
AcDbCircle
 10
19.1020500113
 20
34.3887312845
 30
0.0
 40
26.00000000000001
100
AcDbArc
 50
257.553043219
 51
262.4772236962
  0
LINE
  5
89
330
1F
100
AcDbEntity
  8
1
 62
     4
420
    65535
100
AcDbLine
 10
15.6981221453
 20
4.9998362224
 30
0.0
 11
15.6981221453
 21
8.6125159866
 31
0.0
  0
LINE
  5
8A
330
1F
100
AcDbEntity
  8
1
 62
     4
420
    65535
100
AcDbLine
 10
15.4981221453
 20
-15.0001637776
 30
0.0
 11
15.4981221453
 21
-11.0001637776
 31
0.0
  0
SPLINE
  5
8B
330
1F
100
AcDbEntity
  8
1
 62
     4
420
    65535
100
AcDbSpline
210
0.0
220
0.0
230
1.0
 70
     8
 71
     3
 72
    18
 73
    14
 74
     0
 42
0.000000001
 43
0.00000001
 40
0.0
 40
0.0
 40
0.0
 40
0.0
 40
0.1249999999999993
 40
0.1249999999999993
 40
0.2499999999999986
 40
0.2499999999999986
 40
0.3749999999999979
 40
0.3749999999999979
 40
0.4999999999999974
 40
0.4999999999999974
 40
0.7499999999999987
 40
0.7499999999999987
 40
1.0
 40
1.0
 40
1.0
 40
1.0
 10
21.4981221453097
 20
-12.73036400203744
 30
0.0
 10
21.49812214530971
 20
-12.73036400203744
 30
0.0
 10
21.51179288352381
 20
-12.72589354713975
 30
0.0
 10
21.56520212286821
 20
-12.70840899519155
 30
0.0
 10
21.6056854754895
 20
-12.69515059133721
 30
0.0
 10
21.71002367969178
 20
-12.66091787162413
 30
0.0
 10
21.77366588402828
 20
-12.6400135870979
 30
0.0
 10
21.92352416945116
 20
-12.5906710241447
 30
0.0
 10
22.00931753468145
 20
-12.56236997533726
 30
0.0
 10
22.28925824612203
 20
-12.46975545653844
 30
0.0
 10
22.51164872102367
 20
-12.39583591387436
 30
0.0
 10
22.98624235053247
 20
-12.23687236626224
 30
0.0
 10
23.24484956142327
 20
-12.14965515205763
 30
0.0
 10
23.4981221453097
 20
-12.06357492539494
 30
0.0
  0
LINE
  5
8C
330
1F
100
AcDbEntity
  8
1
 62
     4
420
    65535
100
AcDbLine
 10
23.4981221453
 20
-12.0635749254
 30
0.0
 11
23.4981221453
 21
-15.0001637776
 31
0.0
  0
LINE
  5
8D
330
1F
100
AcDbEntity
  8
1
 62
     4
420
    65535
100
AcDbLine
 10
23.4981221453
 20
-15.0001637776
 30
0.0
 11
21.4981221453
 21
-15.0001637776
 31
0.0
  0
LINE
  5
8E
330
1F
100
AcDbEntity
  8
1
 62
     4
420
    65535
100
AcDbLine
 10
17.6981221453
 20
4.9998362224
 30
0.0
 11
15.6981221453
 21
4.9998362224
 31
0.0
  0
ARC
  5
8F
330
1F
100
AcDbEntity
  8
1
 62
     4
420
    65535
100
AcDbCircle
 10
45.6981221453
 20
4.9998362224
 30
0.0
 40
28.0
100
AcDbArc
 50
180.0
 51
217.54667664
  0
LINE
  5
90
330
1F
100
AcDbEntity
  8
1
 62
     4
420
    65535
100
AcDbLine
 10
17.6981221453
 20
8.426663059
 30
0.0
 11
17.6981221453
 21
4.9998362224
 31
0.0
  0
SPLINE
  5
91
330
1F
100
AcDbEntity
  8
1
 62
     4
420
    65535
100
AcDbSpline
210
0.0
220
0.0
230
1.0
 70
     8
 71
     3
 72
    18
 73
    14
 74
     0
 42
0.000000001
 43
0.00000001
 40
0.0
 40
0.0
 40
0.0
 40
0.0
 40
0.1249999999999995
 40
0.1249999999999995
 40
0.249999999999999
 40
0.249999999999999
 40
0.3749999999999985
 40
0.3749999999999985
 40
0.499999999999998
 40
0.499999999999998
 40
0.749999999999999
 40
0.749999999999999
 40
1.0
 40
1.0
 40
1.0
 40
1.0
 10
17.69812214530967
 20
8.426663058981518
 30
0.0
 10
17.56599081762981
 20
8.433808208254115
 30
0.0
 10
17.43612991481722
 20
8.441841420387151
 30
0.0
 10
17.18074454931981
 20
8.4595012783844
 30
0.0
 10
17.05390965197774
 20
8.469243412498148
 30
0.0
 10
16.8120174833397
 20
8.489494201156564
 30
0.0
 10
16.69731141244851
 20
8.499947500518964
 30
0.0
 10
16.48021780332641
 20
8.52103155267674
 30
0.0
 10
16.37739469818432
 20
8.531723405932446
 30
0.0
 10
16.10077536643387
 20
8.56187002459986
 30
0.0
 10
15.95158019638518
 20
8.580114268167623
 30
0.0
 10
15.75144668624682
 20
8.605332949358768
 30
0.0
 10
15.69812214530967
 20
8.61251598662088
 30
0.0
 10
15.69812214530967
 20
8.612515986620876
 30
0.0
  0
LINE
  5
92
330
1F
100
AcDbEntity
  8
1
 62
     4
420
    65535
100
AcDbLine
 10
36.6981221453
 20
-0.2097122766
 30
0.0
 11
36.6981221453
 21
-2.8501637776
 31
0.0
  0
LINE
  5
93
330
1F
100
AcDbEntity
  8
1
 62
     4
420
    65535
100
AcDbLine
 10
25.9217188956
 20
0.092211204
 30
0.0
 11
26.2070816003
 21
2.8072559784
 31
0.0
  0
ARC
  5
94
330
1F
100
AcDbEntity
  8
1
 62
     4
420
    65535
100
AcDbCircle
 10
28.5585720258
 20
0.5638227213
 30
0.0
 40
3.250000000000001
100
AcDbArc
 50
95.0
 51
136.3471559457
  0
ARC
  5
95
330
1F
100
AcDbEntity
  8
1
 62
     4
420
    65535
100
AcDbCircle
 10
27.6984137982
 20
1.0105549431
 30
0.0
 40
2.000000000000003
100
AcDbArc
 50
207.3336826578
 51
275.0
  0
LINE
  5
96
330
1F
100
AcDbEntity
  8
1
 62
     4
420
    65535
100
AcDbLine
 10
29.8467375994
 20
-15.0001637776
 30
0.0
 11
31.5481221453
 21
-14.7001637776
 31
0.0
  0
LINE
  5
97
330
1F
100
AcDbEntity
  8
1
 62
     4
420
    65535
100
AcDbLine
 10
36.6981221453
 20
-0.2097122766
 30
0.0
 11
27.8727252837
 21
-0.9818344531
 31
0.0
  0
LINE
  5
98
330
1F
100
AcDbEntity
  8
1
 62
     4
420
    65535
100
AcDbLine
 10
28.2753158618
 20
3.8014554901
 30
0.0
 11
32.9962980353
 21
4.214487911
 31
0.0
  0
ARC
  5
99
330
1F
100
AcDbEntity
  8
1
 62
     4
420
    65535
100
AcDbCircle
 10
28.6981221453
 20
-2.8501637776
 30
0.0
 40
8.000000000000004
100
AcDbArc
 50
340.9981778053
 51
0.0
  0
LINE
  5
9A
330
1F
100
AcDbEntity
  8
1
 62
     4
420
    65535
100
AcDbLine
 10
32.9962980353
 20
4.214487911
 30
0.0
 11
33.1981221453
 21
4.6282886591
 31
0.0
  0
ARC
  5
9B
330
1F
100
AcDbEntity
  8
1
 62
     4
420
    65535
100
AcDbCircle
 10
25.5193459008
 20
0.9998362224
 30
0.0
 40
8.0
100
AcDbArc
 50
50.0
 51
100.8794943591
  0
ARC
  5
9C
330
1F
100
AcDbEntity
  8
1
 62
     4
420
    65535
100
AcDbCircle
 10
30.679881257
 20
-9.7761250125
 30
0.0
 40
5.000000000000004
100
AcDbArc
 50
280.0
 51
2.6494234515
  0
ARC
  5
9D
330
1F
100
AcDbEntity
  8
1
 62
     4
420
    65535
100
AcDbCircle
 10
46.6627783439
 20
-9.0365300507
 30
0.0
 40
11.0
100
AcDbArc
 50
160.9981778053
 51
182.6494234515
  0
LINE
  5
9E
330
1F
100
AcDbEntity
  8
1
 62
     4
420
    65535
100
AcDbLine
 10
33.1981221453
 20
4.6282886591
 30
0.0
 11
33.1981221453
 21
4.9998362224
 31
0.0
  0
LINE
  5
9F
330
1F
100
AcDbEntity
  8
1
 62
     4
420
    65535
100
AcDbLine
 10
33.1981221453
 20
4.9998362224
 30
0.0
 11
30.6616467783
 21
7.1281917674
 31
0.0
  0
ARC
  5
A0
330
1F
100
AcDbEntity
  8
1
 62
     4
420
    65535
100
AcDbCircle
 10
19.1020500113
 20
34.3887312845
 30
0.0
 40
26.00000000000001
100
AcDbArc
 50
266.9046814522
 51
280.8794943591
  0
LINE
  5
A1
330
1F
100
AcDbEntity
  8
1
 62
     4
420
    65535
100
AcDbLine
 10
29.8467375994
 20
-15.0001637776
 30
0.0
 11
23.4981221453
 21
-15.0001637776
 31
0.0
  0
LINE
  5
A2
330
1F
100
AcDbEntity
  8
1
 62
     4
420
    65535
100
AcDbLine
 10
27.0024715553
 20
-0.8644555621
 30
0.0
 11
36.6981221453
 21
-0.01619605
 31
0.0
  0
LINE
  5
A3
330
1F
100
AcDbEntity
  8
1
 62
     4
420
    65535
100
AcDbLine
 10
36.6981221453
 20
-0.01619605
 30
0.0
 11
36.6981221453
 21
-0.2097122766
 31
0.0
  0
LINE
  5
A4
330
1F
100
AcDbEntity
  8
1
 62
     4
420
    65535
100
AcDbLine
 10
33.0122283479
 20
4.0324036045
 30
0.0
 11
32.9962980353
 21
4.214487911
 31
0.0
  0
LINE
  5
A5
330
1F
100
AcDbEntity
  8
1
 62
     4
420
    65535
100
AcDbLine
 10
27.2207838724
 20
3.5257178675
 30
0.0
 11
33.0122283479
 21
4.0324036045
 31
0.0
  0
LINE
  5
A6
330
1F
100
AcDbEntity
  8
1
 62
     4
420
    65535
100
AcDbLine
 10
33.0141276955
 20
4.010693962
 30
0.0
 11
33.0122283479
 21
4.0324036045
 31
0.0
  0
LINE
  5
A7
330
1F
100
AcDbEntity
  8
1
 62
     4
420
    65535
100
AcDbLine
 10
36.6981221453
 20
0.0056797639
 30
0.0
 11
36.6981221453
 21
-0.01619605
 31
0.0
  0
DIMENSION
  5
A8
330
1F
100
AcDbEntity
  8
2
 62
     7
420
 16777215
100
AcDbDimension
  2
_D
 10
46.6981221453
 20
-15.0001637776
 30
0.0
 11
46.6981221453
 21
-5.0001637776
 31
0.0
 70
   160
  1
<>
 71
     2
 42
-1.0
  3
SLDDIMSTYLE0
100
AcDbAlignedDimension
 13
37.4981221453
 23
4.9998362224
 33
0.0
 14
15.4981221453
 24
-15.0001637776
 34
0.0
 50
90.0
100
AcDbRotatedDimension
  0
DIMENSION
  5
B4
330
1F
100
AcDbEntity
  8
2
 62
     7
420
 16777215
100
AcDbDimension
  2
_D_1
 10
52.6981221453
 20
8.9998362224
 30
0.0
 11
52.6981221453
 21
-3.0001637776
 31
0.0
 70
   160
  1
<>
 71
     2
 42
-1.0
  3
SLDDIMSTYLE1
100
AcDbAlignedDimension
 13
15.4981221453
 23
-15.0001637776
 33
0.0
 14
13.4981221453
 24
8.9998362224
 34
0.0
 50
90.0
100
AcDbRotatedDimension
  0
DIMENSION
  5
BF
330
1F
100
AcDbEntity
  8
2
 62
     7
420
 16777215
100
AcDbDimension
  2
_D_2
 10
15.4981221453
 20
-25.0001637776
 30
0.0
 11
26.4981221453
 21
-25.0001637776
 31
0.0
 70
   160
  1
<>
 71
     2
 42
-1.0
  3
SLDDIMSTYLE1
100
AcDbAlignedDimension
 13
37.4981221453
 23
4.9998362224
 33
0.0
 14
15.4981221453
 24
-15.0001637776
 34
0.0
100
AcDbRotatedDimension
  0
DIMENSION
  5
C9
330
1F
100
AcDbEntity
  8
2
 62
     7
420
 16777215
100
AcDbDimension
  2
_D_3
 10
-4.5018778547
 20
-37.0001637776
 30
0.0
 11
16.4981221453
 21
-37.0001637776
 31
0.0
 70
   160
  1
<>
 71
     2
 42
-1.0
  3
SLDDIMSTYLE1
100
AcDbAlignedDimension
 13
37.4981221453
 23
4.9998362224
 33
0.0
 14
-4.5018778547
 24
-11.0001637776
 34
0.0
100
AcDbRotatedDimension
  0
DIMENSION
  5
D3
330
1F
100
AcDbEntity
  8
2
 62
     7
420
 16777215
100
AcDbDimension
  2
_D_4
 10
24.4849187097
 20
-16.2133672132
 30
0.0
 11
76.6981321453
 21
35.9998462224
 31
0.0
 70
   163
  1
<>
 71
     1
 42
-1.0
  3
SLDDIMSTYLE2
100
AcDbDiametricDimension
 15
66.9113255809
 25
26.213039658
 35
0.0
 40
0.0
  0
LINE
  5
E1
330
1F
100
AcDbEntity
  8
1
 62
     4
420
    65535
100
AcDbLine
 10
30.7916467783
 20
-56.4650005157
 30
0.0
 11
30.7916467783
 21
-54.8150005157
 31
0.0
  0
LINE
  5
E2
330
1F
100
AcDbEntity
  8
1
 62
     4
420
    65535
100
AcDbLine
 10
30.7916467783
 20
-56.4650005157
 30
0.0
 11
24.1393939268
 21
-56.4650005157
 31
0.0
  0
LINE
  5
E3
330
1F
100
AcDbEntity
  8
1
 62
     4
420
    65535
100
AcDbLine
 10
24.1393939268
 20
-56.4650005157
 30
0.0
 11
24.1393939268
 21
-54.8150005157
 31
0.0
  0
LINE
  5
E4
330
1F
100
AcDbEntity
  8
1
 62
     4
420
    65535
100
AcDbLine
 10
30.7916467783
 20
-54.8150005157
 30
0.0
 11
24.1393939268
 21
-54.8150005157
 31
0.0
  0
LINE
  5
E5
330
1F
100
AcDbEntity
  8
1
 62
     4
420
    65535
100
AcDbLine
 10
2.6281221453
 20
-54.8150005157
 30
0.0
 11
2.6281221453
 21
-59.2150005157
 31
0.0
  0
LINE
  5
E6
330
1F
100
AcDbEntity
  8
1
 62
     4
420
    65535
100
AcDbLine
 10
13.6281221453
 20
-59.2150005157
 30
0.0
 11
13.6281221453
 21
-54.8150005157
 31
0.0
  0
LINE
  5
E7
330
1F
100
AcDbEntity
  8
1
 62
     4
420
    65535
100
AcDbLine
 10
2.6281221453
 20
-59.2150005157
 30
0.0
 11
13.6281221453
 21
-59.2150005157
 31
0.0
  0
LINE
  5
E8
330
1F
100
AcDbEntity
  8
1
 62
     4
420
    65535
100
AcDbLine
 10
2.6281221453
 20
-54.8150005157
 30
0.0
 11
13.6281221453
 21
-54.8150005157
 31
0.0
  0
LINE
  5
E9
330
1F
100
AcDbEntity
  8
1
 62
     4
420
    65535
100
AcDbLine
 10
24.1393939268
 20
-56.4650005157
 30
0.0
 11
17.8281221453
 21
-56.4650005157
 31
0.0
  0
SPLINE
  5
EA
330
1F
100
AcDbEntity
  8
1
 62
     4
420
    65535
100
AcDbSpline
210
0.0
220
0.0
230
1.0
 70
     8
 71
     3
 72
    18
 73
    14
 74
     0
 42
0.000000001
 43
0.00000001
 40
0.0
 40
0.0
 40
0.0
 40
0.0
 40
0.1249999999999995
 40
0.1249999999999995
 40
0.249999999999999
 40
0.249999999999999
 40
0.3749999999999985
 40
0.3749999999999985
 40
0.499999999999998
 40
0.499999999999998
 40
0.749999999999999
 40
0.749999999999999
 40
1.0
 40
1.0
 40
1.0
 40
1.0
 10
17.82812214530966
 20
-56.46500051566736
 30
0.0
 10
17.6959908176298
 20
-56.46500051566736
 30
0.0
 10
17.56612991481721
 20
-56.47796530413545
 30
0.0
 10
17.3107445493198
 20
-56.52869752184799
 30
0.0
 10
17.18390965197774
 20
-56.56707365219705
 30
0.0
 10
16.94201748333969
 20
-56.66723672593238
 30
0.0
 10
16.82731141244849
 20
-56.72851085904812
 30
0.0
 10
16.6102178033264
 20
-56.87323185649165
 30
0.0
 10
16.50739469818431
 20
-56.95746863748215
 30
0.0
 10
16.23077536643385
 20
-57.23358804157328
 30
0.0
 10
16.08158019638517
 20
-57.45630125399464
 30
0.0
 10
15.88144668624681
 20
-57.93742337729376
 30
0.0
 10
15.82812214530966
 20
-58.20033216919735
 30
0.0
 10
15.82812214530966
 20
-58.46500051566735
 30
0.0
  0
LINE
  5
EB
330
1F
100
AcDbEntity
  8
1
 62
     4
420
    65535
100
AcDbLine
 10
15.8281221453
 20
-59.2150005157
 30
0.0
 11
15.8281221453
 21
-58.4650005157
 31
0.0
  0
LINE
  5
EC
330
1F
100
AcDbEntity
  8
1
 62
     4
420
    65535
100
AcDbLine
 10
15.8281221453
 20
-59.2150005157
 30
0.0
 11
13.6281221453
 21
-59.2150005157
 31
0.0
  0
LINE
  5
ED
330
1F
100
AcDbEntity
  8
1
 62
     4
420
    65535
100
AcDbLine
 10
24.1393939268
 20
-54.8150005157
 30
0.0
 11
13.6281221453
 21
-54.8150005157
 31
0.0
  0
LINE
  5
EE
330
1F
100
AcDbEntity
  8
1
 62
     4
420
    65535
100
AcDbLine
 10
33.3281221453
 20
-56.4650005157
 30
0.0
 11
33.3281221453
 21
-54.8150005157
 31
0.0
  0
LINE
  5
EF
330
1F
100
AcDbEntity
  8
1
 62
     4
420
    65535
100
AcDbLine
 10
33.3281221453
 20
-56.4650005157
 30
0.0
 11
30.7916467783
 21
-56.4650005157
 31
0.0
  0
LINE
  5
F0
330
1F
100
AcDbEntity
  8
1
 62
     4
420
    65535
100
AcDbLine
 10
33.3281221453
 20
-54.8150005157
 30
0.0
 11
30.7916467783
 21
-54.8150005157
 31
0.0
  0
LINE
  5
F1
330
1F
100
AcDbEntity
  8
1
 62
     4
420
    65535
100
AcDbLine
 10
-4.3718778547
 20
-54.8150005157
 30
0.0
 11
-4.3718778547
 21
-59.2150005157
 31
0.0
  0
LINE
  5
F2
330
1F
100
AcDbEntity
  8
1
 62
     4
420
    65535
100
AcDbLine
 10
-4.3718778547
 20
-59.2150005157
 30
0.0
 11
2.6281221453
 21
-59.2150005157
 31
0.0
  0
LINE
  5
F3
330
1F
100
AcDbEntity
  8
1
 62
     4
420
    65535
100
AcDbLine
 10
-4.3718778547
 20
-54.8150005157
 30
0.0
 11
2.6281221453
 21
-54.8150005157
 31
0.0
  0
LINE
  5
F4
330
1F
100
AcDbEntity
  8
1
 62
     4
420
    65535
100
AcDbLine
 10
21.6281221453
 20
-58.4650005157
 30
0.0
 11
15.8281221453
 21
-58.4650005157
 31
0.0
  0
SPLINE
  5
F5
330
1F
100
AcDbEntity
  8
1
 62
     4
420
    65535
100
AcDbSpline
210
0.0
220
0.0
230
1.0
 70
     8
 71
     3
 72
    18
 73
    14
 74
     0
 42
0.000000001
 43
0.00000001
 40
0.0
 40
0.0
 40
0.0
 40
0.0
 40
0.1249999999999993
 40
0.1249999999999993
 40
0.2499999999999986
 40
0.2499999999999986
 40
0.3749999999999979
 40
0.3749999999999979
 40
0.4999999999999974
 40
0.4999999999999974
 40
0.7499999999999987
 40
0.7499999999999987
 40
1.0
 40
1.0
 40
1.0
 40
1.0
 10
21.62812214530969
 20
-58.46500051566735
 30
0.0
 10
21.6281221453097
 20
-58.32928311715903
 30
0.0
 10
21.6417928835238
 20
-58.19604171197066
 30
0.0
 10
21.6952021228682
 20
-57.93428122907827
 30
0.0
 10
21.7356854754895
 20
-57.80437146393726
 30
0.0
 10
21.84002367969177
 20
-57.5592129188629
 30
0.0
 10
21.90366588402827
 20
-57.44333108802755
 30
0.0
 10
22.05352416945114
 20
-57.22475899448339
 30
0.0
 10
22.13931753468144
 20
-57.12319972438336
 30
0.0
 10
22.41925824612202
 20
-56.85052778387102
 30
0.0
 10
22.64164872102366
 20
-56.70648672057251
 30
0.0
 10
23.11624235053246
 20
-56.51474933695721
 30
0.0
 10
23.37484956142326
 20
-56.46500051566736
 30
0.0
 10
23.62812214530969
 20
-56.46500051566736
 30
0.0
  0
LINE
  5
F6
330
1F
100
AcDbEntity
  8
1
 62
     4
420
    65535
100
AcDbLine
 10
21.6281221453
 20
-58.4650005157
 30
0.0
 11
21.6281221453
 21
-59.2150005157
 31
0.0
  0
LINE
  5
F7
330
1F
100
AcDbEntity
  8
1
 62
     4
420
    65535
100
AcDbLine
 10
21.6281221453
 20
-59.2150005157
 30
0.0
 11
15.8281221453
 21
-59.2150005157
 31
0.0
  0
LINE
  5
F8
330
1F
100
AcDbEntity
  8
1
 62
     4
420
    65535
100
AcDbLine
 10
36.8281221453
 20
-55.5097732539
 30
0.0
 11
36.8281221453
 21
-55.7702277775
 31
0.0
  0
LINE
  5
F9
330
1F
100
AcDbEntity
  8
1
 62
     4
420
    65535
100
AcDbLine
 10
33.3281221453
 20
-54.9498999486
 30
0.0
 11
36.8281221453
 21
-54.9498999486
 31
0.0
  0
LINE
  5
FA
330
1F
100
AcDbEntity
  8
1
 62
     4
420
    65535
100
AcDbLine
 10
36.8281221453
 20
-54.9498999486
 30
0.0
 11
36.8281221453
 21
-55.5097732539
 31
0.0
  0
LINE
  5
FB
330
1F
100
AcDbEntity
  8
1
 62
     4
420
    65535
100
AcDbLine
 10
33.3281221453
 20
-56.3301010827
 30
0.0
 11
36.8281221453
 21
-56.3301010827
 31
0.0
  0
LINE
  5
FC
330
1F
100
AcDbEntity
  8
1
 62
     4
420
    65535
100
AcDbLine
 10
36.8281221453
 20
-55.7702277775
 30
0.0
 11
36.8281221453
 21
-56.3301010827
 31
0.0
  0
LINE
  5
FD
330
1F
100
AcDbEntity
  8
1
 62
     4
420
    65535
100
AcDbLine
 10
36.8281221453
 20
-54.9498999486
 30
0.0
 11
36.8281221453
 21
-54.8150005157
 31
0.0
  0
LINE
  5
FE
330
1F
100
AcDbEntity
  8
1
 62
     4
420
    65535
100
AcDbLine
 10
33.3281221453
 20
-54.8150005157
 30
0.0
 11
36.8281221453
 21
-54.8150005157
 31
0.0
  0
LINE
  5
FF
330
1F
100
AcDbEntity
  8
1
 62
     4
420
    65535
100
AcDbLine
 10
36.8281221453
 20
-56.4650005157
 30
0.0
 11
36.8281221453
 21
-56.3301010827
 31
0.0
  0
LINE
  5
100
330
1F
100
AcDbEntity
  8
1
 62
     4
420
    65535
100
AcDbLine
 10
36.8281221453
 20
-56.4650005157
 30
0.0
 11
33.3281221453
 21
-56.4650005157
 31
0.0
  0
LINE
  5
101
330
1F
100
AcDbEntity
  8
1
 62
     4
420
    65535
100
AcDbLine
 10
33.3281221453
 20
-55.7702277775
 30
0.0
 11
36.8281221453
 21
-55.7702277775
 31
0.0
  0
LINE
  5
102
330
1F
100
AcDbEntity
  8
1
 62
     4
420
    65535
100
AcDbLine
 10
33.3281221453
 20
-55.5097732539
 30
0.0
 11
36.8281221453
 21
-55.5097732539
 31
0.0
  0
DIMENSION
  5
103
330
1F
100
AcDbEntity
  8
2
 62
     7
420
 16777215
100
AcDbDimension
  2
_D_5
 10
-14.3718778547
 20
-59.2150005157
 30
0.0
 11
-14.3718778547
 21
-71.3837507593
 31
0.0
 70
   160
  1
<>
 71
     2
 42
-1.0
  3
SLDDIMSTYLE0
100
AcDbAlignedDimension
 13
-4.3718778547
 23
-54.8150005157
 33
0.0
 14
-4.3718778547
 24
-59.2150005157
 34
0.0
 50
90.0
100
AcDbRotatedDimension
  0
DIMENSION
  5
10F
330
1F
100
AcDbEntity
  8
2
 62
     7
420
 16777215
100
AcDbDimension
  2
_D_6
 10
46.8281221453
 20
-54.8150005157
 30
0.0
 11
46.8281221453
 21
-42.646250272
 31
0.0
 70
   160
  1
<>
 71
     2
 42
-1.0
  3
SLDDIMSTYLE0
100
AcDbAlignedDimension
 13
33.3281221453
 23
-56.4650005157
 33
0.0
 14
33.3281221453
 24
-54.8150005157
 34
0.0
 50
90.0
100
AcDbRotatedDimension
  0
ENDSEC
  0
SECTION
  2
OBJECTS
  0
DICTIONARY
  5
C
330
0
100
AcDbDictionary
281
     1
  3
ACAD_DETAILVIEWSTYLE
350
124
  3
ACAD_GROUP
350
D
  3
ACAD_LAYOUT
350
1A
  3
ACAD_MATERIAL
350
43
  3
ACAD_MLEADERSTYLE
350
6B
  3
ACAD_MLINESTYLE
350
17
  3
ACAD_PLOTSETTINGS
350
19
  3
ACAD_PLOTSTYLENAME
350
E
  3
ACAD_SCALELIST
350
47
  3
ACAD_SECTIONVIEWSTYLE
350
125
  3
ACAD_TABLESTYLE
350
69
  3
ACDB_RECOMPOSE_DATA
350
121
  3
AcDbVariableDictionary
350
11B
  0
DICTIONARY
  5
124
102
{ACAD_REACTORS
330
C
102
}
330
C
100
AcDbDictionary
281
     1
  0
DICTIONARY
  5
D
102
{ACAD_REACTORS
330
C
102
}
330
C
100
AcDbDictionary
281
     1
  0
DICTIONARY
  5
1A
102
{ACAD_REACTORS
330
C
102
}
330
C
100
AcDbDictionary
281
     1
  3
Layout1
350
1E
  3
Layout2
350
26
  3
Model
350
22
  0
DICTIONARY
  5
43
102
{ACAD_REACTORS
330
C
102
}
330
C
100
AcDbDictionary
281
     1
  3
ByBlock
350
45
  3
ByLayer
350
44
  3
Global
350
46
  0
DICTIONARY
  5
6B
102
{ACAD_REACTORS
330
C
102
}
330
C
100
AcDbDictionary
281
     1
  3
Standard
350
6C
  0
DICTIONARY
  5
17
102
{ACAD_REACTORS
330
C
102
}
330
C
100
AcDbDictionary
281
     1
  3
Standard
350
18
  0
DICTIONARY
  5
19
102
{ACAD_REACTORS
330
C
102
}
330
C
100
AcDbDictionary
281
     1
  0
ACDBDICTIONARYWDFLT
  5
E
102
{ACAD_REACTORS
330
C
102
}
330
C
100
AcDbDictionary
281
     1
  3
Normal
350
F
100
AcDbDictionaryWithDefault
340
F
  0
DICTIONARY
  5
47
102
{ACAD_REACTORS
330
C
102
}
330
C
100
AcDbDictionary
281
     1
  3
A0
350
48
  3
A1
350
49
  3
A2
350
4A
  3
A3
350
4B
  3
A4
350
4C
  3
A5
350
4D
  3
A6
350
4E
  3
A7
350
4F
  3
A8
350
50
  3
A9
350
51
  3
B0
350
52
  3
B1
350
53
  3
B2
350
54
  3
B3
350
55
  3
B4
350
56
  3
B5
350
57
  3
B6
350
58
  3
B7
350
59
  3
B8
350
5A
  3
B9
350
5B
  3
C0
350
5C
  3
C1
350
5D
  3
C2
350
5E
  3
C3
350
5F
  3
C4
350
60
  3
C5
350
61
  3
C6
350
62
  3
C7
350
63
  3
C8
350
64
  3
C9
350
65
  3
D0
350
66
  3
D1
350
67
  3
D2
350
68
  0
DICTIONARY
  5
125
102
{ACAD_REACTORS
330
C
102
}
330
C
100
AcDbDictionary
281
     1
  0
DICTIONARY
  5
69
102
{ACAD_REACTORS
330
C
102
}
330
C
100
AcDbDictionary
281
     1
  3
Standard
350
6A
  0
XRECORD
  5
121
102
{ACAD_REACTORS
330
C
102
}
330
C
100
AcDbXrecord
280
     1
 90
        1
330
6A
  0
DICTIONARY
  5
11B
102
{ACAD_REACTORS
330
C
102
}
330
C
100
AcDbDictionary
281
     1
  3
CANNOSCALE
350
11C
  3
CMLEADERSTYLE
350
123
  3
CTABLESTYLE
350
122
  0
LAYOUT
  5
1E
102
{ACAD_REACTORS
330
1A
102
}
330
1A
100
AcDbPlotSettings
  1

  2
none_device
  4

  6

 40
0.0
 41
0.0
 42
0.0
 43
0.0
 44
0.0
 45
0.0
 46
0.0
 47
0.0
 48
0.0
 49
0.0
140
0.0
141
0.0
142
1.0
143
1.0
 70
   688
 72
     1
 73
     0
 74
     5
  7

 75
    16
 76
     0
 77
     2
 78
   300
147
1.0
148
0.0
149
0.0
100
AcDbLayout
  1
Layout1
 70
     1
 71
     1
 10
0.0
 20
0.0
 11
420.0
 21
297.0
 12
0.0
 22
0.0
 32
0.0
 14
1.0000000000E+20
 24
1.0000000000E+20
 34
1.0000000000E+20
 15
-1.0000000000E+20
 25
-1.0000000000E+20
 35
-1.0000000000E+20
146
0.0
 13
0.0
 23
0.0
 33
0.0
 16
1.0
 26
0.0
 36
0.0
 17
0.0
 27
1.0
 37
0.0
 76
     0
330
1B
  0
LAYOUT
  5
26
102
{ACAD_REACTORS
330
1A
102
}
330
1A
100
AcDbPlotSettings
  1

  2
none_device
  4

  6

 40
0.0
 41
0.0
 42
0.0
 43
0.0
 44
0.0
 45
0.0
 46
0.0
 47
0.0
 48
0.0
 49
0.0
140
0.0
141
0.0
142
1.0
143
1.0
 70
   688
 72
     1
 73
     0
 74
     5
  7

 75
    16
 76
     0
 77
     2
 78
   300
147
1.0
148
0.0
149
0.0
100
AcDbLayout
  1
Layout2
 70
     1
 71
     2
 10
0.0
 20
0.0
 11
0.0
 21
0.0
 12
0.0
 22
0.0
 32
0.0
 14
0.0
 24
0.0
 34
0.0
 15
0.0
 25
0.0
 35
0.0
146
0.0
 13
0.0
 23
0.0
 33
0.0
 16
1.0
 26
0.0
 36
0.0
 17
0.0
 27
1.0
 37
0.0
 76
     0
330
23
  0
LAYOUT
  5
22
102
{ACAD_REACTORS
330
1A
102
}
330
1A
100
AcDbPlotSettings
  1

  2
none_device
  4
Letter_(8.50_x_11.00_Inches)
  6

 40
6.35
 41
6.35
 42
6.35000508
 43
6.35000508
 44
215.9
 45
279.4
 46
0.0
 47
0.0
 48
0.0
 49
0.0
140
0.0
141
0.0
142
1.0
143
1.0
 70
  1712
 72
     1
 73
     0
 74
     0
  7

 75
     0
 76
     0
 77
     2
 78
   300
147
1.0
148
0.0
149
0.0
100
AcDbLayout
  1
Model
 70
     1
 71
     0
 10
0.0
 20
0.0
 11
297.0
 21
210.0
 12
0.0
 22
0.0
 32
0.0
 14
0.0
 24
0.0
 34
0.0
 15
297.0
 25
210.0
 35
0.0
146
0.0
 13
0.0
 23
0.0
 33
0.0
 16
1.0
 26
0.0
 36
0.0
 17
0.0
 27
1.0
 37
0.0
 76
     0
330
1F
331
29
  0
MATERIAL
  5
45
102
{ACAD_REACTORS
330
43
102
}
330
43
100
AcDbMaterial
  1
ByBlock
  0
MATERIAL
  5
44
102
{ACAD_REACTORS
330
43
102
}
330
43
100
AcDbMaterial
  1
ByLayer
  0
MATERIAL
  5
46
102
{ACAD_REACTORS
330
43
102
}
330
43
100
AcDbMaterial
  1
Global
  0
MLEADERSTYLE
  5
6C
102
{ACAD_REACTORS
330
6B
102
}
330
6B
100
AcDbMLeaderStyle
170
     2
171
     1
172
     0
 90
        2
 40
0.0
 41
0.0
173
     1
 91
-1056964608
340
14
 92
       -2
290
     1
 42
2.0
291
     1
 43
8.0
  3
Standard
341
0
 44
4.0
300

342
11
174
     1
178
     6
175
     1
176
     0
 93
-1056964608
 45
4.0
292
     0
297
     0
 46
4.0
343
0
 94
-1056964608
 47
1.0
 49
1.0
140
1.0
293
     1
141
0.0
294
     1
177
     0
142
1.0
295
     0
296
     0
143
3.75
1001
ACAD_MLEADERVER
1070
     2
  0
MLINESTYLE
  5
18
102
{ACAD_REACTORS
330
17
102
}
330
17
100
AcDbMlineStyle
  2
Standard
 70
     0
  3

 62
   256
 51
90.0
 52
90.0
 71
     2
 49
0.5
 62
   256
  6
BYLAYER
 49
-0.5
 62
   256
  6
BYLAYER
  0
ACDBPLACEHOLDER
  5
F
102
{ACAD_REACTORS
330
E
102
}
330
E
  0
SCALE
  5
48
102
{ACAD_REACTORS
330
47
102
}
330
47
100
AcDbScale
 70
     0
300
1:1
140
1.0
141
1.0
290
     1
  0
SCALE
  5
49
102
{ACAD_REACTORS
330
47
102
}
330
47
100
AcDbScale
 70
     0
300
1:2
140
1.0
141
2.0
290
     0
  0
SCALE
  5
4A
102
{ACAD_REACTORS
330
47
102
}
330
47
100
AcDbScale
 70
     0
300
1:4
140
1.0
141
4.0
290
     0
  0
SCALE
  5
4B
102
{ACAD_REACTORS
330
47
102
}
330
47
100
AcDbScale
 70
     0
300
1:5
140
1.0
141
5.0
290
     0
  0
SCALE
  5
4C
102
{ACAD_REACTORS
330
47
102
}
330
47
100
AcDbScale
 70
     0
300
1:8
140
1.0
141
8.0
290
     0
  0
SCALE
  5
4D
102
{ACAD_REACTORS
330
47
102
}
330
47
100
AcDbScale
 70
     0
300
1:10
140
1.0
141
10.0
290
     0
  0
SCALE
  5
4E
102
{ACAD_REACTORS
330
47
102
}
330
47
100
AcDbScale
 70
     0
300
1:16
140
1.0
141
16.0
290
     0
  0
SCALE
  5
4F
102
{ACAD_REACTORS
330
47
102
}
330
47
100
AcDbScale
 70
     0
300
1:20
140
1.0
141
20.0
290
     0
  0
SCALE
  5
50
102
{ACAD_REACTORS
330
47
102
}
330
47
100
AcDbScale
 70
     0
300
1:30
140
1.0
141
30.0
290
     0
  0
SCALE
  5
51
102
{ACAD_REACTORS
330
47
102
}
330
47
100
AcDbScale
 70
     0
300
1:40
140
1.0
141
40.0
290
     0
  0
SCALE
  5
52
102
{ACAD_REACTORS
330
47
102
}
330
47
100
AcDbScale
 70
     0
300
1:50
140
1.0
141
50.0
290
     0
  0
SCALE
  5
53
102
{ACAD_REACTORS
330
47
102
}
330
47
100
AcDbScale
 70
     0
300
1:100
140
1.0
141
100.0
290
     0
  0
SCALE
  5
54
102
{ACAD_REACTORS
330
47
102
}
330
47
100
AcDbScale
 70
     0
300
2:1
140
2.0
141
1.0
290
     0
  0
SCALE
  5
55
102
{ACAD_REACTORS
330
47
102
}
330
47
100
AcDbScale
 70
     0
300
4:1
140
4.0
141
1.0
290
     0
  0
SCALE
  5
56
102
{ACAD_REACTORS
330
47
102
}
330
47
100
AcDbScale
 70
     0
300
8:1
140
8.0
141
1.0
290
     0
  0
SCALE
  5
57
102
{ACAD_REACTORS
330
47
102
}
330
47
100
AcDbScale
 70
     0
300
10:1
140
10.0
141
1.0
290
     0
  0
SCALE
  5
58
102
{ACAD_REACTORS
330
47
102
}
330
47
100
AcDbScale
 70
     0
300
100:1
140
100.0
141
1.0
290
     0
  0
SCALE
  5
59
102
{ACAD_REACTORS
330
47
102
}
330
47
100
AcDbScale
 70
     0
300
1/128" = 1'-0"
140
0.0078125
141
12.0
290
     0
  0
SCALE
  5
5A
102
{ACAD_REACTORS
330
47
102
}
330
47
100
AcDbScale
 70
     0
300
1/64" = 1'-0"
140
0.015625
141
12.0
290
     0
  0
SCALE
  5
5B
102
{ACAD_REACTORS
330
47
102
}
330
47
100
AcDbScale
 70
     0
300
1/32" = 1'-0"
140
0.03125
141
12.0
290
     0
  0
SCALE
  5
5C
102
{ACAD_REACTORS
330
47
102
}
330
47
100
AcDbScale
 70
     0
300
1/16" = 1'-0"
140
0.0625
141
12.0
290
     0
  0
SCALE
  5
5D
102
{ACAD_REACTORS
330
47
102
}
330
47
100
AcDbScale
 70
     0
300
3/32" = 1'-0"
140
0.09375
141
12.0
290
     0
  0
SCALE
  5
5E
102
{ACAD_REACTORS
330
47
102
}
330
47
100
AcDbScale
 70
     0
300
1/8" = 1'-0"
140
0.125
141
12.0
290
     0
  0
SCALE
  5
5F
102
{ACAD_REACTORS
330
47
102
}
330
47
100
AcDbScale
 70
     0
300
3/16" = 1'-0"
140
0.1875
141
12.0
290
     0
  0
SCALE
  5
60
102
{ACAD_REACTORS
330
47
102
}
330
47
100
AcDbScale
 70
     0
300
1/4" = 1'-0"
140
0.25
141
12.0
290
     0
  0
SCALE
  5
61
102
{ACAD_REACTORS
330
47
102
}
330
47
100
AcDbScale
 70
     0
300
3/8" = 1'-0"
140
0.375
141
12.0
290
     0
  0
SCALE
  5
62
102
{ACAD_REACTORS
330
47
102
}
330
47
100
AcDbScale
 70
     0
300
1/2" = 1'-0"
140
0.5
141
12.0
290
     0
  0
SCALE
  5
63
102
{ACAD_REACTORS
330
47
102
}
330
47
100
AcDbScale
 70
     0
300
3/4" = 1'-0"
140
0.75
141
12.0
290
     0
  0
SCALE
  5
64
102
{ACAD_REACTORS
330
47
102
}
330
47
100
AcDbScale
 70
     0
300
1" = 1'-0"
140
1.0
141
12.0
290
     0
  0
SCALE
  5
65
102
{ACAD_REACTORS
330
47
102
}
330
47
100
AcDbScale
 70
     0
300
1-1/2" = 1'-0"
140
1.5
141
12.0
290
     0
  0
SCALE
  5
66
102
{ACAD_REACTORS
330
47
102
}
330
47
100
AcDbScale
 70
     0
300
3" = 1'-0"
140
3.0
141
12.0
290
     0
  0
SCALE
  5
67
102
{ACAD_REACTORS
330
47
102
}
330
47
100
AcDbScale
 70
     0
300
6" = 1'-0"
140
6.0
141
12.0
290
     0
  0
SCALE
  5
68
102
{ACAD_REACTORS
330
47
102
}
330
47
100
AcDbScale
 70
     0
300
1'-0" = 1'-0"
140
12.0
141
12.0
290
     0
  0
TABLESTYLE
  5
6A
102
{ACAD_REACTORS
330
69
102
}
102
{ACAD_XDICTIONARY
360
11D
102
}
330
69
100
AcDbTableStyle
  3
Standard
 70
     0
 71
     0
 40
0.06
 41
0.06
280
     0
281
     0
  7
Standard
140
4.5
170
     2
 62
     0
 63
   257
283
     0
274
    -2
284
     1
 64
     0
275
    -2
285
     1
 65
     0
276
    -2
286
     1
 66
     0
277
    -2
287
     1
 67
     0
278
    -2
288
     1
 68
     0
279
    -2
289
     1
 69
     0
  7
Standard
140
6.0
170
     5
 62
     0
 63
   257
283
     0
274
    -2
284
     1
 64
     0
275
    -2
285
     1
 65
     0
276
    -2
286
     1
 66
     0
277
    -2
287
     1
 67
     0
278
    -2
288
     1
 68
     0
279
    -2
289
     1
 69
     0
  7
Standard
140
4.5
170
     5
 62
     0
 63
   257
283
     0
274
    -2
284
     1
 64
     0
275
    -2
285
     1
 65
     0
276
    -2
286
     1
 66
     0
277
    -2
287
     1
 67
     0
278
    -2
288
     1
 68
     0
279
    -2
289
     1
 69
     0
  0
DICTIONARYVAR
  5
11C
102
{ACAD_REACTORS
330
11B
102
}
330
11B
100
DictionaryVariables
280
     0
  1
1:1
  0
DICTIONARYVAR
  5
123
102
{ACAD_REACTORS
330
11B
102
}
330
11B
100
DictionaryVariables
280
     0
  1
Standard
  0
DICTIONARYVAR
  5
122
102
{ACAD_REACTORS
330
11B
102
}
330
11B
100
DictionaryVariables
280
     0
  1
Standard
  0
DICTIONARY
  5
11D
330
6A
100
AcDbDictionary
280
     1
281
     1
  3
ACAD_ROUNDTRIP_2008_TABLESTYLE_CELLSTYLEMAP
360
11F
  3
ACAD_XREC_ROUNDTRIP
360
11E
  0
CELLSTYLEMAP
  5
11F
102
{ACAD_REACTORS
330
11D
102
}
330
11D
100
AcDbCellStyleMap
 90
        3
300
CELLSTYLE
  1
TABLEFORMAT_BEGIN
 90
        5
170
     1
 91
        0
 92
    32768
 62
   257
 93
        1
300
CONTENTFORMAT
  1
CONTENTFORMAT_BEGIN
 90
        0
 91
        0
 92
        4
 93
        0
300

 40
0.0
140
1.0
 94
        5
 62
     0
340
11
144
6.0
309
CONTENTFORMAT_END
171
     1
301
MARGIN
  1
CELLMARGIN_BEGIN
 40
1.5
 40
1.5
 40
1.5
 40
1.5
 40
1.5
 40
1.5
309
CELLMARGIN_END
 94
        6
 95
        1
302
GRIDFORMAT
  1
GRIDFORMAT_BEGIN
 90
        0
 91
        1
 62
     0
 92
       -2
340
14
 93
        0
 40
0.045
309
GRIDFORMAT_END
 95
        2
302
GRIDFORMAT
  1
GRIDFORMAT_BEGIN
 90
        0
 91
        1
 62
     0
 92
       -2
340
14
 93
        0
 40
0.045
309
GRIDFORMAT_END
 95
        4
302
GRIDFORMAT
  1
GRIDFORMAT_BEGIN
 90
        0
 91
        1
 62
     0
 92
       -2
340
14
 93
        0
 40
0.045
309
GRIDFORMAT_END
 95
        8
302
GRIDFORMAT
  1
GRIDFORMAT_BEGIN
 90
        0
 91
        1
 62
     0
 92
       -2
340
14
 93
        0
 40
0.045
309
GRIDFORMAT_END
 95
       16
302
GRIDFORMAT
  1
GRIDFORMAT_BEGIN
 90
        0
 91
        1
 62
     0
 92
       -2
340
14
 93
        0
 40
0.045
309
GRIDFORMAT_END
 95
       32
302
GRIDFORMAT
  1
GRIDFORMAT_BEGIN
 90
        0
 91
        1
 62
     0
 92
       -2
340
14
 93
        0
 40
0.045
309
GRIDFORMAT_END
309
TABLEFORMAT_END
  1
CELLSTYLE_BEGIN
 90
        1
 91
        1
300
_TITLE
309
CELLSTYLE_END
300
CELLSTYLE
  1
TABLEFORMAT_BEGIN
 90
        5
170
     1
 91
        0
 92
        0
 62
   257
 93
        1
300
CONTENTFORMAT
  1
CONTENTFORMAT_BEGIN
 90
        0
 91
        0
 92
        4
 93
        0
300

 40
0.0
140
1.0
 94
        5
 62
     0
340
11
144
4.5
309
CONTENTFORMAT_END
171
     1
301
MARGIN
  1
CELLMARGIN_BEGIN
 40
1.5
 40
1.5
 40
1.5
 40
1.5
 40
1.5
 40
1.5
309
CELLMARGIN_END
 94
        6
 95
        1
302
GRIDFORMAT
  1
GRIDFORMAT_BEGIN
 90
        0
 91
        1
 62
     0
 92
       -2
340
14
 93
        0
 40
0.045
309
GRIDFORMAT_END
 95
        2
302
GRIDFORMAT
  1
GRIDFORMAT_BEGIN
 90
        0
 91
        1
 62
     0
 92
       -2
340
14
 93
        0
 40
0.045
309
GRIDFORMAT_END
 95
        4
302
GRIDFORMAT
  1
GRIDFORMAT_BEGIN
 90
        0
 91
        1
 62
     0
 92
       -2
340
14
 93
        0
 40
0.045
309
GRIDFORMAT_END
 95
        8
302
GRIDFORMAT
  1
GRIDFORMAT_BEGIN
 90
        0
 91
        1
 62
     0
 92
       -2
340
14
 93
        0
 40
0.045
309
GRIDFORMAT_END
 95
       16
302
GRIDFORMAT
  1
GRIDFORMAT_BEGIN
 90
        0
 91
        1
 62
     0
 92
       -2
340
14
 93
        0
 40
0.045
309
GRIDFORMAT_END
 95
       32
302
GRIDFORMAT
  1
GRIDFORMAT_BEGIN
 90
        0
 91
        1
 62
     0
 92
       -2
340
14
 93
        0
 40
0.045
309
GRIDFORMAT_END
309
TABLEFORMAT_END
  1
CELLSTYLE_BEGIN
 90
        2
 91
        1
300
_HEADER
309
CELLSTYLE_END
300
CELLSTYLE
  1
TABLEFORMAT_BEGIN
 90
        5
170
     1
 91
        0
 92
        0
 62
   257
 93
        1
300
CONTENTFORMAT
  1
CONTENTFORMAT_BEGIN
 90
        0
 91
        0
 92
        4
 93
        0
300

 40
0.0
140
1.0
 94
        2
 62
     0
340
11
144
4.5
309
CONTENTFORMAT_END
171
     1
301
MARGIN
  1
CELLMARGIN_BEGIN
 40
1.5
 40
1.5
 40
1.5
 40
1.5
 40
1.5
 40
1.5
309
CELLMARGIN_END
 94
        6
 95
        1
302
GRIDFORMAT
  1
GRIDFORMAT_BEGIN
 90
        0
 91
        1
 62
     0
 92
       -2
340
14
 93
        0
 40
0.045
309
GRIDFORMAT_END
 95
        2
302
GRIDFORMAT
  1
GRIDFORMAT_BEGIN
 90
        0
 91
        1
 62
     0
 92
       -2
340
14
 93
        0
 40
0.045
309
GRIDFORMAT_END
 95
        4
302
GRIDFORMAT
  1
GRIDFORMAT_BEGIN
 90
        0
 91
        1
 62
     0
 92
       -2
340
14
 93
        0
 40
0.045
309
GRIDFORMAT_END
 95
        8
302
GRIDFORMAT
  1
GRIDFORMAT_BEGIN
 90
        0
 91
        1
 62
     0
 92
       -2
340
14
 93
        0
 40
0.045
309
GRIDFORMAT_END
 95
       16
302
GRIDFORMAT
  1
GRIDFORMAT_BEGIN
 90
        0
 91
        1
 62
     0
 92
       -2
340
14
 93
        0
 40
0.045
309
GRIDFORMAT_END
 95
       32
302
GRIDFORMAT
  1
GRIDFORMAT_BEGIN
 90
        0
 91
        1
 62
     0
 92
       -2
340
14
 93
        0
 40
0.045
309
GRIDFORMAT_END
309
TABLEFORMAT_END
  1
CELLSTYLE_BEGIN
 90
        3
 91
        2
300
_DATA
309
CELLSTYLE_END
  0
XRECORD
  5
11E
102
{ACAD_REACTORS
330
11D
102
}
330
11D
100
AcDbXrecord
280
     1
102
ACAD_ROUNDTRIP_PRE2007_TABLESTYLE
 90
        4
 91
        0
  1

 92
        4
 93
        0
  2

 94
        4
 95
        0
  3

  0
ENDSEC
  0
EOF
