  0
SECTION
  2
HEADER
  9
$ACADVER
  1
AC1018
  9
$ACADMAINTVER
 70
     0
  9
$DWGCODEPAGE
  3
ANSI_1252
  9
$INSBASE
 10
0.0
 20
0.0
 30
0.0
  9
$EXTMIN
 10
0.0
 20
0.0
 30
0.0
  9
$EXTMAX
 10
297.0
 20
210.0
 30
0.0
  9
$LIMMIN
 10
0.0
 20
0.0
  9
$LIMMAX
 10
297.0
 20
210.0
  9
$ORTHOMODE
 70
     0
  9
$REGENMODE
 70
     1
  9
$FILLMODE
 70
     1
  9
$QTEXTMODE
 70
     0
  9
$MIRRTEXT
 70
     1
  9
$LTSCALE
 40
1.0
  9
$ATTMODE
 70
     1
  9
$TEXTSIZE
 40
3.5
  9
$TRACEWID
 40
1.0
  9
$TEXTSTYLE
  7
Standard
  9
$CLAYER
  8
0
  9
$CELTYPE
  6
ByLayer
  9
$CECOLOR
 62
   256
  9
$CELTSCALE
 40
1.0
  9
$DISPSILH
 70
     0
  9
$DIMSCALE
 40
1.0
  9
$DIMASZ
 40
3.302
  9
$DIMEXO
 40
1.0
  9
$DIMDLI
 40
3.75
  9
$DIMRND
 40
0.0
  9
$DIMDLE
 40
0.0
  9
$DIMEXE
 40
1.0
  9
$DIMTP
 40
0.0
  9
$DIMTM
 40
0.0
  9
$DIMTXT
 40
3.5
  9
$DIMCEN
 40
2.5
  9
$DIMTSZ
 40
0.0
  9
$DIMTOL
 70
     0
  9
$DIMLIM
 70
     0
  9
$DIMTIH
 70
     1
  9
$DIMTOH
 70
     1
  9
$DIMSE1
 70
     0
  9
$DIMSE2
 70
     0
  9
$DIMTAD
 70
     1
  9
$DIMZIN
 70
     0
  9
$DIMBLK
  1

  9
$DIMASO
 70
     1
  9
$DIMSHO
 70
     1
  9
$DIMPOST
  1

  9
$DIMAPOST
  1

  9
$DIMALT
 70
     0
  9
$DIMALTD
 70
     3
  9
$DIMALTF
 40
0.0393700787
  9
$DIMLFAC
 40
1.0
  9
$DIMTOFL
 70
     1
  9
$DIMTVP
 40
0.0
  9
$DIMTIX
 70
     0
  9
$DIMSOXD
 70
     0
  9
$DIMSAH
 70
     0
  9
$DIMBLK1
  1

  9
$DIMBLK2
  1

  9
$DIMSTYLE
  2
ISO-25
  9
$DIMCLRD
 70
     0
  9
$DIMCLRE
 70
     0
  9
$DIMCLRT
 70
     0
  9
$DIMTFAC
 40
1.0
  9
$DIMGAP
 40
1.524
  9
$DIMJUST
 70
     0
  9
$DIMSD1
 70
     0
  9
$DIMSD2
 70
     0
  9
$DIMTOLJ
 70
     0
  9
$DIMTZIN
 70
     0
  9
$DIMALTZ
 70
     0
  9
$DIMALTTZ
 70
     0
  9
$DIMUPT
 70
     0
  9
$DIMDEC
 70
     2
  9
$DIMTDEC
 70
     2
  9
$DIMALTU
 70
     2
  9
$DIMALTTD
 70
     3
  9
$DIMTXSTY
  7
Standard
  9
$DIMAUNIT
 70
     0
  9
$DIMADEC
 70
     2
  9
$DIMALTRND
 40
0.0
  9
$DIMAZIN
 70
     0
  9
$DIMDSEP
 70
    44
  9
$DIMATFIT
 70
     3
  9
$DIMFRAC
 70
     0
  9
$DIMLDRBLK
  1

  9
$DIMLUNIT
 70
     2
  9
$DIMLWD
 70
    -2
  9
$DIMLWE
 70
    -2
  9
$DIMTMOVE
 70
     0
  9
$LUNITS
 70
     2
  9
$LUPREC
 70
     2
  9
$SKETCHINC
 40
1.0
  9
$FILLETRAD
 40
10.0
  9
$AUNITS
 70
     0
  9
$AUPREC
 70
     2
  9
$MENU
  1
.
  9
$ELEVATION
 40
0.0
  9
$PELEVATION
 40
0.0
  9
$THICKNESS
 40
0.0
  9
$LIMCHECK
 70
     0
  9
$CHAMFERA
 40
0.0
  9
$CHAMFERB
 40
0.0
  9
$CHAMFERC
 40
0.0
  9
$CHAMFERD
 40
0.0
  9
$SKPOLY
 70
     0
  9
$TDCREATE
 40
2457112.377239757
  9
$TDUCREATE
 40
2457112.293906424
  9
$TDUPDATE
 40
2457112.377240266
  9
$TDUUPDATE
 40
2457112.293906933
  9
$TDINDWG
 40
0.0000000116
  9
$TDUSRTIMER
 40
0.0000000116
  9
$USRTIMER
 70
     1
  9
$ANGBASE
 50
0.0
  9
$ANGDIR
 70
     0
  9
$PDMODE
 70
     0
  9
$PDSIZE
 40
-1.0
  9
$PLINEWID
 40
0.0
  9
$SPLFRAME
 70
     0
  9
$SPLINETYPE
 70
     6
  9
$SPLINESEGS
 70
     8
  9
$HANDSEED
  5
163
  9
$SURFTAB1
 70
     6
  9
$SURFTAB2
 70
     6
  9
$SURFTYPE
 70
     6
  9
$SURFU
 70
     6
  9
$SURFV
 70
     6
  9
$UCSBASE
  2

  9
$UCSNAME
  2

  9
$UCSORG
 10
0.0
 20
0.0
 30
0.0
  9
$UCSXDIR
 10
1.0
 20
0.0
 30
0.0
  9
$UCSYDIR
 10
0.0
 20
1.0
 30
0.0
  9
$UCSORTHOREF
  2

  9
$UCSORTHOVIEW
 70
     0
  9
$UCSORGTOP
 10
0.0
 20
0.0
 30
0.0
  9
$UCSORGBOTTOM
 10
0.0
 20
0.0
 30
0.0
  9
$UCSORGLEFT
 10
0.0
 20
0.0
 30
0.0
  9
$UCSORGRIGHT
 10
0.0
 20
0.0
 30
0.0
  9
$UCSORGFRONT
 10
0.0
 20
0.0
 30
0.0
  9
$UCSORGBACK
 10
0.0
 20
0.0
 30
0.0
  9
$PUCSBASE
  2

  9
$PUCSNAME
  2

  9
$PUCSORG
 10
0.0
 20
0.0
 30
0.0
  9
$PUCSXDIR
 10
1.0
 20
0.0
 30
0.0
  9
$PUCSYDIR
 10
0.0
 20
1.0
 30
0.0
  9
$PUCSORTHOREF
  2

  9
$PUCSORTHOVIEW
 70
     0
  9
$PUCSORGTOP
 10
0.0
 20
0.0
 30
0.0
  9
$PUCSORGBOTTOM
 10
0.0
 20
0.0
 30
0.0
  9
$PUCSORGLEFT
 10
0.0
 20
0.0
 30
0.0
  9
$PUCSORGRIGHT
 10
0.0
 20
0.0
 30
0.0
  9
$PUCSORGFRONT
 10
0.0
 20
0.0
 30
0.0
  9
$PUCSORGBACK
 10
0.0
 20
0.0
 30
0.0
  9
$USERI1
 70
     0
  9
$USERI2
 70
     0
  9
$USERI3
 70
     0
  9
$USERI4
 70
     0
  9
$USERI5
 70
     0
  9
$USERR1
 40
0.0
  9
$USERR2
 40
0.0
  9
$USERR3
 40
0.0
  9
$USERR4
 40
0.0
  9
$USERR5
 40
0.0
  9
$WORLDVIEW
 70
     1
  9
$SHADEDGE
 70
     3
  9
$SHADEDIF
 70
    70
  9
$TILEMODE
 70
     1
  9
$MAXACTVP
 70
    64
  9
$PINSBASE
 10
0.0
 20
0.0
 30
0.0
  9
$PLIMCHECK
 70
     0
  9
$PEXTMIN
 10
1.0000000000E+20
 20
1.0000000000E+20
 30
1.0000000000E+20
  9
$PEXTMAX
 10
-1.0000000000E+20
 20
-1.0000000000E+20
 30
-1.0000000000E+20
  9
$PLIMMIN
 10
0.0
 20
0.0
  9
$PLIMMAX
 10
420.0
 20
297.0
  9
$UNITMODE
 70
     0
  9
$VISRETAIN
 70
     1
  9
$PLINEGEN
 70
     0
  9
$PSLTSCALE
 70
     1
  9
$TREEDEPTH
 70
  3020
  9
$CMLSTYLE
  2
Standard
  9
$CMLJUST
 70
     0
  9
$CMLSCALE
 40
20.0
  9
$PROXYGRAPHICS
 70
     1
  9
$MEASUREMENT
 70
     1
  9
$CELWEIGHT
370
    -1
  9
$ENDCAPS
280
     0
  9
$JOINSTYLE
280
     0
  9
$LWDISPLAY
290
     1
  9
$INSUNITS
 70
     4
  9
$HYPERLINKBASE
  1

  9
$STYLESHEET
  1

  9
$XEDIT
290
     1
  9
$CEPSNTYPE
380
     0
  9
$PSTYLEMODE
290
     1
  9
$FINGERPRINTGUID
  2
{EB9377A7-38FA-421F-8DFC-C4D819FE3FF9}
  9
$VERSIONGUID
  2
{FAEB1C32-E019-11D5-929B-00C0DF256EC4}
  9
$EXTNAMES
290
     1
  9
$PSVPSCALE
 40
0.0
  9
$OLESTARTUP
290
     0
  9
$SORTENTS
280
   127
  9
$INDEXCTL
280
     0
  9
$HIDETEXT
280
     1
  9
$XCLIPFRAME
290
     0
  9
$HALOGAP
280
     0
  9
$OBSCOLOR
 70
   257
  9
$OBSLTYPE
280
     0
  9
$INTERSECTIONDISPLAY
280
     0
  9
$INTERSECTIONCOLOR
 70
   257
  9
$DIMASSOC
280
     2
  9
$PROJECTNAME
  1

  0
ENDSEC
  0
SECTION
  2
CLASSES
  0
CLASS
  1
ACDBDICTIONARYWDFLT
  2
AcDbDictionaryWithDefault
  3
ObjectDBX Classes
 90
        0
 91
        4
280
     0
281
     0
  0
CLASS
  1
VISUALSTYLE
  2
AcDbVisualStyle
  3
ObjectDBX Classes
 90
     4095
 91
        4
280
     0
281
     0
  0
CLASS
  1
MATERIAL
  2
AcDbMaterial
  3
ObjectDBX Classes
 90
     1153
 91
        4
280
     0
281
     0
  0
CLASS
  1
SCALE
  2
AcDbScale
  3
ObjectDBX Classes
 90
     1153
 91
        4
280
     0
281
     0
  0
CLASS
  1
TABLESTYLE
  2
AcDbTableStyle
  3
ObjectDBX Classes
 90
     4095
 91
        4
280
     0
281
     0
  0
CLASS
  1
MLEADERSTYLE
  2
AcDbMLeaderStyle
  3
ACDB_MLEADERSTYLE_CLASS
 90
     4095
 91
        4
280
     0
281
     0
  0
CLASS
  1
SUN
  2
AcDbSun
  3
SCENEOE
 90
     1153
 91
        4
280
     0
281
     0
  0
CLASS
  1
DICTIONARYVAR
  2
AcDbDictionaryVar
  3
ObjectDBX Classes
 90
        0
 91
        4
280
     0
281
     0
  0
CLASS
  1
CELLSTYLEMAP
  2
AcDbCellStyleMap
  3
ObjectDBX Classes
 90
     1152
 91
        4
280
     0
281
     0
  0
ENDSEC
  0
SECTION
  2
TABLES
  0
TABLE
  2
VPORT
  5
8
330
0
100
AcDbSymbolTable
 70
     1
  0
VPORT
  5
29
330
8
100
AcDbSymbolTableRecord
100
AcDbViewportTableRecord
  2
*Active
 70
     0
 10
0.0
 20
0.0
 11
1.0
 21
1.0
 12
148.5
 22
105.0
 13
0.0
 23
0.0
 14
10.0
 24
10.0
 15
10.0
 25
10.0
 16
0.0
 26
0.0
 36
1.0
 17
0.0
 27
0.0
 37
0.0
 40
210.0
 41
1.4142857143
 42
50.0
 43
0.0
 44
0.0
 50
0.0
 51
0.0
 71
     0
 72
  2000
 73
     1
 74
     3
 75
     0
 76
     0
 77
     0
 78
     0
281
     0
 65
     1
110
0.0
120
0.0
130
0.0
111
1.0
121
0.0
131
0.0
112
0.0
122
1.0
132
0.0
 79
     0
146
0.0
  0
ENDTAB
  0
TABLE
  2
LTYPE
  5
5
330
0
100
AcDbSymbolTable
 70
     8
  0
LTYPE
  5
14
330
5
100
AcDbSymbolTableRecord
100
AcDbLinetypeTableRecord
  2
ByBlock
 70
     0
  3

 72
    65
 73
     0
 40
0.0
  0
LTYPE
  5
15
330
5
100
AcDbSymbolTableRecord
100
AcDbLinetypeTableRecord
  2
ByLayer
 70
     0
  3

 72
    65
 73
     0
 40
0.0
  0
LTYPE
  5
16
330
5
100
AcDbSymbolTableRecord
100
AcDbLinetypeTableRecord
  2
Continuous
 70
     0
  3
Solid line
 72
    65
 73
     0
 40
0.0
  0
LTYPE
  5
6E
330
5
100
AcDbSymbolTableRecord
100
AcDbLinetypeTableRecord
  2
SLD-Durchgehend
 70
     0
  3
SolidWorks Line Style
 72
    65
 73
     0
 40
0.0
  0
LTYPE
  5
6F
330
5
100
AcDbSymbolTableRecord
100
AcDbLinetypeTableRecord
  2
SLD-Gestrichelt
 70
     0
  3
SolidWorks Line Style
 72
    65
 73
     2
 40
1.905
 49
1.27
 74
     0
 49
-0.635
 74
     0
  0
LTYPE
  5
70
330
5
100
AcDbSymbolTableRecord
100
AcDbLinetypeTableRecord
  2
SLD-Phantom
 70
     0
  3
SolidWorks Line Style
 72
    65
 73
     6
 40
12.7
 49
6.35
 74
     0
 49
-1.27
 74
     0
 49
1.27
 74
     0
 49
-1.27
 74
     0
 49
1.27
 74
     0
 49
-1.27
 74
     0
  0
LTYPE
  5
71
330
5
100
AcDbSymbolTableRecord
100
AcDbLinetypeTableRecord
  2
SLD-Kette
 70
     0
  3
SolidWorks Line Style
 72
    65
 73
     4
 40
10.16
 49
6.35
 74
     0
 49
-1.27
 74
     0
 49
1.27
 74
     0
 49
-1.27
 74
     0
  0
LTYPE
  5
72
330
5
100
AcDbSymbolTableRecord
100
AcDbLinetypeTableRecord
  2
SLD-Punktstrich
 70
     0
  3
SolidWorks Line Style
 72
    65
 73
     4
 40
19.05
 49
15.24
 74
     0
 49
-1.27
 74
     0
 49
1.27
 74
     0
 49
-1.27
 74
     0
  0
LTYPE
  5
73
330
5
100
AcDbSymbolTableRecord
100
AcDbLinetypeTableRecord
  2
SLD-Naht
 70
     0
  3
SolidWorks Line Style
 72
    65
 73
     2
 40
0.635
 49
0.0
 74
     0
 49
-0.635
 74
     0
  0
LTYPE
  5
74
330
5
100
AcDbSymbolTableRecord
100
AcDbLinetypeTableRecord
  2
SLD-Dicke-Dünne-Kette
 70
     0
  3
SolidWorks Line Style
 72
    65
 73
     4
 40
10.16
 49
6.35
 74
     0
 49
-1.27
 74
     0
 49
1.27
 74
     0
 49
-1.27
 74
     0
  0
ENDTAB
  0
TABLE
  2
LAYER
  5
2
330
0
100
AcDbSymbolTable
 70
     3
  0
LAYER
  5
10
330
2
100
AcDbSymbolTableRecord
100
AcDbLayerTableRecord
  2
0
 70
     0
 62
     7
  6
Continuous
370
    -3
390
F
  0
LAYER
  5
75
330
2
100
AcDbSymbolTableRecord
100
AcDbLayerTableRecord
  2
1
 70
     0
 62
     4
  6
Continuous
370
    -1
390
F
  0
LAYER
  5
76
330
2
100
AcDbSymbolTableRecord
100
AcDbLayerTableRecord
  2
2
 70
     0
 62
     7
  6
SLD-Durchgehend
370
    -3
390
F
  0
ENDTAB
  0
TABLE
  2
STYLE
  5
3
330
0
100
AcDbSymbolTable
 70
     2
  0
STYLE
  5
11
330
3
100
AcDbSymbolTableRecord
100
AcDbTextStyleTableRecord
  2
Standard
 70
     0
 40
0.0
 41
1.0
 50
0.0
 71
     0
 42
3.5
  3
txt
  4

  0
STYLE
  5
AC
330
3
100
AcDbSymbolTableRecord
100
AcDbTextStyleTableRecord
  2
SLDTEXTSTYLE0
 70
     0
 40
0.0
 41
0.75
 50
0.0
 71
     0
 42
3.5
  3
TXT
  4

  0
ENDTAB
  0
TABLE
  2
VIEW
  5
6
330
0
100
AcDbSymbolTable
 70
     0
  0
ENDTAB
  0
TABLE
  2
UCS
  5
7
330
0
100
AcDbSymbolTable
 70
     0
  0
ENDTAB
  0
TABLE
  2
APPID
  5
9
330
0
100
AcDbSymbolTable
 70
     2
  0
APPID
  5
12
330
9
100
AcDbSymbolTableRecord
100
AcDbRegAppTableRecord
  2
ACAD
 70
     0
  0
APPID
  5
15D
330
9
100
AcDbSymbolTableRecord
100
AcDbRegAppTableRecord
  2
ACAD_MLEADERVER
 70
     0
  0
ENDTAB
  0
TABLE
  2
DIMSTYLE
  5
A
330
0
100
AcDbSymbolTable
 70
     3
100
AcDbDimStyleTable
  0
DIMSTYLE
105
27
330
A
100
AcDbSymbolTableRecord
100
AcDbDimStyleTableRecord
  2
ISO-25
 70
     0
 41
2.5
 42
0.625
 43
3.75
 44
1.25
 73
     0
 74
     0
 77
     1
 78
     8
140
2.5
141
2.5
143
0.0393700787
147
0.625
171
     3
172
     1
178
     0
271
     2
272
     2
274
     3
278
    44
283
     0
284
     8
340
11
  0
DIMSTYLE
105
AD
102
{ACAD_REACTORS
330
AB
330
B7
330
CC
330
130
330
13A
330
144
330
14E
102
}
330
A
100
AcDbSymbolTableRecord
100
AcDbDimStyleTableRecord
  2
SLDDIMSTYLE0
 70
     0
 41
3.302
 44
0.0
 45
0.000000001
 73
     0
 74
     0
 77
     1
 78
    12
 79
     3
140
3.5
147
0.875
173
     1
178
     0
271
     2
272
     2
276
     2
284
    12
340
AC
  0
DIMSTYLE
105
C2
102
{ACAD_REACTORS
330
C1
102
}
330
A
100
AcDbSymbolTableRecord
100
AcDbDimStyleTableRecord
  2
SLDDIMSTYLE1
 70
     0
 41
3.302
 44
0.0
 45
0.000000001
 73
     0
 74
     0
 77
     1
 78
    12
 79
     3
140
3.5
147
0.875
172
     1
173
     1
178
     0
271
     2
272
     2
276
     2
284
    12
289
     0
340
AC
  0
ENDTAB
  0
TABLE
  2
BLOCK_RECORD
  5
1
330
0
100
AcDbSymbolTable
 70
     9
  0
BLOCK_RECORD
  5
1F
330
1
100
AcDbSymbolTableRecord
100
AcDbBlockTableRecord
  2
*Model_Space
340
22
  0
BLOCK_RECORD
  5
1B
330
1
100
AcDbSymbolTableRecord
100
AcDbBlockTableRecord
  2
*Paper_Space
340
1E
  0
BLOCK_RECORD
  5
23
330
1
100
AcDbSymbolTableRecord
100
AcDbBlockTableRecord
  2
*Paper_Space0
340
26
  0
BLOCK_RECORD
  5
AE
330
1
100
AcDbSymbolTableRecord
100
AcDbBlockTableRecord
  2
_D
340
0
  0
BLOCK_RECORD
  5
B8
330
1
100
AcDbSymbolTableRecord
100
AcDbBlockTableRecord
  2
_D_1
340
0
  0
BLOCK_RECORD
  5
C3
330
1
100
AcDbSymbolTableRecord
100
AcDbBlockTableRecord
  2
_D_2
340
0
  0
BLOCK_RECORD
  5
CD
330
1
100
AcDbSymbolTableRecord
100
AcDbBlockTableRecord
  2
_D_3
340
0
  0
BLOCK_RECORD
  5
131
330
1
100
AcDbSymbolTableRecord
100
AcDbBlockTableRecord
  2
_D_4
340
0
  0
BLOCK_RECORD
  5
13B
330
1
100
AcDbSymbolTableRecord
100
AcDbBlockTableRecord
  2
_D_5
340
0
  0
BLOCK_RECORD
  5
145
330
1
100
AcDbSymbolTableRecord
100
AcDbBlockTableRecord
  2
_D_6
340
0
  0
BLOCK_RECORD
  5
14F
330
1
100
AcDbSymbolTableRecord
100
AcDbBlockTableRecord
  2
_D_7
340
0
  0
ENDTAB
  0
ENDSEC
  0
SECTION
  2
BLOCKS
  0
BLOCK
  5
20
330
1F
100
AcDbEntity
  8
0
100
AcDbBlockBegin
  2
*Model_Space
 70
     0
 10
0.0
 20
0.0
 30
0.0
  3
*Model_Space
  1

  0
ENDBLK
  5
21
330
1F
100
AcDbEntity
  8
0
100
AcDbBlockEnd
  0
BLOCK
  5
1C
330
1B
100
AcDbEntity
 67
     1
  8
0
100
AcDbBlockBegin
  2
*Paper_Space
 70
     0
 10
0.0
 20
0.0
 30
0.0
  3
*Paper_Space
  1

  0
ENDBLK
  5
1D
330
1B
100
AcDbEntity
 67
     1
  8
0
100
AcDbBlockEnd
  0
BLOCK
  5
24
330
23
100
AcDbEntity
  8
0
100
AcDbBlockBegin
  2
*Paper_Space0
 70
     0
 10
0.0
 20
0.0
 30
0.0
  3
*Paper_Space0
  1

  0
ENDBLK
  5
25
330
23
100
AcDbEntity
  8
0
100
AcDbBlockEnd
  0
BLOCK
  5
AF
330
AE
100
AcDbEntity
  8
0
100
AcDbBlockBegin
  2
_D
 70
     0
 10
0.0
 20
0.0
 30
0.0
  3
_D
  1

  0
SOLID
  5
B1
330
AE
100
AcDbEntity
  8
2
 62
     7
420
 16777215
100
AcDbTrace
 10
9.9987742495
 20
-24.9996520573
 30
0.0
 11
10.5067742495
 21
-21.6976520573
 31
0.0
 12
9.4907742495
 22
-21.6976520573
 32
0.0
 13
9.4907742495
 23
-21.6976520573
 33
0.0
  0
SOLID
  5
B2
330
AE
100
AcDbEntity
  8
2
 62
     7
420
 16777215
100
AcDbTrace
 10
9.9987742495
 20
0.0003479427
 30
0.0
 11
9.4907742495
 21
-3.3016520573
 31
0.0
 12
10.5067742495
 22
-3.3016520573
 32
0.0
 13
10.5067742495
 23
-3.3016520573
 33
0.0
  0
LINE
  5
B3
330
AE
100
AcDbEntity
  8
2
 62
     7
420
 16777215
100
AcDbLine
 10
0.9987742495
 20
-24.9996520573
 30
0.0
 11
10.9987742495
 21
-24.9996520573
 31
0.0
  0
LINE
  5
B4
330
AE
100
AcDbEntity
  8
2
 62
     7
420
 16777215
100
AcDbLine
 10
0.9987742495
 20
0.0003479427
 30
0.0
 11
10.9987742495
 21
0.0003479427
 31
0.0
  0
LINE
  5
B5
330
AE
100
AcDbEntity
  8
2
 62
     7
420
 16777215
100
AcDbLine
 10
9.9987742495
 20
-24.9996520573
 30
0.0
 11
9.9987742495
 21
0.0003479427
 31
0.0
  0
MTEXT
  5
B6
330
AE
100
AcDbEntity
  8
2
 62
     7
420
 16777215
100
AcDbMText
 10
5.4870373349
 20
-15.0857632508
 30
0.0
 40
3.5
 41
0.0
 71
     1
 72
     1
  1
25
  7
SLDTEXTSTYLE0
 11
6.123233995736766E-17
 21
1.0
 31
0.0
 73
     1
 44
1.0
  0
ENDBLK
  5
B0
330
AE
100
AcDbEntity
  8
0
100
AcDbBlockEnd
  0
BLOCK
  5
B9
330
B8
100
AcDbEntity
  8
0
100
AcDbBlockBegin
  2
_D_1
 70
     0
 10
0.0
 20
0.0
 30
0.0
  3
_D_1
  1

  0
SOLID
  5
BB
330
B8
100
AcDbEntity
  8
2
 62
     7
420
 16777215
100
AcDbTrace
 10
-0.0012257505
 20
10.0003479427
 30
0.0
 11
-3.3032257505
 21
10.5083479427
 31
0.0
 12
-3.3032257505
 22
9.4923479427
 32
0.0
 13
-3.3032257505
 23
9.4923479427
 33
0.0
  0
SOLID
  5
BC
330
B8
100
AcDbEntity
  8
2
 62
     7
420
 16777215
100
AcDbTrace
 10
-115.0012257505
 20
10.0003479427
 30
0.0
 11
-111.6992257505
 21
9.4923479427
 31
0.0
 12
-111.6992257505
 22
10.5083479427
 32
0.0
 13
-111.6992257505
 23
10.5083479427
 33
0.0
  0
LINE
  5
BD
330
B8
100
AcDbEntity
  8
2
 62
     7
420
 16777215
100
AcDbLine
 10
-0.0012257505
 20
1.0003479427
 30
0.0
 11
-0.0012257505
 21
11.0003479427
 31
0.0
  0
LINE
  5
BE
330
B8
100
AcDbEntity
  8
2
 62
     7
420
 16777215
100
AcDbLine
 10
-115.0012257505
 20
1.0003479427
 30
0.0
 11
-115.0012257505
 21
11.0003479427
 31
0.0
  0
LINE
  5
BF
330
B8
100
AcDbEntity
  8
2
 62
     7
420
 16777215
100
AcDbLine
 10
-0.0012257505
 20
10.0003479427
 30
0.0
 11
-115.0012257505
 21
10.0003479427
 31
0.0
  0
MTEXT
  5
C0
330
B8
100
AcDbEntity
  8
2
 62
     7
420
 16777215
100
AcDbMText
 10
-61.3803924244
 20
14.5120848573
 30
0.0
 40
3.5
 41
0.0
 71
     1
 72
     1
  1
115
  7
SLDTEXTSTYLE0
 73
     1
 44
1.0
  0
ENDBLK
  5
BA
330
B8
100
AcDbEntity
  8
0
100
AcDbBlockEnd
  0
BLOCK
  5
C4
330
C3
100
AcDbEntity
  8
0
100
AcDbBlockBegin
  2
_D_2
 70
     0
 10
0.0
 20
0.0
 30
0.0
  3
_D_2
  1

  0
SOLID
  5
C6
330
C3
100
AcDbEntity
  8
2
 62
     7
420
 16777215
100
AcDbTrace
 10
-125.0012257505
 20
-24.6996520573
 30
0.0
 11
-124.4932257505
 21
-21.3976520573
 31
0.0
 12
-125.5092257505
 22
-21.3976520573
 32
0.0
 13
-125.5092257505
 23
-21.3976520573
 33
0.0
  0
SOLID
  5
C7
330
C3
100
AcDbEntity
  8
2
 62
     7
420
 16777215
100
AcDbTrace
 10
-125.0012257505
 20
0.0003479427
 30
0.0
 11
-125.5092257505
 21
-3.3016520573
 31
0.0
 12
-124.4932257505
 22
-3.3016520573
 32
0.0
 13
-124.4932257505
 23
-3.3016520573
 33
0.0
  0
LINE
  5
C8
330
C3
100
AcDbEntity
  8
2
 62
     7
420
 16777215
100
AcDbLine
 10
-116.0012257505
 20
-24.6996520573
 30
0.0
 11
-126.0012257505
 21
-24.6996520573
 31
0.0
  0
LINE
  5
C9
330
C3
100
AcDbEntity
  8
2
 62
     7
420
 16777215
100
AcDbLine
 10
-116.0012257505
 20
0.0003479427
 30
0.0
 11
-126.0012257505
 21
0.0003479427
 31
0.0
  0
LINE
  5
CA
330
C3
100
AcDbEntity
  8
2
 62
     7
420
 16777215
100
AcDbLine
 10
-125.0012257505
 20
-24.6996520573
 30
0.0
 11
-125.0012257505
 21
0.0003479427
 31
0.0
  0
MTEXT
  5
CB
330
C3
100
AcDbEntity
  8
2
 62
     7
420
 16777215
100
AcDbMText
 10
-129.5129626651
 20
-18.1684023009
 30
0.0
 40
3.5
 41
0.0
 71
     1
 72
     1
  1
24,70
  7
SLDTEXTSTYLE0
 11
6.123233995736766E-17
 21
1.0
 31
0.0
 73
     1
 44
1.0
  0
ENDBLK
  5
C5
330
C3
100
AcDbEntity
  8
0
100
AcDbBlockEnd
  0
BLOCK
  5
CE
330
CD
100
AcDbEntity
  8
0
100
AcDbBlockBegin
  2
_D_3
 70
     0
 10
0.0
 20
0.0
 30
0.0
  3
_D_3
  1

  0
SOLID
  5
D0
330
CD
100
AcDbEntity
  8
2
 62
     7
420
 16777215
100
AcDbTrace
 10
-131.0012257505
 20
-31.9996520573
 30
0.0
 11
-130.4932257505
 21
-28.6976520573
 31
0.0
 12
-131.5092257505
 22
-28.6976520573
 32
0.0
 13
-131.5092257505
 23
-28.6976520573
 33
0.0
  0
SOLID
  5
D1
330
CD
100
AcDbEntity
  8
2
 62
     7
420
 16777215
100
AcDbTrace
 10
-131.0012257505
 20
0.0003479427
 30
0.0
 11
-131.5092257505
 21
-3.3016520573
 31
0.0
 12
-130.4932257505
 22
-3.3016520573
 32
0.0
 13
-130.4932257505
 23
-3.3016520573
 33
0.0
  0
LINE
  5
D2
330
CD
100
AcDbEntity
  8
2
 62
     7
420
 16777215
100
AcDbLine
 10
-109.091017819
 20
-31.9996520573
 30
0.0
 11
-132.0012257505
 21
-31.9996520573
 31
0.0
  0
LINE
  5
D3
330
CD
100
AcDbEntity
  8
2
 62
     7
420
 16777215
100
AcDbLine
 10
-116.0012257505
 20
0.0003479427
 30
0.0
 11
-132.0012257505
 21
0.0003479427
 31
0.0
  0
LINE
  5
D4
330
CD
100
AcDbEntity
  8
2
 62
     7
420
 16777215
100
AcDbLine
 10
-131.0012257505
 20
-31.9996520573
 30
0.0
 11
-131.0012257505
 21
0.0003479427
 31
0.0
  0
MTEXT
  5
D5
330
CD
100
AcDbEntity
  8
2
 62
     7
420
 16777215
100
AcDbMText
 10
-135.5129626651
 20
-18.5857632508
 30
0.0
 40
3.5
 41
0.0
 71
     1
 72
     1
  1
32
  7
SLDTEXTSTYLE0
 11
6.123233995736766E-17
 21
1.0
 31
0.0
 73
     1
 44
1.0
  0
ENDBLK
  5
CF
330
CD
100
AcDbEntity
  8
0
100
AcDbBlockEnd
  0
BLOCK
  5
132
330
131
100
AcDbEntity
  8
0
100
AcDbBlockBegin
  2
_D_4
 70
     0
 10
0.0
 20
0.0
 30
0.0
  3
_D_4
  1

  0
SOLID
  5
134
330
131
100
AcDbEntity
  8
2
 62
     7
420
 16777215
100
AcDbTrace
 10
9.9987742495
 20
73.9887787853
 30
0.0
 11
10.5067742495
 21
77.2907787853
 31
0.0
 12
9.4907742495
 22
77.2907787853
 32
0.0
 13
9.4907742495
 23
77.2907787853
 33
0.0
  0
SOLID
  5
135
330
131
100
AcDbEntity
  8
2
 62
     7
420
 16777215
100
AcDbTrace
 10
9.9987742495
 20
98.9887787853
 30
0.0
 11
9.4907742495
 21
95.6867787853
 31
0.0
 12
10.5067742495
 22
95.6867787853
 32
0.0
 13
10.5067742495
 23
95.6867787853
 33
0.0
  0
LINE
  5
136
330
131
100
AcDbEntity
  8
2
 62
     7
420
 16777215
100
AcDbLine
 10
0.9987742495
 20
73.9887787853
 30
0.0
 11
10.9987742495
 21
73.9887787853
 31
0.0
  0
LINE
  5
137
330
131
100
AcDbEntity
  8
2
 62
     7
420
 16777215
100
AcDbLine
 10
0.9987742495
 20
98.9887787853
 30
0.0
 11
10.9987742495
 21
98.9887787853
 31
0.0
  0
LINE
  5
138
330
131
100
AcDbEntity
  8
2
 62
     7
420
 16777215
100
AcDbLine
 10
9.9987742495
 20
73.9887787853
 30
0.0
 11
9.9987742495
 21
98.9887787853
 31
0.0
  0
MTEXT
  5
139
330
131
100
AcDbEntity
  8
2
 62
     7
420
 16777215
100
AcDbMText
 10
5.4870373349
 20
83.9026675918
 30
0.0
 40
3.5
 41
0.0
 71
     1
 72
     1
  1
25
  7
SLDTEXTSTYLE0
 11
6.123233995736766E-17
 21
1.0
 31
0.0
 73
     1
 44
1.0
  0
ENDBLK
  5
133
330
131
100
AcDbEntity
  8
0
100
AcDbBlockEnd
  0
BLOCK
  5
13C
330
13B
100
AcDbEntity
  8
0
100
AcDbBlockBegin
  2
_D_5
 70
     0
 10
0.0
 20
0.0
 30
0.0
  3
_D_5
  1

  0
SOLID
  5
13E
330
13B
100
AcDbEntity
  8
2
 62
     7
420
 16777215
100
AcDbTrace
 10
-125.0012257505
 20
98.9887787853
 30
0.0
 11
-125.5092257505
 21
95.6867787853
 31
0.0
 12
-124.4932257505
 22
95.6867787853
 32
0.0
 13
-124.4932257505
 23
95.6867787853
 33
0.0
  0
SOLID
  5
13F
330
13B
100
AcDbEntity
  8
2
 62
     7
420
 16777215
100
AcDbTrace
 10
-125.0012257505
 20
73.9887787853
 30
0.0
 11
-124.4932257505
 21
77.2907787853
 31
0.0
 12
-125.5092257505
 22
77.2907787853
 32
0.0
 13
-125.5092257505
 23
77.2907787853
 33
0.0
  0
LINE
  5
140
330
13B
100
AcDbEntity
  8
2
 62
     7
420
 16777215
100
AcDbLine
 10
-116.0012257505
 20
98.9887787853
 30
0.0
 11
-126.0012257505
 21
98.9887787853
 31
0.0
  0
LINE
  5
141
330
13B
100
AcDbEntity
  8
2
 62
     7
420
 16777215
100
AcDbLine
 10
-116.0012257505
 20
73.9887787853
 30
0.0
 11
-126.0012257505
 21
73.9887787853
 31
0.0
  0
LINE
  5
142
330
13B
100
AcDbEntity
  8
2
 62
     7
420
 16777215
100
AcDbLine
 10
-125.0012257505
 20
98.9887787853
 30
0.0
 11
-125.0012257505
 21
73.9887787853
 31
0.0
  0
MTEXT
  5
143
330
13B
100
AcDbEntity
  8
2
 62
     7
420
 16777215
100
AcDbMText
 10
-129.5129626651
 20
83.9026675918
 30
0.0
 40
3.5
 41
0.0
 71
     1
 72
     1
  1
25
  7
SLDTEXTSTYLE0
 11
-7.044195017643634E-15
 21
1.0
 31
0.0
 73
     1
 44
1.0
  0
ENDBLK
  5
13D
330
13B
100
AcDbEntity
  8
0
100
AcDbBlockEnd
  0
BLOCK
  5
146
330
145
100
AcDbEntity
  8
0
100
AcDbBlockBegin
  2
_D_6
 70
     0
 10
0.0
 20
0.0
 30
0.0
  3
_D_6
  1

  0
SOLID
  5
148
330
145
100
AcDbEntity
  8
2
 62
     7
420
 16777215
100
AcDbTrace
 10
-115.0012257505
 20
116.1116446944
 30
0.0
 11
-111.6992257505
 21
115.6036446944
 31
0.0
 12
-111.6992257505
 22
116.6196446944
 32
0.0
 13
-111.6992257505
 23
116.6196446944
 33
0.0
  0
SOLID
  5
149
330
145
100
AcDbEntity
  8
2
 62
     7
420
 16777215
100
AcDbTrace
 10
-70.0012257505
 20
116.1116446944
 30
0.0
 11
-73.3032257505
 21
116.6196446944
 31
0.0
 12
-73.3032257505
 22
115.6036446944
 32
0.0
 13
-73.3032257505
 23
115.6036446944
 33
0.0
  0
LINE
  5
14A
330
145
100
AcDbEntity
  8
2
 62
     7
420
 16777215
100
AcDbLine
 10
-115.0012257505
 20
99.9887787853
 30
0.0
 11
-115.0012257505
 21
117.1116446944
 31
0.0
  0
LINE
  5
14B
330
145
100
AcDbEntity
  8
2
 62
     7
420
 16777215
100
AcDbLine
 10
-70.0012257505
 20
103.2887787853
 30
0.0
 11
-70.0012257505
 21
117.1116446944
 31
0.0
  0
LINE
  5
14C
330
145
100
AcDbEntity
  8
2
 62
     7
420
 16777215
100
AcDbLine
 10
-115.0012257505
 20
116.1116446944
 30
0.0
 11
-70.0012257505
 21
116.1116446944
 31
0.0
  0
MTEXT
  5
14D
330
145
100
AcDbEntity
  8
2
 62
     7
420
 16777215
100
AcDbMText
 10
-95.087336944
 20
120.623381609
 30
0.0
 40
3.5
 41
0.0
 71
     1
 72
     1
  1
45
  7
SLDTEXTSTYLE0
 73
     1
 44
1.0
  0
ENDBLK
  5
147
330
145
100
AcDbEntity
  8
0
100
AcDbBlockEnd
  0
BLOCK
  5
150
330
14F
100
AcDbEntity
  8
0
100
AcDbBlockBegin
  2
_D_7
 70
     0
 10
0.0
 20
0.0
 30
0.0
  3
_D_7
  1

  0
SOLID
  5
152
330
14F
100
AcDbEntity
  8
2
 62
     7
420
 16777215
100
AcDbTrace
 10
-131.0012257505
 20
105.9946406109
 30
0.0
 11
-131.5092257505
 21
102.6926406109
 31
0.0
 12
-130.4932257505
 22
102.6926406109
 32
0.0
 13
-130.4932257505
 23
102.6926406109
 33
0.0
  0
SOLID
  5
153
330
14F
100
AcDbEntity
  8
2
 62
     7
420
 16777215
100
AcDbTrace
 10
-131.0012257505
 20
73.9887787853
 30
0.0
 11
-130.4932257505
 21
77.2907787853
 31
0.0
 12
-131.5092257505
 22
77.2907787853
 32
0.0
 13
-131.5092257505
 23
77.2907787853
 33
0.0
  0
LINE
  5
154
330
14F
100
AcDbEntity
  8
2
 62
     7
420
 16777215
100
AcDbLine
 10
-85.0090205821
 20
105.9946406109
 30
0.0
 11
-132.0012257505
 21
105.9946406109
 31
0.0
  0
LINE
  5
155
330
14F
100
AcDbEntity
  8
2
 62
     7
420
 16777215
100
AcDbLine
 10
-116.0012257505
 20
73.9887787853
 30
0.0
 11
-132.0012257505
 21
73.9887787853
 31
0.0
  0
LINE
  5
156
330
14F
100
AcDbEntity
  8
2
 62
     7
420
 16777215
100
AcDbLine
 10
-131.0012257505
 20
105.9946406109
 30
0.0
 11
-131.0012257505
 21
73.9887787853
 31
0.0
  0
MTEXT
  5
157
330
14F
100
AcDbEntity
  8
2
 62
     7
420
 16777215
100
AcDbMText
 10
-135.5129626651
 20
84.1729594545
 30
0.0
 40
3.5
 41
0.0
 71
     1
 72
     1
  1
32,01
  7
SLDTEXTSTYLE0
 11
-7.044195017643634E-15
 21
1.0
 31
0.0
 73
     1
 44
1.0
  0
ENDBLK
  5
151
330
14F
100
AcDbEntity
  8
0
100
AcDbBlockEnd
  0
ENDSEC
  0
SECTION
  2
ENTITIES
  0
LINE
  5
77
330
1F
100
AcDbEntity
  8
0
  6
SLD-Punktstrich
 62
     7
100
AcDbLine
 10
-0.0012257505
 20
0.0003479427
 30
0.0
 11
-115.0012257505
 21
0.0003479427
 31
0.0
  0
LINE
  5
78
330
1F
100
AcDbEntity
  8
0
  6
SLD-Punktstrich
 62
     7
100
AcDbLine
 10
-115.0012257505
 20
-24.6996520573
 30
0.0
 11
-70.0012257505
 21
-24.6996520573
 31
0.0
  0
POINT
  5
79
330
1F
100
AcDbEntity
  8
1
 62
     4
420
    65535
100
AcDbPoint
 10
-115.0012257505
 20
0.0003479427
 30
0.0
  0
POINT
  5
7A
330
1F
100
AcDbEntity
  8
1
 62
     4
420
    65535
100
AcDbPoint
 10
-70.0012257505
 20
0.0003479427
 30
0.0
  0
POINT
  5
7B
330
1F
100
AcDbEntity
  8
1
 62
     4
420
    65535
100
AcDbPoint
 10
-115.0012257505
 20
-24.6996520573
 30
0.0
  0
LINE
  5
7C
330
1F
100
AcDbEntity
  8
1
 62
     4
420
    65535
100
AcDbLine
 10
-95.0012257505
 20
-23.3996520573
 30
0.0
 11
-104.5279666307
 21
-23.3996520573
 31
0.0
  0
LINE
  5
7D
330
1F
100
AcDbEntity
  8
1
 62
     4
420
    65535
100
AcDbLine
 10
-112.0486774299
 20
-23.3539389282
 30
0.0
 11
-111.7193994554
 21
-23.5424723803
 31
0.0
  0
ELLIPSE
  5
7E
330
1F
100
AcDbEntity
  8
1
 62
     4
420
    65535
100
AcDbEllipse
 10
-111.3333234722
 20
-22.8496520573
 30
0.0
 11
-0.5350534853537567
 21
0.6035907658719317
 31
0.0
210
0.0
220
0.0
230
1.0
 40
0.9813049846
 41
1.902071902746802
 42
2.425670678345128
  0
LINE
  5
7F
330
1F
100
AcDbEntity
  8
1
 62
     4
420
    65535
100
AcDbLine
 10
-111.3183705195
 20
-23.6496520573
 30
0.0
 11
-109.4709985666
 21
-23.6496520573
 31
0.0
  0
LINE
  5
80
330
1F
100
AcDbEntity
  8
1
 62
     4
420
    65535
100
AcDbLine
 10
-109.5547634339
 20
-23.8311528114
 30
0.0
 11
-112.9358964632
 21
-23.8311528114
 31
0.0
  0
LINE
  5
81
330
1F
100
AcDbEntity
  8
1
 62
     4
420
    65535
100
AcDbLine
 10
-113.4714393677
 20
-23.2679361444
 30
0.0
 11
-112.9358964632
 21
-23.8311528114
 31
0.0
  0
LINE
  5
82
330
1F
100
AcDbEntity
  8
1
 62
     4
420
    65535
100
AcDbLine
 10
-113.4714393677
 20
-23.2679361444
 30
0.0
 11
-112.0486774299
 21
-23.3539389282
 31
0.0
  0
ELLIPSE
  5
83
330
1F
100
AcDbEntity
  8
1
 62
     4
420
    65535
100
AcDbEllipse
 10
-114.8055962303
 20
-23.4090636278
 30
0.0
 11
0.0
 21
0.2004893094674465
 31
0.0
210
0.0
220
0.0
230
1.0
 40
0.9757603568
 41
6.239658431495399
 42
7.853981633974483
  0
LINE
  5
84
330
1F
100
AcDbEntity
  8
1
 62
     4
420
    65535
100
AcDbLine
 10
-114.7970837771
 20
-23.2087642108
 30
0.0
 11
-113.4714393677
 21
-23.2679361444
 31
0.0
  0
LINE
  5
85
330
1F
100
AcDbEntity
  8
1
 62
     4
420
    65535
100
AcDbLine
 10
-112.9358964632
 20
-23.8311528114
 30
0.0
 11
-113.8379962067
 21
-24.5694247955
 31
0.0
  0
ELLIPSE
  5
86
330
1F
100
AcDbEntity
  8
1
 62
     4
420
    65535
100
AcDbEllipse
 10
-112.4958606701
 20
-24.6996520573
 30
0.0
 11
1.419470300510667
 21
0.0
 31
0.0
210
0.0
220
0.0
230
1.0
 40
0.2817952583
 41
2.809980095710867
 42
3.473205211468764
  0
LINE
  5
87
330
1F
100
AcDbEntity
  8
1
 62
     4
420
    65535
100
AcDbLine
 10
-113.8379962067
 20
-24.8298793191
 30
0.0
 11
-112.9358964632
 21
-25.5681513032
 31
0.0
  0
LINE
  5
88
330
1F
100
AcDbEntity
  8
1
 62
     4
420
    65535
100
AcDbLine
 10
-112.9358964632
 20
-25.5681513032
 30
0.0
 11
-113.4714393677
 21
-26.1313679702
 31
0.0
  0
LINE
  5
89
330
1F
100
AcDbEntity
  8
1
 62
     4
420
    65535
100
AcDbLine
 10
-113.4714393677
 20
-26.1313679702
 30
0.0
 11
-114.7970837771
 21
-26.1905399038
 31
0.0
  0
ELLIPSE
  5
8A
330
1F
100
AcDbEntity
  8
1
 62
     4
420
    65535
100
AcDbEllipse
 10
-114.8055962303
 20
-25.9902404868
 30
0.0
 11
0.0
 21
0.2004893094674465
 31
0.0
210
0.0
220
0.0
230
1.0
 40
0.9757603568
 41
1.570796326794897
 42
3.185119529274009
  0
LINE
  5
8B
330
1F
100
AcDbEntity
  8
1
 62
     4
420
    65535
100
AcDbLine
 10
-115.0012257505
 20
-25.9902404868
 30
0.0
 11
-115.0012257505
 21
-23.4090636278
 31
0.0
  0
LINE
  5
8C
330
1F
100
AcDbEntity
  8
1
 62
     4
420
    65535
100
AcDbLine
 10
-109.5547634339
 20
-25.5681513032
 30
0.0
 11
-112.9358964632
 21
-25.5681513032
 31
0.0
  0
LINE
  5
8D
330
1F
100
AcDbEntity
  8
1
 62
     4
420
    65535
100
AcDbLine
 10
-109.4709985666
 20
-25.7496520573
 30
0.0
 11
-111.3183705195
 21
-25.7496520573
 31
0.0
  0
ELLIPSE
  5
8E
330
1F
100
AcDbEntity
  8
1
 62
     4
420
    65535
100
AcDbEllipse
 10
-111.3333234722
 20
-26.5496520573
 30
0.0
 11
0.5350534853537569
 21
0.6035907658719389
 31
0.0
210
0.0
220
0.0
230
1.0
 40
0.9813049846
 41
0.7159219752446638
 42
1.239520750842988
  0
LINE
  5
8F
330
1F
100
AcDbEntity
  8
1
 62
     4
420
    65535
100
AcDbLine
 10
-111.7193994554
 20
-25.8568317343
 30
0.0
 11
-112.0486774299
 21
-26.0453651864
 31
0.0
  0
LINE
  5
90
330
1F
100
AcDbEntity
  8
1
 62
     4
420
    65535
100
AcDbLine
 10
-112.0486774299
 20
-26.0453651864
 30
0.0
 11
-113.4714393677
 21
-26.1313679702
 31
0.0
  0
LINE
  5
91
330
1F
100
AcDbEntity
  8
1
 62
     4
420
    65535
100
AcDbLine
 10
-109.5712257505
 20
-25.5323754445
 30
0.0
 11
-109.5712257505
 21
-23.8669286701
 31
0.0
  0
ELLIPSE
  5
92
330
1F
100
AcDbEntity
  8
1
 62
     4
420
    65535
100
AcDbEllipse
 10
-87.0662475485
 20
-115.1116666538
 30
0.0
 11
3.16308889192598
 21
116.1633608608971
 31
0.0
210
0.0
220
0.0
230
1.0
 40
0.3432643429
 41
0.6702119478624017
 42
0.676716820481219
  0
SPLINE
  5
93
330
1F
100
AcDbEntity
  8
1
 62
     4
420
    65535
100
AcDbSpline
210
0.0
220
0.0
230
1.0
 70
     8
 71
     3
 72
    12
 73
     8
 74
     0
 42
0.000000001
 43
0.00000001
 40
0.0
 40
0.0
 40
0.0
 40
0.0
 40
0.4999999999999987
 40
0.4999999999999987
 40
0.7499999999999993
 40
0.7499999999999993
 40
1.0
 40
1.0
 40
1.0
 40
1.0
 10
-95.00122575049085
 20
-23.93740845748905
 30
0.0
 10
-97.57938408869502
 20
-23.84807465600901
 30
0.0
 10
-100.0627581836929
 20
-23.72652227910093
 30
0.0
 10
-103.6539138493505
 20
-23.56416149707391
 30
0.0
 10
-104.8284859988925
 20
-23.51364591910084
 30
0.0
 10
-107.132121214755
 20
-23.43540889699821
 30
0.0
 10
-108.262981992131
 20
-23.4077579606503
 30
0.0
 10
-109.3556447322869
 20
-23.40116689185421
 30
0.0
  0
LINE
  5
94
330
1F
100
AcDbEntity
  8
1
 62
     4
420
    65535
100
AcDbLine
 10
-95.0012257505
 20
-23.9374084575
 30
0.0
 11
-95.0012257505
 21
-13.0996520573
 31
0.0
  0
LINE
  5
95
330
1F
100
AcDbEntity
  8
1
 62
     4
420
    65535
100
AcDbLine
 10
-70.0012257505
 20
0.0003479427
 30
0.0
 11
-84.0090205821
 21
0.0003479427
 31
0.0
  0
LINE
  5
96
330
1F
100
AcDbEntity
  8
1
 62
     4
420
    65535
100
AcDbLine
 10
-70.0012257505
 20
-24.9996520573
 30
0.0
 11
-70.0012257505
 21
0.0003479427
 31
0.0
  0
LINE
  5
97
330
1F
100
AcDbEntity
  8
1
 62
     4
420
    65535
100
AcDbLine
 10
-70.0012257505
 20
-24.9996520573
 30
0.0
 11
-71.1552558223
 21
-26.1536821291
 31
0.0
  0
SPLINE
  5
98
330
1F
100
AcDbEntity
  8
1
 62
     4
420
    65535
100
AcDbSpline
210
0.0
220
0.0
230
1.0
 70
     8
 71
     3
 72
    26
 73
    22
 74
     0
 42
0.000000001
 43
0.00000001
 40
0.0
 40
0.0
 40
0.0
 40
0.0
 40
0.1250000000000002
 40
0.1250000000000002
 40
0.2500000000000005
 40
0.2500000000000005
 40
0.3125000000000006
 40
0.3125000000000006
 40
0.3750000000000008
 40
0.3750000000000008
 40
0.500000000000001
 40
0.500000000000001
 40
0.6250000000000012
 40
0.6250000000000012
 40
0.6875000000000013
 40
0.6875000000000013
 40
0.7500000000000016
 40
0.7500000000000016
 40
0.8750000000000008
 40
0.8750000000000008
 40
1.0
 40
1.0
 40
1.0
 40
1.0
 10
-109.3543791817061
 20
-26.0008540042703
 30
0.0
 10
-107.9565366380758
 20
-26.00752692809078
 30
0.0
 10
-106.5146612760302
 20
-26.04091909704189
 30
0.0
 10
-103.5455949727865
 20
-26.1310072878276
 30
0.0
 10
-102.0183946150114
 20
-26.18779914705877
 30
0.0
 10
-99.66258048165618
 20
-26.2730684712188
 30
0.0
 10
-98.86644267726689
 20
-26.30154856203342
 30
0.0
 10
-97.25187330442161
 20
-26.35616590476971
 30
0.0
 10
-96.43444959284061
 20
-26.38224589494852
 30
0.0
 10
-93.98317358829424
 20
-26.45284688063068
 30
0.0
 10
-92.33912135048062
 20
-26.4899022332945
 30
0.0
 10
-89.03158720351627
 20
-26.53440459131491
 30
0.0
 10
-87.36810542336778
 20
-26.5418607218074
 30
0.0
 10
-84.85792449029223
 20
-26.52884234068241
 30
0.0
 10
-84.0155255313987
 20
-26.52046598574522
 30
0.0
 10
-82.34501740581908
 20
-26.49640609534835
 30
0.0
 10
-81.51668993679263
 20
-26.48076174987198
 30
0.0
 10
-79.05192598811315
 20
-26.42486130385378
 30
0.0
 10
-77.43563614251197
 20
-26.3754518421747
 30
0.0
 10
-74.25567950997775
 20
-26.26677907679757
 30
0.0
 10
-72.69200902249081
 20
-26.20746853191765
 30
0.0
 10
-71.15525582230349
 20
-26.15368212911298
 30
0.0
  0
ELLIPSE
  5
99
330
1F
100
AcDbEntity
  8
1
 62
     4
420
    65535
100
AcDbEllipse
 10
-87.0662475485
 20
65.7123625392
 30
0.0
 11
-3.163088891925966
 21
116.163360860897
 31
0.0
210
0.0
220
0.0
230
1.0
 40
0.3432643429
 41
2.464875833108575
 42
2.471418807942059
  0
LINE
  5
9A
330
1F
100
AcDbEntity
  8
1
 62
     4
420
    65535
100
AcDbLine
 10
-84.0090205821
 20
0.0003479427
 30
0.0
 11
-95.0012257505
 21
-13.0996520573
 31
0.0
  0
LINE
  5
9B
330
1F
100
AcDbEntity
  8
1
 62
     4
420
    65535
100
AcDbLine
 10
-77.0012257505
 20
-31.9996520573
 30
0.0
 11
-71.1552558223
 21
-26.1536821291
 31
0.0
  0
LINE
  5
9C
330
1F
100
AcDbEntity
  8
1
 62
     4
420
    65535
100
AcDbLine
 10
-108.091017819
 20
-31.9996520573
 30
0.0
 11
-77.0012257505
 21
-31.9996520573
 31
0.0
  0
SPLINE
  5
9D
330
1F
100
AcDbEntity
  8
1
 62
     4
420
    65535
100
AcDbSpline
210
0.0
220
0.0
230
1.0
 70
     8
 71
     3
 72
    18
 73
    14
 74
     0
 42
0.000000001
 43
0.00000001
 40
0.0
 40
0.0
 40
0.0
 40
0.0
 40
0.2500000000000004
 40
0.2500000000000004
 40
0.5000000000000008
 40
0.5000000000000008
 40
0.5625000000000009
 40
0.5625000000000009
 40
0.625000000000001
 40
0.625000000000001
 40
0.7500000000000009
 40
0.7500000000000009
 40
1.0
 40
1.0
 40
1.0
 40
1.0
 10
-108.0910178189762
 20
-31.99965205730035
 30
0.0
 10
-108.995826630622
 20
-31.26297009358104
 30
0.0
 10
-109.8113577631463
 20
-30.57366153780411
 30
0.0
 10
-111.259231074409
 20
-29.30835445581
 30
0.0
 10
-111.8916901904381
 20
-28.73218521340344
 30
0.0
 10
-112.5552532812906
 20
-28.09719977664714
 30
0.0
 10
-112.6817683693407
 20
-27.97428087321258
 30
0.0
 10
-112.919442713931
 20
-27.73951724461095
 30
0.0
 10
-113.0308584147899
 20
-27.62743385987713
 30
0.0
 10
-113.342820180355
 20
-27.30722812999995
 30
0.0
 10
-113.5211124637689
 20
-27.1151379510678
 30
0.0
 10
-113.9656497410657
 20
-26.60461224821013
 30
0.0
 10
-114.1421582717669
 20
-26.35165794328605
 30
0.0
 10
-114.1888179555261
 20
-26.19307674659045
 30
0.0
  0
ELLIPSE
  5
9E
330
1F
100
AcDbEntity
  8
1
 62
     4
420
    65535
100
AcDbEllipse
 10
-408.9400984532
 20
-73.4996520573
 30
0.0
 11
718.6078122224321
 21
15.55893494247522
 31
0.0
210
0.0
220
0.0
230
1.0
 40
0.0624533988
 41
1.122684962533191
 42
1.146804204162315
  0
ELLIPSE
  5
9F
330
1F
100
AcDbEntity
  8
1
 62
     4
420
    65535
100
AcDbEllipse
 10
-289.6331590997
 20
-60.8996520573
 30
0.0
 11
567.3219570177105
 21
12.28336969142798
 31
0.0
210
0.0
220
0.0
230
1.0
 40
0.0624533988
 41
1.237080063521734
 42
1.246068484970823
  0
LINE
  5
A0
330
1F
100
AcDbEntity
  8
1
 62
     4
420
    65535
100
AcDbLine
 10
-69.2012257505
 20
0.0003479427
 30
0.0
 11
-69.2012257505
 21
-24.9996520573
 31
0.0
  0
LINE
  5
A1
330
1F
100
AcDbEntity
  8
1
 62
     4
420
    65535
100
AcDbLine
 10
-69.2012257505
 20
-24.9996520573
 30
0.0
 11
-70.0012257505
 21
-24.9996520573
 31
0.0
  0
LINE
  5
A2
330
1F
100
AcDbEntity
  8
1
 62
     4
420
    65535
100
AcDbLine
 10
-70.0012257505
 20
0.0003479427
 30
0.0
 11
-69.2012257505
 21
0.0003479427
 31
0.0
  0
LINE
  5
A3
330
1F
100
AcDbEntity
  8
1
 62
     4
420
    65535
100
AcDbLine
 10
-0.0012257505
 20
-0.9996520573
 30
0.0
 11
-0.0012257505
 21
-23.9996520573
 31
0.0
  0
LINE
  5
A4
330
1F
100
AcDbEntity
  8
1
 62
     4
420
    65535
100
AcDbLine
 10
-0.0012257505
 20
-23.9996520573
 30
0.0
 11
-1.0012257505
 21
-24.9996520573
 31
0.0
  0
LINE
  5
A5
330
1F
100
AcDbEntity
  8
1
 62
     4
420
    65535
100
AcDbLine
 10
-1.0012257505
 20
-24.9996520573
 30
0.0
 11
-1.0012257505
 21
0.0003479427
 31
0.0
  0
LINE
  5
A6
330
1F
100
AcDbEntity
  8
1
 62
     4
420
    65535
100
AcDbLine
 10
-0.0012257505
 20
-0.9996520573
 30
0.0
 11
-1.0012257505
 21
0.0003479427
 31
0.0
  0
LINE
  5
A7
330
1F
100
AcDbEntity
  8
1
 62
     4
420
    65535
100
AcDbLine
 10
-69.2012257505
 20
-24.9996520573
 30
0.0
 11
-1.0012257505
 21
-24.9996520573
 31
0.0
  0
LINE
  5
A8
330
1F
100
AcDbEntity
  8
1
 62
     4
420
    65535
100
AcDbLine
 10
-69.2012257505
 20
0.0003479427
 30
0.0
 11
-1.0012257505
 21
0.0003479427
 31
0.0
  0
LINE
  5
A9
330
1F
100
AcDbEntity
  8
1
 62
     4
420
    65535
100
AcDbLine
 10
-109.5712257505
 20
-24.5694247955
 30
0.0
 11
-113.8379962067
 21
-24.5694247955
 31
0.0
  0
LINE
  5
AA
330
1F
100
AcDbEntity
  8
1
 62
     4
420
    65535
100
AcDbLine
 10
-109.5712257505
 20
-24.8298793191
 30
0.0
 11
-113.8379962067
 21
-24.8298793191
 31
0.0
  0
DIMENSION
  5
AB
330
1F
100
AcDbEntity
  8
2
 62
     7
420
 16777215
100
AcDbDimension
  2
_D
 10
9.9987742495
 20
0.0003479427
 30
0.0
 11
9.9987742495
 21
-12.4996520573
 31
0.0
 70
   160
  1
<>
 71
     2
 42
-1.0
  3
SLDDIMSTYLE0
100
AcDbAlignedDimension
 13
-0.0012257505
 23
-24.9996520573
 33
0.0
 14
-0.0012257505
 24
0.0003479427
 34
0.0
 50
90.0
100
AcDbRotatedDimension
  0
DIMENSION
  5
B7
330
1F
100
AcDbEntity
  8
2
 62
     7
420
 16777215
100
AcDbDimension
  2
_D_1
 10
-115.0012257505
 20
10.0003479427
 30
0.0
 11
-57.5012257505
 21
10.0003479427
 31
0.0
 70
   160
  1
<>
 71
     2
 42
-1.0
  3
SLDDIMSTYLE0
100
AcDbAlignedDimension
 13
-0.0012257505
 23
0.0003479427
 33
0.0
 14
-115.0012257505
 24
0.0003479427
 34
0.0
 50
0.0
100
AcDbRotatedDimension
  0
DIMENSION
  5
C1
330
1F
100
AcDbEntity
  8
2
 62
     7
420
 16777215
100
AcDbDimension
  2
_D_2
 10
-125.0012257505
 20
0.0003479427
 30
0.0
 11
-125.0012257505
 21
-12.3496520573
 31
0.0
 70
   160
  1
<>
 71
     2
 42
-1.0
  3
SLDDIMSTYLE1
100
AcDbAlignedDimension
 13
-115.0012257505
 23
-24.6996520573
 33
0.0
 14
-115.0012257505
 24
0.0003479427
 34
0.0
 50
90.0
100
AcDbRotatedDimension
  0
DIMENSION
  5
CC
330
1F
100
AcDbEntity
  8
2
 62
     7
420
 16777215
100
AcDbDimension
  2
_D_3
 10
-131.0012257505
 20
0.0003479427
 30
0.0
 11
-131.0012257505
 21
-15.9996520573
 31
0.0
 70
   160
  1
<>
 71
     2
 42
-1.0
  3
SLDDIMSTYLE0
100
AcDbAlignedDimension
 13
-108.091017819
 23
-31.9996520573
 33
0.0
 14
-115.0012257505
 24
0.0003479427
 34
0.0
 50
90.0
100
AcDbRotatedDimension
  0
LINE
  5
D6
330
1F
100
AcDbEntity
  8
0
  6
SLD-Punktstrich
 62
     7
100
AcDbLine
 10
-0.0012257505
 20
73.9887787853
 30
0.0
 11
-115.0012257505
 21
73.9887787853
 31
0.0
  0
LINE
  5
D7
330
1F
100
AcDbEntity
  8
0
  6
SLD-Punktstrich
 62
     7
100
AcDbLine
 10
-115.0012257505
 20
98.9887787853
 30
0.0
 11
-70.0012257505
 21
95.8420722479
 31
0.0
  0
POINT
  5
D8
330
1F
100
AcDbEntity
  8
1
 62
     4
420
    65535
100
AcDbPoint
 10
-115.0012257505
 20
73.9887787853
 30
0.0
  0
POINT
  5
D9
330
1F
100
AcDbEntity
  8
1
 62
     4
420
    65535
100
AcDbPoint
 10
-70.0012257505
 20
73.9887787853
 30
0.0
  0
POINT
  5
DA
330
1F
100
AcDbEntity
  8
1
 62
     4
420
    65535
100
AcDbPoint
 10
-115.0012257505
 20
98.9887787853
 30
0.0
  0
LINE
  5
DB
330
1F
100
AcDbEntity
  8
1
 62
     4
420
    65535
100
AcDbLine
 10
-114.1957602463
 20
95.199361522
 30
0.0
 11
-114.2012257505
 21
95.1997437073
 31
0.0
  0
LINE
  5
DC
330
1F
100
AcDbEntity
  8
1
 62
     4
420
    65535
100
AcDbLine
 10
-114.7970837771
 20
99.0321705013
 30
0.0
 11
-114.3812603954
 21
97.0758752998
 31
0.0
  0
SPLINE
  5
DD
330
1F
100
AcDbEntity
  8
1
 62
     4
420
    65535
100
AcDbSpline
210
0.0
220
0.0
230
1.0
 70
     8
 71
     3
 72
     8
 73
     4
 74
     0
 42
0.000000001
 43
0.00000001
 40
0.0
 40
0.0
 40
0.0
 40
0.0
 40
0.0000026009118537
 40
0.0000026009118537
 40
0.0000026009118537
 40
0.0000026009118537
 10
-114.3812603954325
 20
97.07587529980563
 30
0.0
 10
-114.3821076135302
 20
97.0756952180398
 30
0.0
 10
-114.382953895431
 20
97.07550925928402
 30
0.0
 10
-114.3837989989814
 20
97.0753174831224
 30
0.0
  0
SPLINE
  5
DE
330
1F
100
AcDbEntity
  8
1
 62
     4
420
    65535
100
AcDbSpline
210
0.0
220
0.0
230
1.0
 70
     8
 71
     3
 72
    10
 73
     6
 74
     0
 42
0.000000001
 43
0.00000001
 40
0.0
 40
0.0
 40
0.0
 40
0.0
 40
0.5
 40
0.5
 40
1.0
 40
1.0
 40
1.0
 40
1.0
 10
-114.3837989989814
 20
97.0753174831224
 30
0.0
 10
-114.4379357601281
 20
97.06303243207891
 30
0.0
 10
-114.4932720829025
 20
97.06174443410028
 30
0.0
 10
-114.5734948737336
 20
97.07817336424904
 30
0.0
 10
-114.5988134533975
 20
97.09557777598036
 30
0.0
 10
-114.6032494694138
 20
97.1164475904963
 30
0.0
  0
LINE
  5
DF
330
1F
100
AcDbEntity
  8
1
 62
     4
420
    65535
100
AcDbLine
 10
-114.6032494694
 20
97.1164475905
 30
0.0
 11
-115.0012257505
 21
98.9887787853
 31
0.0
  0
LINE
  5
E0
330
1F
100
AcDbEntity
  8
1
 62
     4
420
    65535
100
AcDbLine
 10
-115.0012257505
 20
98.9887787853
 30
0.0
 11
-114.7970837771
 21
99.0321705013
 31
0.0
  0
LINE
  5
E1
330
1F
100
AcDbEntity
  8
1
 62
     4
420
    65535
100
AcDbLine
 10
-91.2558048624
 20
97.3860039177
 30
0.0
 11
-91.0596885443
 21
97.3146234155
 31
0.0
  0
LINE
  5
E2
330
1F
100
AcDbEntity
  8
1
 62
     4
420
    65535
100
AcDbLine
 10
-91.0596885443
 20
97.3146234155
 30
0.0
 11
-91.2316521537
 21
96.8421572814
 31
0.0
  0
SPLINE
  5
E3
330
1F
100
AcDbEntity
  8
1
 62
     4
420
    65535
100
AcDbSpline
210
0.0
220
0.0
230
1.0
 70
     8
 71
     3
 72
    10
 73
     6
 74
     0
 42
0.000000001
 43
0.00000001
 40
0.0
 40
0.0
 40
0.0
 40
0.0
 40
0.5
 40
0.5
 40
1.0
 40
1.0
 40
1.0
 40
1.0
 10
-91.93740888405416
 20
95.50571298274538
 30
0.0
 10
-91.8855087267946
 20
95.48601310804938
 30
0.0
 10
-91.83089018798223
 20
95.47703631714232
 30
0.0
 10
-91.74916165468272
 20
95.48214050750467
 30
0.0
 10
-91.7216672477446
 20
95.49585187545362
 30
0.0
 10
-91.7143698859287
 20
95.51590121226447
 30
0.0
  0
SPLINE
  5
E4
330
1F
100
AcDbEntity
  8
1
 62
     4
420
    65535
100
AcDbSpline
210
0.0
220
0.0
230
1.0
 70
     8
 71
     3
 72
     8
 73
     4
 74
     0
 42
0.000000001
 43
0.00000001
 40
0.0
 40
0.0
 40
0.0
 40
0.0
 40
0.0000026009118537
 40
0.0000026009118537
 40
0.0000026009118537
 40
0.0000026009118537
 10
-91.93740888405416
 20
95.50571298274538
 30
0.0
 10
-91.93821907303187
 20
95.5060205082363
 30
0.0
 10
-91.93903123851865
 20
95.50632243693067
 30
0.0
 10
-91.9398451490103
 20
95.506618676123
 30
0.0
  0
LINE
  5
E5
330
1F
100
AcDbEntity
  8
1
 62
     4
420
    65535
100
AcDbLine
 10
-91.939845149
 20
95.5066186761
 30
0.0
 11
-91.2558048624
 21
97.3860039177
 31
0.0
  0
LINE
  5
E6
330
1F
100
AcDbEntity
  8
1
 62
     4
420
    65535
100
AcDbLine
 10
-112.0486774299
 20
99.237556361
 30
0.0
 11
-113.4714393677
 21
99.3139449189
 31
0.0
  0
LINE
  5
E7
330
1F
100
AcDbEntity
  8
1
 62
     4
420
    65535
100
AcDbLine
 10
-111.9877706889
 20
97.5846272422
 30
0.0
 11
-112.0486774299
 21
99.237556361
 31
0.0
  0
LINE
  5
E8
330
1F
100
AcDbEntity
  8
1
 62
     4
420
    65535
100
AcDbLine
 10
-114.3812603954
 20
97.0758752998
 30
0.0
 11
-111.9877706889
 21
97.5846272422
 31
0.0
  0
LINE
  5
E9
330
1F
100
AcDbEntity
  8
1
 62
     4
420
    65535
100
AcDbLine
 10
-113.4714393677
 20
99.3139449189
 30
0.0
 11
-114.7970837771
 21
99.0321705013
 31
0.0
  0
LINE
  5
EA
330
1F
100
AcDbEntity
  8
1
 62
     4
420
    65535
100
AcDbLine
 10
-93.9488797209
 20
97.9718952103
 30
0.0
 11
-94.2392369928
 21
96.3435288642
 31
0.0
  0
LINE
  5
EB
330
1F
100
AcDbEntity
  8
1
 62
     4
420
    65535
100
AcDbLine
 10
-92.529332772
 20
97.8495301693
 30
0.0
 11
-93.9488797209
 21
97.9718952103
 31
0.0
  0
LINE
  5
EC
330
1F
100
AcDbEntity
  8
1
 62
     4
420
    65535
100
AcDbLine
 10
-94.2392369928
 20
96.3435288642
 30
0.0
 11
-91.939845149
 21
95.5066186761
 31
0.0
  0
LINE
  5
ED
330
1F
100
AcDbEntity
  8
1
 62
     4
420
    65535
100
AcDbLine
 10
-91.2558048624
 20
97.3860039177
 30
0.0
 11
-92.529332772
 21
97.8495301693
 31
0.0
  0
LINE
  5
EE
330
1F
100
AcDbEntity
  8
1
 62
     4
420
    65535
100
AcDbLine
 10
-93.0438212961
 20
98.0367886779
 30
0.0
 11
-112.9358964632
 21
99.4277780773
 31
0.0
  0
LINE
  5
EF
330
1F
100
AcDbEntity
  8
1
 62
     4
420
    65535
100
AcDbLine
 10
-93.9488797209
 20
97.9718952103
 30
0.0
 11
-94.2711098659
 21
98.0450684816
 31
0.0
  0
ELLIPSE
  5
F0
330
1F
100
AcDbEntity
  8
1
 62
     4
420
    65535
100
AcDbEllipse
 10
-94.6830851229
 20
97.8877826364
 30
0.0
 11
0.7980512402078688
 21
-0.05580517899528557
 31
0.0
210
0.0
220
0.0
230
1.0
 40
0.2679491924
 41
1.047197551196613
 42
1.570796326794917
  0
LINE
  5
F1
330
1F
100
AcDbEntity
  8
1
 62
     4
420
    65535
100
AcDbLine
 10
-94.6681321702
 20
98.1016198217
 30
0.0
 11
-111.3183705195
 21
99.2659179076
 31
0.0
  0
ELLIPSE
  5
F2
330
1F
100
AcDbEntity
  8
1
 62
     4
420
    65535
100
AcDbEllipse
 10
-111.3333234722
 20
99.0520807222
 30
0.0
 11
0.7980512402078688
 21
-0.0558051789952998
 31
0.0
210
0.0
220
0.0
230
1.0
 40
0.2679491924
 41
1.570796326794903
 42
2.094395102393212
  0
LINE
  5
F3
330
1F
100
AcDbEntity
  8
1
 62
     4
420
    65535
100
AcDbLine
 10
-111.7193994554
 20
99.2651717465
 30
0.0
 11
-112.0486774299
 21
99.237556361
 31
0.0
  0
LINE
  5
F4
330
1F
100
AcDbEntity
  8
1
 62
     4
420
    65535
100
AcDbLine
 10
-92.529332772
 20
97.8495301693
 30
0.0
 11
-93.0438212961
 21
98.0367886779
 31
0.0
  0
LINE
  5
F5
330
1F
100
AcDbEntity
  8
1
 62
     4
420
    65535
100
AcDbLine
 10
-112.9358964632
 20
99.4277780773
 30
0.0
 11
-113.4714393677
 21
99.3139449189
 31
0.0
  0
LINE
  5
F6
330
1F
100
AcDbEntity
  8
1
 62
     4
420
    65535
100
AcDbLine
 10
-91.9886306775
 20
94.7623758803
 30
0.0
 11
-92.1765692017
 21
94.8307799089
 31
0.0
  0
SPLINE
  5
F7
330
1F
100
AcDbEntity
  8
1
 62
     4
420
    65535
100
AcDbSpline
210
0.0
220
0.0
230
1.0
 70
     8
 71
     3
 72
    10
 73
     6
 74
     0
 42
0.000000001
 43
0.00000001
 40
0.0
 40
0.0
 40
0.0
 40
0.0
 40
0.5
 40
0.5
 40
1.0
 40
1.0
 40
1.0
 40
1.0
 10
-92.17656920169911
 20
94.83077990893042
 30
0.0
 10
-92.13179310426925
 20
94.95712709800277
 30
0.0
 10
-92.08783651164795
 20
95.08117057840512
 30
0.0
 10
-92.00597304584959
 20
95.31219933299036
 30
0.0
 10
-91.96872227377126
 20
95.41733291594792
 30
0.0
 10
-91.9374088840542
 20
95.50571298274538
 30
0.0
  0
SPLINE
  5
F8
330
1F
100
AcDbEntity
  8
1
 62
     4
420
    65535
100
AcDbSpline
210
0.0
220
0.0
230
1.0
 70
     8
 71
     3
 72
    10
 73
     6
 74
     0
 42
0.000000001
 43
0.00000001
 40
0.0
 40
0.0
 40
0.0
 40
0.0
 40
0.5
 40
0.5
 40
1.0
 40
1.0
 40
1.0
 40
1.0
 10
-94.39612841802303
 20
96.25721989208267
 30
0.0
 10
-94.46241417305664
 20
96.2077984200004
 30
0.0
 10
-94.53111142654744
 20
96.15756059503342
 30
0.0
 10
-94.67237129586267
 20
96.05510915784346
 30
0.0
 10
-94.74635580240565
 20
96.00189312281678
 30
0.0
 10
-94.81859036708704
 20
95.94996736283962
 30
0.0
  0
SPLINE
  5
F9
330
1F
100
AcDbEntity
  8
1
 62
     4
420
    65535
100
AcDbSpline
210
0.0
220
0.0
230
1.0
 70
     8
 71
     3
 72
    11
 73
     7
 74
     0
 42
0.000000001
 43
0.00000001
 40
0.0
 40
0.0
 40
0.0
 40
0.0
 40
0.0000874260699838
 40
0.0000874260699838
 40
0.0000874260699838
 40
0.0001994524851612
 40
0.0001994524851612
 40
0.0001994524851612
 40
0.0001994524851612
 10
-94.39612841802303
 20
96.25721989208267
 30
0.0
 10
-94.37472542454326
 20
96.27317758079273
 30
0.0
 10
-94.3524134857518
 20
96.28756476809738
 30
0.0
 10
-94.32955943255585
 20
96.3004926337701
 30
0.0
 10
-94.30028724391326
 20
96.31705104988447
 30
0.0
 10
-94.2700051311062
 20
96.33129147550152
 30
0.0
 10
-94.23923699278356
 20
96.3435288641709
 30
0.0
  0
SPLINE
  5
FA
330
1F
100
AcDbEntity
  8
1
 62
     4
420
    65535
100
AcDbSpline
210
0.0
220
0.0
230
1.0
 70
     8
 71
     3
 72
     8
 73
     4
 74
     0
 42
0.000000001
 43
0.00000001
 40
0.0
 40
0.0
 40
0.0
 40
0.0
 40
1.0
 40
1.0
 40
1.0
 40
1.0
 10
-92.17656920170566
 20
94.83077990893366
 30
0.0
 10
-93.0606290210768
 20
95.19579403723385
 30
0.0
 10
-93.94223574562133
 20
95.56679254245881
 30
0.0
 10
-94.81859036708707
 20
95.94996736283962
 30
0.0
  0
SPLINE
  5
FB
330
1F
100
AcDbEntity
  8
1
 62
     4
420
    65535
100
AcDbSpline
210
0.0
220
0.0
230
1.0
 70
     8
 71
     3
 72
     8
 73
     4
 74
     0
 42
0.000000001
 43
0.00000001
 40
0.0
 40
0.0
 40
0.0
 40
0.0
 40
1.0
 40
1.0
 40
1.0
 40
1.0
 10
-111.9877706889234
 20
97.58462724221381
 30
0.0
 10
-111.936305050621
 20
97.55528466037363
 30
0.0
 10
-111.8879865312747
 20
97.520449172745
 30
0.0
 10
-111.8444180075356
 20
97.4773231569443
 30
0.0
  0
SPLINE
  5
FC
330
1F
100
AcDbEntity
  8
1
 62
     4
420
    65535
100
AcDbSpline
210
0.0
220
0.0
230
1.0
 70
     8
 71
     3
 72
    10
 73
     6
 74
     0
 42
0.000000001
 43
0.00000001
 40
0.0
 40
0.0
 40
0.0
 40
0.0
 40
0.5
 40
0.5
 40
1.0
 40
1.0
 40
1.0
 40
1.0
 10
-111.8444180075356
 20
97.47732315694427
 30
0.0
 10
-111.7857171382779
 20
97.41921848876054
 30
0.0
 10
-111.7246907995666
 20
97.35991754168954
 30
0.0
 10
-111.5989743905859
 20
97.23871676536947
 30
0.0
 10
-111.5331551726358
 20
97.17575957417137
 30
0.0
 10
-111.4688287163917
 20
97.11426544870592
 30
0.0
  0
SPLINE
  5
FD
330
1F
100
AcDbEntity
  8
1
 62
     4
420
    65535
100
AcDbSpline
210
0.0
220
0.0
230
1.0
 70
     8
 71
     3
 72
     8
 73
     4
 74
     0
 42
0.000000001
 43
0.00000001
 40
0.0
 40
0.0
 40
0.0
 40
0.0
 40
1.0
 40
1.0
 40
1.0
 40
1.0
 10
-111.4688287163884
 20
97.11426544870686
 30
0.0
 10
-112.3899898038499
 20
96.8567825640588
 30
0.0
 10
-113.3146358102265
 20
96.61209429974238
 30
0.0
 10
-114.240898701931
 20
96.37366812855312
 30
0.0
  0
SPLINE
  5
FE
330
1F
100
AcDbEntity
  8
1
 62
     4
420
    65535
100
AcDbSpline
210
0.0
220
0.0
230
1.0
 70
     8
 71
     3
 72
    10
 73
     6
 74
     0
 42
0.000000001
 43
0.00000001
 40
0.0
 40
0.0
 40
0.0
 40
0.0
 40
0.5
 40
0.5
 40
1.0
 40
1.0
 40
1.0
 40
1.0
 10
-114.3837989989814
 20
97.07531748312255
 30
0.0
 10
-114.365091007731
 20
96.9834421500414
 30
0.0
 10
-114.3429021352972
 20
96.87447941737904
 30
0.0
 10
-114.293999853
 20
96.63436227260684
 30
0.0
 10
-114.2676541328383
 20
96.50501352195553
 30
0.0
 10
-114.240898701931
 20
96.37366812855312
 30
0.0
  0
LINE
  5
FF
330
1F
100
AcDbEntity
  8
1
 62
     4
420
    65535
100
AcDbLine
 10
-114.2408987019
 20
96.3736681286
 30
0.0
 11
-114.4365282221
 21
96.3320857904
 31
0.0
  0
SPLINE
  5
100
330
1F
100
AcDbEntity
  8
1
 62
     4
420
    65535
100
AcDbSpline
210
0.0
220
0.0
230
1.0
 70
    24
 71
     3
 72
    10
 73
     6
 74
     0
 42
0.000000001
 43
0.00000001
 40
0.0
 40
0.0
 40
0.0
 40
0.0
 40
0.5
 40
0.5
 40
1.0
 40
1.0
 40
1.0
 40
1.0
 10
-114.4365282220777
 20
96.33208579038957
 30
0.0
 10
-114.4673006656961
 20
96.47685875517902
 30
0.0
 10
-114.496962472087
 20
96.61640658262682
 30
0.0
 10
-114.5541061999862
 20
96.88524668546954
 30
0.0
 10
-114.5803300421638
 20
97.00862016296396
 30
0.0
 10
-114.6032494694138
 20
97.1164475904963
 30
0.0
  0
LINE
  5
101
330
1F
100
AcDbEntity
  8
1
 62
     4
420
    65535
100
AcDbLine
 10
-111.8444180075
 20
97.4773231569
 30
0.0
 11
-111.7193994554
 21
99.2651717465
 31
0.0
  0
LINE
  5
102
330
1F
100
AcDbEntity
  8
1
 62
     4
420
    65535
100
AcDbLine
 10
-94.396128418
 20
96.2572198921
 30
0.0
 11
-94.2711098659
 21
98.0450684816
 31
0.0
  0
LINE
  5
103
330
1F
100
AcDbEntity
  8
1
 62
     4
420
    65535
100
AcDbLine
 10
-94.8185903671
 20
95.9499673628
 30
0.0
 11
-94.6681321702
 21
98.1016198217
 31
0.0
  0
LINE
  5
104
330
1F
100
AcDbEntity
  8
1
 62
     4
420
    65535
100
AcDbLine
 10
-111.4688287164
 20
97.1142654487
 30
0.0
 11
-111.3183705195
 21
99.2659179076
 31
0.0
  0
ELLIPSE
  5
105
330
1F
100
AcDbEntity
  8
1
 62
     4
420
    65535
100
AcDbEllipse
 10
-92.6922187234
 20
93.4140444918
 30
0.0
 11
0.2084102501949445
 21
-0.01033887078594375
 31
0.0
210
0.0
220
0.0
230
1.0
 40
0.2560738198
 41
0.0137206648894038
 42
1.491888359217447
  0
LINE
  5
106
330
1F
100
AcDbEntity
  8
1
 62
     4
420
    65535
100
AcDbLine
 10
-92.4837917656
 20
93.4044388213
 30
0.0
 11
-114.1351743191
 21
94.9184509774
 31
0.0
  0
ELLIPSE
  5
107
330
1F
100
AcDbEntity
  8
1
 62
     4
420
    65535
100
AcDbEllipse
 10
-113.9274389072
 20
94.8989557402
 30
0.0
 11
0.2078209086741936
 21
-0.01876684718531862
 31
0.0
210
0.0
220
0.0
230
1.0
 40
0.2560738198
 41
1.64970429437244
 42
3.127871988700381
  0
LINE
  5
108
330
1F
100
AcDbEntity
  8
1
 62
     4
420
    65535
100
AcDbLine
 10
-113.9390298756
 20
94.9534869591
 30
0.0
 11
-92.6731512786
 21
93.4664318656
 31
0.0
  0
ELLIPSE
  5
109
330
1F
100
AcDbEntity
  8
1
 62
     4
420
    65535
100
AcDbEllipse
 10
-113.929888755
 20
94.910481368
 30
0.0
 11
0.2079636309398865
 21
-0.02184995661144739
 31
0.0
210
0.0
220
0.0
230
1.0
 40
0.327678202
 41
3.247648708378549
 42
3.34027734084567
  0
LINE
  5
10A
330
1F
100
AcDbEntity
  8
1
 62
     4
420
    65535
100
AcDbLine
 10
-114.2408987019
 20
96.3736681286
 30
0.0
 11
-113.9390298756
 21
94.9534869591
 31
0.0
  0
LINE
  5
10B
330
1F
100
AcDbEntity
  8
1
 62
     4
420
    65535
100
AcDbLine
 10
-114.1374418188
 20
94.924994892
 30
0.0
 11
-114.4365282221
 21
96.3320857904
 31
0.0
  0
LINE
  5
10C
330
1F
100
AcDbEntity
  8
1
 62
     4
420
    65535
100
AcDbLine
 10
-92.6731512786
 20
93.4664318656
 30
0.0
 11
-92.1765692017
 21
94.8307799089
 31
0.0
  0
ELLIPSE
  5
10D
330
1F
100
AcDbEntity
  8
1
 62
     4
420
    65535
100
AcDbEllipse
 10
-92.6881886599
 20
93.425117
 30
0.0
 11
0.2089806693968086
 21
-0.007305629069094269
 31
0.0
210
0.0
220
0.0
230
1.0
 40
0.327678202
 41
6.084500619923565
 42
6.177129252390686
  0
LINE
  5
10E
330
1F
100
AcDbEntity
  8
1
 62
     4
420
    65535
100
AcDbLine
 10
-91.2316521537
 20
96.8421572814
 30
0.0
 11
-76.6639596002
 21
97.6056176974
 31
0.0
  0
SPLINE
  5
10F
330
1F
100
AcDbEntity
  8
1
 62
     4
420
    65535
100
AcDbSpline
210
0.0
220
0.0
230
1.0
 70
     8
 71
     3
 72
    14
 73
    10
 74
     0
 42
0.000000001
 43
0.00000001
 40
0.0
 40
0.0
 40
0.0
 40
0.0
 40
0.25
 40
0.25
 40
0.5
 40
0.5
 40
0.75
 40
0.75
 40
1.0
 40
1.0
 40
1.0
 40
1.0
 10
-76.66395960020466
 20
97.60561769743288
 30
0.0
 10
-76.57799373032701
 20
97.6101229777673
 30
0.0
 10
-76.49331546490862
 20
97.60361204273077
 30
0.0
 10
-76.32645413997463
 20
97.56924298210892
 30
0.0
 10
-76.24446320394945
 20
97.54100832118812
 30
0.0
 10
-76.09233267108081
 20
97.46578809904132
 30
0.0
 10
-76.02002452655648
 20
97.41769275058302
 30
0.0
 10
-75.89162801865761
 20
97.30615748702496
 30
0.0
 10
-75.83508791699586
 20
97.24290892097665
 30
0.0
 10
-75.78648153915071
 20
97.17191338504675
 30
0.0
  0
SPLINE
  5
110
330
1F
100
AcDbEntity
  8
1
 62
     4
420
    65535
100
AcDbSpline
210
0.0
220
0.0
230
1.0
 70
     8
 71
     3
 72
    34
 73
    30
 74
     0
 42
0.000000001
 43
0.00000001
 40
0.0
 40
0.0
 40
0.0
 40
0.0
 40
0.0625000000000007
 40
0.0625000000000007
 40
0.1250000000000013
 40
0.1250000000000013
 40
0.2500000000000029
 40
0.2500000000000029
 40
0.3750000000000046
 40
0.3750000000000046
 40
0.4375000000000041
 40
0.4375000000000041
 40
0.5000000000000037
 40
0.5000000000000037
 40
0.5625000000000032
 40
0.5625000000000032
 40
0.6250000000000028
 40
0.6250000000000028
 40
0.6875000000000023
 40
0.6875000000000023
 40
0.7500000000000018
 40
0.7500000000000018
 40
0.8125000000000013
 40
0.8125000000000013
 40
0.8750000000000009
 40
0.8750000000000009
 40
0.9375000000000004
 40
0.9375000000000004
 40
1.0
 40
1.0
 40
1.0
 40
1.0
 10
-75.78648153915071
 20
97.17191338504675
 30
0.0
 10
-75.67634157090458
 20
97.01104054449372
 30
0.0
 10
-75.54370591783568
 20
96.87193844591573
 30
0.0
 10
-75.23374804964276
 20
96.63693226993361
 30
0.0
 10
-75.06302084786115
 20
96.54642054477554
 30
0.0
 10
-74.51157425175865
 20
96.35945023348306
 30
0.0
 10
-74.10756765830196
 20
96.35791210929857
 30
0.0
 10
-73.37261202197928
 20
96.59904522737673
 30
0.0
 10
-73.04665494763174
 20
96.84167484297508
 30
0.0
 10
-72.7153873342499
 20
97.31569473993709
 30
0.0
 10
-72.6300930383364
 20
97.49278739364247
 30
0.0
 10
-72.52067504747548
 20
97.86208664751128
 30
0.0
 10
-72.49573100447202
 20
98.05750651749348
 30
0.0
 10
-72.50879402933461
 20
98.44221953024318
 30
0.0
 10
-72.54703912791338
 20
98.6358134651128
 30
0.0
 10
-72.68114061597785
 20
98.9964512862076
 30
0.0
 10
-72.77879041701516
 20
99.16815424982848
 30
0.0
 10
-73.02007216036193
 20
99.46769673561629
 30
0.0
 10
-73.16711079890553
 20
99.59972117202882
 30
0.0
 10
-73.49075699366325
 20
99.80745587980894
 30
0.0
 10
-73.67202467990347
 20
99.88615631124642
 30
0.0
 10
-74.04483201839332
 20
99.98077396022633
 30
0.0
 10
-74.2416021235304
 20
99.99804835050463
 30
0.0
 10
-74.6253289735893
 20
99.96978087323934
 30
0.0
 10
-74.81726335728293
 20
99.92393245812691
 30
0.0
 10
-75.17251194995208
 20
99.77557223076603
 30
0.0
 10
-75.33982373195013
 20
99.67148811162527
 30
0.0
 10
-75.6300821989378
 20
99.41810919364401
 30
0.0
 10
-75.75506592170531
 20
99.26785168291477
 30
0.0
 10
-75.85377062574878
 20
99.09960500930129
 30
0.0
  0
SPLINE
  5
111
330
1F
100
AcDbEntity
  8
1
 62
     4
420
    65535
100
AcDbSpline
210
0.0
220
0.0
230
1.0
 70
     8
 71
     3
 72
    12
 73
     8
 74
     0
 42
0.000000001
 43
0.00000001
 40
0.0
 40
0.0
 40
0.0
 40
0.0
 40
0.25
 40
0.25
 40
0.5
 40
0.5
 40
1.0
 40
1.0
 40
1.0
 40
1.0
 10
-75.85377062574878
 20
99.09960500930129
 30
0.0
 10
-75.8958093613622
 20
99.02794806550695
 30
0.0
 10
-75.94576282528614
 20
98.96294733229848
 30
0.0
 10
-76.06097349833408
 20
98.84581611308778
 30
0.0
 10
-76.12666144385783
 20
98.79380676814021
 30
0.0
 10
-76.33659420377467
 20
98.6661194004791
 30
0.0
 10
-76.49803093903975
 20
98.61568599608187
 30
0.0
 10
-76.66395960020466
 20
98.60699004343081
 30
0.0
  0
LINE
  5
112
330
1F
100
AcDbEntity
  8
1
 62
     4
420
    65535
100
AcDbLine
 10
-76.6639596002
 20
98.6069900434
 30
0.0
 11
-90.8600950218
 21
97.8630021116
 31
0.0
  0
LINE
  5
113
330
1F
100
AcDbEntity
  8
1
 62
     4
420
    65535
100
AcDbLine
 10
-90.8600950218
 20
97.8630021116
 30
0.0
 11
-90.7985660349
 21
98.0320516137
 31
0.0
  0
ELLIPSE
  5
114
330
1F
100
AcDbEntity
  8
1
 62
     4
420
    65535
100
AcDbEllipse
 10
129.9386104966
 20
98.9887787853
 30
0.0
 11
718.6078211977474
 21
-44.92127085912201
 31
0.0
210
0.0
220
0.0
230
1.0
 40
0.0214830971
 41
4.374253900603148
 42
4.401510853000502
  0
SPLINE
  5
115
330
1F
100
AcDbEntity
  8
1
 62
     4
420
    65535
100
AcDbSpline
210
0.0
220
0.0
230
1.0
 70
     8
 71
     3
 72
    26
 73
    22
 74
     0
 42
0.000000001
 43
0.00000001
 40
0.0
 40
0.0
 40
0.0
 40
0.0
 40
0.1250000000000002
 40
0.1250000000000002
 40
0.2500000000000005
 40
0.2500000000000005
 40
0.3125000000000006
 40
0.3125000000000006
 40
0.3750000000000008
 40
0.3750000000000008
 40
0.500000000000001
 40
0.500000000000001
 40
0.6250000000000012
 40
0.6250000000000012
 40
0.6875000000000013
 40
0.6875000000000013
 40
0.7500000000000016
 40
0.7500000000000016
 40
0.8750000000000008
 40
0.8750000000000008
 40
1.0
 40
1.0
 40
1.0
 40
1.0
 10
-109.3543791817061
 20
99.32668930226754
 30
0.0
 10
-107.9565366380758
 20
100.2646768612992
 30
0.0
 10
-106.5146612760302
 20
101.1047844105075
 30
0.0
 10
-103.5455949727865
 20
102.5971449948974
 30
0.0
 10
-102.0183946150114
 20
103.2493714232094
 30
0.0
 10
-99.66258048165616
 20
104.0856721178673
 30
0.0
 10
-98.8664426772669
 20
104.3406957782932
 30
0.0
 10
-97.25187330442162
 20
104.8021859133083
 30
0.0
 10
-96.43444959284062
 20
105.0081278609408
 30
0.0
 10
-93.98317358829425
 20
105.5445571309986
 30
0.0
 10
-92.33912135048064
 20
105.7973388552501
 30
0.0
 10
-89.03158720351628
 20
106.0978292985888
 30
0.0
 10
-87.36810542336778
 20
106.145538167302
 30
0.0
 10
-84.85792449029222
 20
106.0594136616932
 30
0.0
 10
-84.01552553139871
 20
106.0039671597324
 30
0.0
 10
-82.34501740581909
 20
105.8409069886257
 30
0.0
 10
-81.51668993679264
 20
105.7335450475472
 30
0.0
 10
-79.05192598811317
 20
105.3358841268023
 30
0.0
 10
-77.43563614251198
 20
104.9703023169145
 30
0.0
 10
-74.25567950997774
 20
104.0409644194764
 30
0.0
 10
-72.69200902249082
 20
103.4772275042236
 30
0.0
 10
-71.15525582230347
 20
102.8109681525676
 30
0.0
  0
ARC
  5
116
330
1F
100
AcDbEntity
  8
1
 62
     4
420
    65535
100
AcDbCircle
 10
-118.5012257505
 20
98.9887787853
 30
0.0
 40
47.49999999999957
100
AcDbArc
 50
330.8896328213
 51
4.6154177169
  0
LINE
  5
117
330
1F
100
AcDbEntity
  8
1
 62
     4
420
    65535
100
AcDbLine
 10
-108.091017819
 20
75.8803387687
 30
0.0
 11
-77.0012257505
 21
75.8803387687
 31
0.0
  0
SPLINE
  5
118
330
1F
100
AcDbEntity
  8
1
 62
     4
420
    65535
100
AcDbSpline
210
0.0
220
0.0
230
1.0
 70
     8
 71
     3
 72
    18
 73
    14
 74
     0
 42
0.000000001
 43
0.00000001
 40
0.0
 40
0.0
 40
0.0
 40
0.0
 40
0.2500000000000004
 40
0.2500000000000004
 40
0.5000000000000008
 40
0.5000000000000008
 40
0.5625000000000009
 40
0.5625000000000009
 40
0.625000000000001
 40
0.625000000000001
 40
0.7500000000000009
 40
0.7500000000000009
 40
1.0
 40
1.0
 40
1.0
 40
1.0
 10
-108.0910178189763
 20
75.88033876872723
 30
0.0
 10
-108.995826630622
 20
77.2033316437293
 30
0.0
 10
-109.8113577631463
 20
78.58962245174338
 30
0.0
 10
-111.259231074409
 20
81.49891150457611
 30
0.0
 10
-111.8916901904382
 20
83.02178077968607
 30
0.0
 10
-112.5552532812905
 20
85.02297603497736
 30
0.0
 10
-112.6817683693407
 20
85.42890092186217
 30
0.0
 10
-112.919442713931
 20
86.24359259423841
 30
0.0
 10
-113.0308584147899
 20
86.6530430530416
 30
0.0
 10
-113.342820180355
 20
87.88773895320229
 30
0.0
 10
-113.5211124637689
 20
88.71932186164197
 30
0.0
 10
-113.9656497410657
 20
91.2399195907399
 30
0.0
 10
-114.1421582717669
 20
92.95464314081845
 30
0.0
 10
-114.1888179555261
 20
94.70649757407065
 30
0.0
  0
ELLIPSE
  5
119
330
1F
100
AcDbEntity
  8
1
 62
     4
420
    65535
100
AcDbEllipse
 10
-408.9400984532
 20
98.9887787853
 30
0.0
 11
718.6078211977459
 21
-44.92127085912215
 31
0.0
210
0.0
220
0.0
230
1.0
 40
0.0214830971
 41
1.116273600821702
 42
1.149499353278402
  0
LINE
  5
11A
330
1F
100
AcDbEntity
  8
1
 62
     4
420
    65535
100
AcDbLine
 10
-92.5800903845
 20
93.137353691
 30
0.0
 11
-91.2316521537
 21
96.8421572814
 31
0.0
  0
ARC
  5
11B
330
1F
100
AcDbEntity
  8
1
 62
     4
420
    65535
100
AcDbCircle
 10
-87.0662475485
 20
66.1116446944
 30
0.0
 40
40.0
100
AcDbArc
 50
64.7464014381
 51
66.5608564416
  0
LINE
  5
11C
330
1F
100
AcDbEntity
  8
1
 62
     4
420
    65535
100
AcDbLine
 10
-70.0012257505
 20
102.2887787853
 30
0.0
 11
-70.0012257505
 21
99.7887787853
 31
0.0
  0
LINE
  5
11D
330
1F
100
AcDbEntity
  8
1
 62
     4
420
    65535
100
AcDbLine
 10
-70.0012257505
 20
99.7887787853
 30
0.0
 11
-70.0012257505
 21
73.9887787853
 31
0.0
  0
LINE
  5
11E
330
1F
100
AcDbEntity
  8
1
 62
     4
420
    65535
100
AcDbLine
 10
-70.0012257505
 20
73.9887787853
 30
0.0
 11
-77.0012257505
 21
73.9887787853
 31
0.0
  0
LINE
  5
11F
330
1F
100
AcDbEntity
  8
1
 62
     4
420
    65535
100
AcDbLine
 10
-77.0012257505
 20
73.9887787853
 30
0.0
 11
-77.0012257505
 21
75.8803387687
 31
0.0
  0
ARC
  5
120
330
1F
100
AcDbEntity
  8
1
 62
     4
420
    65535
100
AcDbCircle
 10
-79.2012257505
 20
95.6383729381
 30
0.0
 40
35.00000000000001
100
AcDbArc
 50
214.3686370059
 51
215.9465045627
  0
LINE
  5
121
330
1F
100
AcDbEntity
  8
1
 62
     4
420
    65535
100
AcDbLine
 10
-95.0012257505
 20
75.0923355353
 30
0.0
 11
-95.0012257505
 21
73.9887787853
 31
0.0
  0
LINE
  5
122
330
1F
100
AcDbEntity
  8
1
 62
     4
420
    65535
100
AcDbLine
 10
-95.0012257505
 20
73.9887787853
 30
0.0
 11
-77.0012257505
 21
73.9887787853
 31
0.0
  0
LINE
  5
123
330
1F
100
AcDbEntity
  8
1
 62
     4
420
    65535
100
AcDbLine
 10
-95.0012257505
 20
75.0923355353
 30
0.0
 11
-107.536016151
 21
75.0923355353
 31
0.0
  0
ARC
  5
124
330
1F
100
AcDbEntity
  8
1
 62
     4
420
    65535
100
AcDbCircle
 10
-79.2012257505
 20
95.6383729381
 30
0.0
 40
35.00000000000001
100
AcDbArc
 50
180.7541767158
 51
181.5256810187
  0
LINE
  5
125
330
1F
100
AcDbEntity
  8
1
 62
     4
420
    65535
100
AcDbLine
 10
-90.8600950218
 20
97.8630021116
 30
0.0
 11
-92.3515877929
 21
97.7848362876
 31
0.0
  0
ARC
  5
126
330
1F
100
AcDbEntity
  8
1
 62
     4
420
    65535
100
AcDbCircle
 10
-87.0662475485
 20
66.1116446944
 30
0.0
 40
40.00000000000001
100
AcDbArc
 50
123.8626064694
 51
124.2374913129
  0
ARC
  5
127
330
1F
100
AcDbEntity
  8
1
 62
     4
420
    65535
100
AcDbCircle
 10
-69.2012257505
 20
99.7887787853
 30
0.0
 40
0.7999999999999972
100
AcDbArc
 50
180.0
 51
270.0
  0
LINE
  5
128
330
1F
100
AcDbEntity
  8
1
 62
     4
420
    65535
100
AcDbLine
 10
-69.2012257505
 20
98.9887787853
 30
0.0
 11
-1.0012257505
 21
98.9887787853
 31
0.0
  0
LINE
  5
129
330
1F
100
AcDbEntity
  8
1
 62
     4
420
    65535
100
AcDbLine
 10
-1.0012257505
 20
73.9887787853
 30
0.0
 11
-1.0012257505
 21
98.9887787853
 31
0.0
  0
LINE
  5
12A
330
1F
100
AcDbEntity
  8
1
 62
     4
420
    65535
100
AcDbLine
 10
-70.0012257505
 20
73.9887787853
 30
0.0
 11
-1.0012257505
 21
73.9887787853
 31
0.0
  0
LINE
  5
12B
330
1F
100
AcDbEntity
  8
1
 62
     4
420
    65535
100
AcDbLine
 10
-0.0012257505
 20
97.9887787853
 30
0.0
 11
-0.0012257505
 21
74.9887787853
 31
0.0
  0
LINE
  5
12C
330
1F
100
AcDbEntity
  8
1
 62
     4
420
    65535
100
AcDbLine
 10
-1.0012257505
 20
73.9887787853
 30
0.0
 11
-0.0012257505
 21
74.9887787853
 31
0.0
  0
LINE
  5
12D
330
1F
100
AcDbEntity
  8
1
 62
     4
420
    65535
100
AcDbLine
 10
-0.0012257505
 20
97.9887787853
 30
0.0
 11
-1.0012257505
 21
98.9887787853
 31
0.0
  0
LINE
  5
12E
330
1F
100
AcDbEntity
  8
1
 62
     4
420
    65535
100
AcDbLine
 10
-114.1981937257
 20
95.1776859025
 30
0.0
 11
-114.1984708156
 21
95.1992472255
 31
0.0
  0
LINE
  5
12F
330
1F
100
AcDbEntity
  8
1
 62
     4
420
    65535
100
AcDbLine
 10
-114.1910467223
 20
95.1771861353
 30
0.0
 11
-114.1981937257
 21
95.1776859025
 31
0.0
  0
DIMENSION
  5
130
330
1F
100
AcDbEntity
  8
2
 62
     7
420
 16777215
100
AcDbDimension
  2
_D_4
 10
9.9987742495
 20
98.9887787853
 30
0.0
 11
9.9987742495
 21
86.4887787853
 31
0.0
 70
   160
  1
<>
 71
     2
 42
-1.0
  3
SLDDIMSTYLE0
100
AcDbAlignedDimension
 13
-0.0012257505
 23
73.9887787853
 33
0.0
 14
-0.0012257505
 24
98.9887787853
 34
0.0
 50
90.0
100
AcDbRotatedDimension
  0
DIMENSION
  5
13A
330
1F
100
AcDbEntity
  8
2
 62
     7
420
 16777215
100
AcDbDimension
  2
_D_5
 10
-125.0012257505
 20
73.9887787853
 30
0.0
 11
-125.0012257505
 21
86.4887787853
 31
0.0
 70
   160
  1
<>
 71
     2
 42
-1.0
  3
SLDDIMSTYLE0
100
AcDbAlignedDimension
 13
-115.0012257505
 23
98.9887787853
 33
0.0
 14
-115.0012257505
 24
73.9887787853
 34
0.0
 50
90.0
100
AcDbRotatedDimension
  0
DIMENSION
  5
144
330
1F
100
AcDbEntity
  8
2
 62
     7
420
 16777215
100
AcDbDimension
  2
_D_6
 10
-70.0012257505
 20
116.1116446944
 30
0.0
 11
-92.5012257505
 21
116.1116446944
 31
0.0
 70
   160
  1
<>
 71
     2
 42
-1.0
  3
SLDDIMSTYLE0
100
AcDbAlignedDimension
 13
-115.0012257505
 23
98.9887787853
 33
0.0
 14
-70.0012257505
 24
102.2887787853
 34
0.0
100
AcDbRotatedDimension
  0
DIMENSION
  5
14E
330
1F
100
AcDbEntity
  8
2
 62
     7
420
 16777215
100
AcDbDimension
  2
_D_7
 10
-131.0012257505
 20
73.9887787853
 30
0.0
 11
-131.0012257505
 21
89.9917096981
 31
0.0
 70
   160
  1
<>
 71
     2
 42
-1.0
  3
SLDDIMSTYLE0
100
AcDbAlignedDimension
 13
-84.0090205821
 23
105.9946406109
 33
0.0
 14
-115.0012257505
 24
73.9887787853
 34
0.0
 50
90.0
100
AcDbRotatedDimension
  0
ENDSEC
  0
SECTION
  2
OBJECTS
  0
DICTIONARY
  5
C
330
0
100
AcDbDictionary
281
     1
  3
ACAD_DETAILVIEWSTYLE
350
161
  3
ACAD_GROUP
350
D
  3
ACAD_LAYOUT
350
1A
  3
ACAD_MATERIAL
350
43
  3
ACAD_MLEADERSTYLE
350
6B
  3
ACAD_MLINESTYLE
350
17
  3
ACAD_PLOTSETTINGS
350
19
  3
ACAD_PLOTSTYLENAME
350
E
  3
ACAD_SCALELIST
350
47
  3
ACAD_SECTIONVIEWSTYLE
350
162
  3
ACAD_TABLESTYLE
350
69
  3
ACDB_RECOMPOSE_DATA
350
15E
  3
AcDbVariableDictionary
350
158
  0
DICTIONARY
  5
161
102
{ACAD_REACTORS
330
C
102
}
330
C
100
AcDbDictionary
281
     1
  0
DICTIONARY
  5
D
102
{ACAD_REACTORS
330
C
102
}
330
C
100
AcDbDictionary
281
     1
  0
DICTIONARY
  5
1A
102
{ACAD_REACTORS
330
C
102
}
330
C
100
AcDbDictionary
281
     1
  3
Layout1
350
1E
  3
Layout2
350
26
  3
Model
350
22
  0
DICTIONARY
  5
43
102
{ACAD_REACTORS
330
C
102
}
330
C
100
AcDbDictionary
281
     1
  3
ByBlock
350
45
  3
ByLayer
350
44
  3
Global
350
46
  0
DICTIONARY
  5
6B
102
{ACAD_REACTORS
330
C
102
}
330
C
100
AcDbDictionary
281
     1
  3
Standard
350
6C
  0
DICTIONARY
  5
17
102
{ACAD_REACTORS
330
C
102
}
330
C
100
AcDbDictionary
281
     1
  3
Standard
350
18
  0
DICTIONARY
  5
19
102
{ACAD_REACTORS
330
C
102
}
330
C
100
AcDbDictionary
281
     1
  0
ACDBDICTIONARYWDFLT
  5
E
102
{ACAD_REACTORS
330
C
102
}
330
C
100
AcDbDictionary
281
     1
  3
Normal
350
F
100
AcDbDictionaryWithDefault
340
F
  0
DICTIONARY
  5
47
102
{ACAD_REACTORS
330
C
102
}
330
C
100
AcDbDictionary
281
     1
  3
A0
350
48
  3
A1
350
49
  3
A2
350
4A
  3
A3
350
4B
  3
A4
350
4C
  3
A5
350
4D
  3
A6
350
4E
  3
A7
350
4F
  3
A8
350
50
  3
A9
350
51
  3
B0
350
52
  3
B1
350
53
  3
B2
350
54
  3
B3
350
55
  3
B4
350
56
  3
B5
350
57
  3
B6
350
58
  3
B7
350
59
  3
B8
350
5A
  3
B9
350
5B
  3
C0
350
5C
  3
C1
350
5D
  3
C2
350
5E
  3
C3
350
5F
  3
C4
350
60
  3
C5
350
61
  3
C6
350
62
  3
C7
350
63
  3
C8
350
64
  3
C9
350
65
  3
D0
350
66
  3
D1
350
67
  3
D2
350
68
  0
DICTIONARY
  5
162
102
{ACAD_REACTORS
330
C
102
}
330
C
100
AcDbDictionary
281
     1
  0
DICTIONARY
  5
69
102
{ACAD_REACTORS
330
C
102
}
330
C
100
AcDbDictionary
281
     1
  3
Standard
350
6A
  0
XRECORD
  5
15E
102
{ACAD_REACTORS
330
C
102
}
330
C
100
AcDbXrecord
280
     1
 90
        1
330
6A
  0
DICTIONARY
  5
158
102
{ACAD_REACTORS
330
C
102
}
330
C
100
AcDbDictionary
281
     1
  3
CANNOSCALE
350
159
  3
CMLEADERSTYLE
350
160
  3
CTABLESTYLE
350
15F
  0
LAYOUT
  5
1E
102
{ACAD_REACTORS
330
1A
102
}
330
1A
100
AcDbPlotSettings
  1

  2
none_device
  4

  6

 40
0.0
 41
0.0
 42
0.0
 43
0.0
 44
0.0
 45
0.0
 46
0.0
 47
0.0
 48
0.0
 49
0.0
140
0.0
141
0.0
142
1.0
143
1.0
 70
   688
 72
     1
 73
     0
 74
     5
  7

 75
    16
 76
     0
 77
     2
 78
   300
147
1.0
148
0.0
149
0.0
100
AcDbLayout
  1
Layout1
 70
     1
 71
     1
 10
0.0
 20
0.0
 11
420.0
 21
297.0
 12
0.0
 22
0.0
 32
0.0
 14
1.0000000000E+20
 24
1.0000000000E+20
 34
1.0000000000E+20
 15
-1.0000000000E+20
 25
-1.0000000000E+20
 35
-1.0000000000E+20
146
0.0
 13
0.0
 23
0.0
 33
0.0
 16
1.0
 26
0.0
 36
0.0
 17
0.0
 27
1.0
 37
0.0
 76
     0
330
1B
  0
LAYOUT
  5
26
102
{ACAD_REACTORS
330
1A
102
}
330
1A
100
AcDbPlotSettings
  1

  2
none_device
  4

  6

 40
0.0
 41
0.0
 42
0.0
 43
0.0
 44
0.0
 45
0.0
 46
0.0
 47
0.0
 48
0.0
 49
0.0
140
0.0
141
0.0
142
1.0
143
1.0
 70
   688
 72
     1
 73
     0
 74
     5
  7

 75
    16
 76
     0
 77
     2
 78
   300
147
1.0
148
0.0
149
0.0
100
AcDbLayout
  1
Layout2
 70
     1
 71
     2
 10
0.0
 20
0.0
 11
0.0
 21
0.0
 12
0.0
 22
0.0
 32
0.0
 14
0.0
 24
0.0
 34
0.0
 15
0.0
 25
0.0
 35
0.0
146
0.0
 13
0.0
 23
0.0
 33
0.0
 16
1.0
 26
0.0
 36
0.0
 17
0.0
 27
1.0
 37
0.0
 76
     0
330
23
  0
LAYOUT
  5
22
102
{ACAD_REACTORS
330
1A
102
}
330
1A
100
AcDbPlotSettings
  1

  2
none_device
  4
Letter_(8.50_x_11.00_Inches)
  6

 40
6.35
 41
6.35
 42
6.35000508
 43
6.35000508
 44
215.9
 45
279.4
 46
0.0
 47
0.0
 48
0.0
 49
0.0
140
0.0
141
0.0
142
1.0
143
1.0
 70
  1712
 72
     1
 73
     0
 74
     0
  7

 75
     0
 76
     0
 77
     2
 78
   300
147
1.0
148
0.0
149
0.0
100
AcDbLayout
  1
Model
 70
     1
 71
     0
 10
0.0
 20
0.0
 11
297.0
 21
210.0
 12
0.0
 22
0.0
 32
0.0
 14
0.0
 24
0.0
 34
0.0
 15
297.0
 25
210.0
 35
0.0
146
0.0
 13
0.0
 23
0.0
 33
0.0
 16
1.0
 26
0.0
 36
0.0
 17
0.0
 27
1.0
 37
0.0
 76
     0
330
1F
331
29
  0
MATERIAL
  5
45
102
{ACAD_REACTORS
330
43
102
}
330
43
100
AcDbMaterial
  1
ByBlock
  0
MATERIAL
  5
44
102
{ACAD_REACTORS
330
43
102
}
330
43
100
AcDbMaterial
  1
ByLayer
  0
MATERIAL
  5
46
102
{ACAD_REACTORS
330
43
102
}
330
43
100
AcDbMaterial
  1
Global
  0
MLEADERSTYLE
  5
6C
102
{ACAD_REACTORS
330
6B
102
}
330
6B
100
AcDbMLeaderStyle
170
     2
171
     1
172
     0
 90
        2
 40
0.0
 41
0.0
173
     1
 91
-1056964608
340
14
 92
       -2
290
     1
 42
2.0
291
     1
 43
8.0
  3
Standard
341
0
 44
4.0
300

342
11
174
     1
178
     6
175
     1
176
     0
 93
-1056964608
 45
4.0
292
     0
297
     0
 46
4.0
343
0
 94
-1056964608
 47
1.0
 49
1.0
140
1.0
293
     1
141
0.0
294
     1
177
     0
142
1.0
295
     0
296
     0
143
3.75
1001
ACAD_MLEADERVER
1070
     2
  0
MLINESTYLE
  5
18
102
{ACAD_REACTORS
330
17
102
}
330
17
100
AcDbMlineStyle
  2
Standard
 70
     0
  3

 62
   256
 51
90.0
 52
90.0
 71
     2
 49
0.5
 62
   256
  6
BYLAYER
 49
-0.5
 62
   256
  6
BYLAYER
  0
ACDBPLACEHOLDER
  5
F
102
{ACAD_REACTORS
330
E
102
}
330
E
  0
SCALE
  5
48
102
{ACAD_REACTORS
330
47
102
}
330
47
100
AcDbScale
 70
     0
300
1:1
140
1.0
141
1.0
290
     1
  0
SCALE
  5
49
102
{ACAD_REACTORS
330
47
102
}
330
47
100
AcDbScale
 70
     0
300
1:2
140
1.0
141
2.0
290
     0
  0
SCALE
  5
4A
102
{ACAD_REACTORS
330
47
102
}
330
47
100
AcDbScale
 70
     0
300
1:4
140
1.0
141
4.0
290
     0
  0
SCALE
  5
4B
102
{ACAD_REACTORS
330
47
102
}
330
47
100
AcDbScale
 70
     0
300
1:5
140
1.0
141
5.0
290
     0
  0
SCALE
  5
4C
102
{ACAD_REACTORS
330
47
102
}
330
47
100
AcDbScale
 70
     0
300
1:8
140
1.0
141
8.0
290
     0
  0
SCALE
  5
4D
102
{ACAD_REACTORS
330
47
102
}
330
47
100
AcDbScale
 70
     0
300
1:10
140
1.0
141
10.0
290
     0
  0
SCALE
  5
4E
102
{ACAD_REACTORS
330
47
102
}
330
47
100
AcDbScale
 70
     0
300
1:16
140
1.0
141
16.0
290
     0
  0
SCALE
  5
4F
102
{ACAD_REACTORS
330
47
102
}
330
47
100
AcDbScale
 70
     0
300
1:20
140
1.0
141
20.0
290
     0
  0
SCALE
  5
50
102
{ACAD_REACTORS
330
47
102
}
330
47
100
AcDbScale
 70
     0
300
1:30
140
1.0
141
30.0
290
     0
  0
SCALE
  5
51
102
{ACAD_REACTORS
330
47
102
}
330
47
100
AcDbScale
 70
     0
300
1:40
140
1.0
141
40.0
290
     0
  0
SCALE
  5
52
102
{ACAD_REACTORS
330
47
102
}
330
47
100
AcDbScale
 70
     0
300
1:50
140
1.0
141
50.0
290
     0
  0
SCALE
  5
53
102
{ACAD_REACTORS
330
47
102
}
330
47
100
AcDbScale
 70
     0
300
1:100
140
1.0
141
100.0
290
     0
  0
SCALE
  5
54
102
{ACAD_REACTORS
330
47
102
}
330
47
100
AcDbScale
 70
     0
300
2:1
140
2.0
141
1.0
290
     0
  0
SCALE
  5
55
102
{ACAD_REACTORS
330
47
102
}
330
47
100
AcDbScale
 70
     0
300
4:1
140
4.0
141
1.0
290
     0
  0
SCALE
  5
56
102
{ACAD_REACTORS
330
47
102
}
330
47
100
AcDbScale
 70
     0
300
8:1
140
8.0
141
1.0
290
     0
  0
SCALE
  5
57
102
{ACAD_REACTORS
330
47
102
}
330
47
100
AcDbScale
 70
     0
300
10:1
140
10.0
141
1.0
290
     0
  0
SCALE
  5
58
102
{ACAD_REACTORS
330
47
102
}
330
47
100
AcDbScale
 70
     0
300
100:1
140
100.0
141
1.0
290
     0
  0
SCALE
  5
59
102
{ACAD_REACTORS
330
47
102
}
330
47
100
AcDbScale
 70
     0
300
1/128" = 1'-0"
140
0.0078125
141
12.0
290
     0
  0
SCALE
  5
5A
102
{ACAD_REACTORS
330
47
102
}
330
47
100
AcDbScale
 70
     0
300
1/64" = 1'-0"
140
0.015625
141
12.0
290
     0
  0
SCALE
  5
5B
102
{ACAD_REACTORS
330
47
102
}
330
47
100
AcDbScale
 70
     0
300
1/32" = 1'-0"
140
0.03125
141
12.0
290
     0
  0
SCALE
  5
5C
102
{ACAD_REACTORS
330
47
102
}
330
47
100
AcDbScale
 70
     0
300
1/16" = 1'-0"
140
0.0625
141
12.0
290
     0
  0
SCALE
  5
5D
102
{ACAD_REACTORS
330
47
102
}
330
47
100
AcDbScale
 70
     0
300
3/32" = 1'-0"
140
0.09375
141
12.0
290
     0
  0
SCALE
  5
5E
102
{ACAD_REACTORS
330
47
102
}
330
47
100
AcDbScale
 70
     0
300
1/8" = 1'-0"
140
0.125
141
12.0
290
     0
  0
SCALE
  5
5F
102
{ACAD_REACTORS
330
47
102
}
330
47
100
AcDbScale
 70
     0
300
3/16" = 1'-0"
140
0.1875
141
12.0
290
     0
  0
SCALE
  5
60
102
{ACAD_REACTORS
330
47
102
}
330
47
100
AcDbScale
 70
     0
300
1/4" = 1'-0"
140
0.25
141
12.0
290
     0
  0
SCALE
  5
61
102
{ACAD_REACTORS
330
47
102
}
330
47
100
AcDbScale
 70
     0
300
3/8" = 1'-0"
140
0.375
141
12.0
290
     0
  0
SCALE
  5
62
102
{ACAD_REACTORS
330
47
102
}
330
47
100
AcDbScale
 70
     0
300
1/2" = 1'-0"
140
0.5
141
12.0
290
     0
  0
SCALE
  5
63
102
{ACAD_REACTORS
330
47
102
}
330
47
100
AcDbScale
 70
     0
300
3/4" = 1'-0"
140
0.75
141
12.0
290
     0
  0
SCALE
  5
64
102
{ACAD_REACTORS
330
47
102
}
330
47
100
AcDbScale
 70
     0
300
1" = 1'-0"
140
1.0
141
12.0
290
     0
  0
SCALE
  5
65
102
{ACAD_REACTORS
330
47
102
}
330
47
100
AcDbScale
 70
     0
300
1-1/2" = 1'-0"
140
1.5
141
12.0
290
     0
  0
SCALE
  5
66
102
{ACAD_REACTORS
330
47
102
}
330
47
100
AcDbScale
 70
     0
300
3" = 1'-0"
140
3.0
141
12.0
290
     0
  0
SCALE
  5
67
102
{ACAD_REACTORS
330
47
102
}
330
47
100
AcDbScale
 70
     0
300
6" = 1'-0"
140
6.0
141
12.0
290
     0
  0
SCALE
  5
68
102
{ACAD_REACTORS
330
47
102
}
330
47
100
AcDbScale
 70
     0
300
1'-0" = 1'-0"
140
12.0
141
12.0
290
     0
  0
TABLESTYLE
  5
6A
102
{ACAD_REACTORS
330
69
102
}
102
{ACAD_XDICTIONARY
360
15A
102
}
330
69
100
AcDbTableStyle
  3
Standard
 70
     0
 71
     0
 40
0.06
 41
0.06
280
     0
281
     0
  7
Standard
140
4.5
170
     2
 62
     0
 63
   257
283
     0
274
    -2
284
     1
 64
     0
275
    -2
285
     1
 65
     0
276
    -2
286
     1
 66
     0
277
    -2
287
     1
 67
     0
278
    -2
288
     1
 68
     0
279
    -2
289
     1
 69
     0
  7
Standard
140
6.0
170
     5
 62
     0
 63
   257
283
     0
274
    -2
284
     1
 64
     0
275
    -2
285
     1
 65
     0
276
    -2
286
     1
 66
     0
277
    -2
287
     1
 67
     0
278
    -2
288
     1
 68
     0
279
    -2
289
     1
 69
     0
  7
Standard
140
4.5
170
     5
 62
     0
 63
   257
283
     0
274
    -2
284
     1
 64
     0
275
    -2
285
     1
 65
     0
276
    -2
286
     1
 66
     0
277
    -2
287
     1
 67
     0
278
    -2
288
     1
 68
     0
279
    -2
289
     1
 69
     0
  0
DICTIONARYVAR
  5
159
102
{ACAD_REACTORS
330
158
102
}
330
158
100
DictionaryVariables
280
     0
  1
1:1
  0
DICTIONARYVAR
  5
160
102
{ACAD_REACTORS
330
158
102
}
330
158
100
DictionaryVariables
280
     0
  1
Standard
  0
DICTIONARYVAR
  5
15F
102
{ACAD_REACTORS
330
158
102
}
330
158
100
DictionaryVariables
280
     0
  1
Standard
  0
DICTIONARY
  5
15A
330
6A
100
AcDbDictionary
280
     1
281
     1
  3
ACAD_ROUNDTRIP_2008_TABLESTYLE_CELLSTYLEMAP
360
15C
  3
ACAD_XREC_ROUNDTRIP
360
15B
  0
CELLSTYLEMAP
  5
15C
102
{ACAD_REACTORS
330
15A
102
}
330
15A
100
AcDbCellStyleMap
 90
        3
300
CELLSTYLE
  1
TABLEFORMAT_BEGIN
 90
        5
170
     1
 91
        0
 92
    32768
 62
   257
 93
        1
300
CONTENTFORMAT
  1
CONTENTFORMAT_BEGIN
 90
        0
 91
        0
 92
        4
 93
        0
300

 40
0.0
140
1.0
 94
        5
 62
     0
340
11
144
6.0
309
CONTENTFORMAT_END
171
     1
301
MARGIN
  1
CELLMARGIN_BEGIN
 40
1.5
 40
1.5
 40
1.5
 40
1.5
 40
1.5
 40
1.5
309
CELLMARGIN_END
 94
        6
 95
        1
302
GRIDFORMAT
  1
GRIDFORMAT_BEGIN
 90
        0
 91
        1
 62
     0
 92
       -2
340
14
 93
        0
 40
0.045
309
GRIDFORMAT_END
 95
        2
302
GRIDFORMAT
  1
GRIDFORMAT_BEGIN
 90
        0
 91
        1
 62
     0
 92
       -2
340
14
 93
        0
 40
0.045
309
GRIDFORMAT_END
 95
        4
302
GRIDFORMAT
  1
GRIDFORMAT_BEGIN
 90
        0
 91
        1
 62
     0
 92
       -2
340
14
 93
        0
 40
0.045
309
GRIDFORMAT_END
 95
        8
302
GRIDFORMAT
  1
GRIDFORMAT_BEGIN
 90
        0
 91
        1
 62
     0
 92
       -2
340
14
 93
        0
 40
0.045
309
GRIDFORMAT_END
 95
       16
302
GRIDFORMAT
  1
GRIDFORMAT_BEGIN
 90
        0
 91
        1
 62
     0
 92
       -2
340
14
 93
        0
 40
0.045
309
GRIDFORMAT_END
 95
       32
302
GRIDFORMAT
  1
GRIDFORMAT_BEGIN
 90
        0
 91
        1
 62
     0
 92
       -2
340
14
 93
        0
 40
0.045
309
GRIDFORMAT_END
309
TABLEFORMAT_END
  1
CELLSTYLE_BEGIN
 90
        1
 91
        1
300
_TITLE
309
CELLSTYLE_END
300
CELLSTYLE
  1
TABLEFORMAT_BEGIN
 90
        5
170
     1
 91
        0
 92
        0
 62
   257
 93
        1
300
CONTENTFORMAT
  1
CONTENTFORMAT_BEGIN
 90
        0
 91
        0
 92
        4
 93
        0
300

 40
0.0
140
1.0
 94
        5
 62
     0
340
11
144
4.5
309
CONTENTFORMAT_END
171
     1
301
MARGIN
  1
CELLMARGIN_BEGIN
 40
1.5
 40
1.5
 40
1.5
 40
1.5
 40
1.5
 40
1.5
309
CELLMARGIN_END
 94
        6
 95
        1
302
GRIDFORMAT
  1
GRIDFORMAT_BEGIN
 90
        0
 91
        1
 62
     0
 92
       -2
340
14
 93
        0
 40
0.045
309
GRIDFORMAT_END
 95
        2
302
GRIDFORMAT
  1
GRIDFORMAT_BEGIN
 90
        0
 91
        1
 62
     0
 92
       -2
340
14
 93
        0
 40
0.045
309
GRIDFORMAT_END
 95
        4
302
GRIDFORMAT
  1
GRIDFORMAT_BEGIN
 90
        0
 91
        1
 62
     0
 92
       -2
340
14
 93
        0
 40
0.045
309
GRIDFORMAT_END
 95
        8
302
GRIDFORMAT
  1
GRIDFORMAT_BEGIN
 90
        0
 91
        1
 62
     0
 92
       -2
340
14
 93
        0
 40
0.045
309
GRIDFORMAT_END
 95
       16
302
GRIDFORMAT
  1
GRIDFORMAT_BEGIN
 90
        0
 91
        1
 62
     0
 92
       -2
340
14
 93
        0
 40
0.045
309
GRIDFORMAT_END
 95
       32
302
GRIDFORMAT
  1
GRIDFORMAT_BEGIN
 90
        0
 91
        1
 62
     0
 92
       -2
340
14
 93
        0
 40
0.045
309
GRIDFORMAT_END
309
TABLEFORMAT_END
  1
CELLSTYLE_BEGIN
 90
        2
 91
        1
300
_HEADER
309
CELLSTYLE_END
300
CELLSTYLE
  1
TABLEFORMAT_BEGIN
 90
        5
170
     1
 91
        0
 92
        0
 62
   257
 93
        1
300
CONTENTFORMAT
  1
CONTENTFORMAT_BEGIN
 90
        0
 91
        0
 92
        4
 93
        0
300

 40
0.0
140
1.0
 94
        2
 62
     0
340
11
144
4.5
309
CONTENTFORMAT_END
171
     1
301
MARGIN
  1
CELLMARGIN_BEGIN
 40
1.5
 40
1.5
 40
1.5
 40
1.5
 40
1.5
 40
1.5
309
CELLMARGIN_END
 94
        6
 95
        1
302
GRIDFORMAT
  1
GRIDFORMAT_BEGIN
 90
        0
 91
        1
 62
     0
 92
       -2
340
14
 93
        0
 40
0.045
309
GRIDFORMAT_END
 95
        2
302
GRIDFORMAT
  1
GRIDFORMAT_BEGIN
 90
        0
 91
        1
 62
     0
 92
       -2
340
14
 93
        0
 40
0.045
309
GRIDFORMAT_END
 95
        4
302
GRIDFORMAT
  1
GRIDFORMAT_BEGIN
 90
        0
 91
        1
 62
     0
 92
       -2
340
14
 93
        0
 40
0.045
309
GRIDFORMAT_END
 95
        8
302
GRIDFORMAT
  1
GRIDFORMAT_BEGIN
 90
        0
 91
        1
 62
     0
 92
       -2
340
14
 93
        0
 40
0.045
309
GRIDFORMAT_END
 95
       16
302
GRIDFORMAT
  1
GRIDFORMAT_BEGIN
 90
        0
 91
        1
 62
     0
 92
       -2
340
14
 93
        0
 40
0.045
309
GRIDFORMAT_END
 95
       32
302
GRIDFORMAT
  1
GRIDFORMAT_BEGIN
 90
        0
 91
        1
 62
     0
 92
       -2
340
14
 93
        0
 40
0.045
309
GRIDFORMAT_END
309
TABLEFORMAT_END
  1
CELLSTYLE_BEGIN
 90
        3
 91
        2
300
_DATA
309
CELLSTYLE_END
  0
XRECORD
  5
15B
102
{ACAD_REACTORS
330
15A
102
}
330
15A
100
AcDbXrecord
280
     1
102
ACAD_ROUNDTRIP_PRE2007_TABLESTYLE
 90
        4
 91
        0
  1

 92
        4
 93
        0
  2

 94
        4
 95
        0
  3

  0
ENDSEC
  0
EOF
