  0
SECTION
  2
HEADER
  9
$ACADVER
  1
AC1021
  9
$ACADMAINTVER
 70
    25
  9
$DWGCODEPAGE
  3
ANSI_1252
  9
$INSBASE
 10
0.0
 20
0.0
 30
0.0
  9
$EXTMIN
 10
0.0
 20
0.0
 30
0.0
  9
$EXTMAX
 10
297.0
 20
210.0
 30
0.0
  9
$LIMMIN
 10
0.0
 20
0.0
  9
$LIMMAX
 10
297.0
 20
210.0
  9
$ORTHOMODE
 70
     0
  9
$REGENMODE
 70
     1
  9
$FILLMODE
 70
     1
  9
$QTEXTMODE
 70
     0
  9
$MIRRTEXT
 70
     1
  9
$LTSCALE
 40
1.0
  9
$ATTMODE
 70
     1
  9
$TEXTSIZE
 40
3.5
  9
$TRACEWID
 40
1.0
  9
$TEXTSTYLE
  7
Standard
  9
$CLAYER
  8
0
  9
$CELTYPE
  6
ByLayer
  9
$CECOLOR
 62
   256
  9
$CELTSCALE
 40
1.0
  9
$DISPSILH
 70
     0
  9
$DIMSCALE
 40
1.0
  9
$DIMASZ
 40
3.302
  9
$DIMEXO
 40
1.0
  9
$DIMDLI
 40
3.75
  9
$DIMRND
 40
0.0
  9
$DIMDLE
 40
0.0
  9
$DIMEXE
 40
1.0
  9
$DIMTP
 40
0.0
  9
$DIMTM
 40
0.0
  9
$DIMTXT
 40
3.5
  9
$DIMCEN
 40
2.5
  9
$DIMTSZ
 40
0.0
  9
$DIMTOL
 70
     0
  9
$DIMLIM
 70
     0
  9
$DIMTIH
 70
     1
  9
$DIMTOH
 70
     1
  9
$DIMSE1
 70
     0
  9
$DIMSE2
 70
     0
  9
$DIMTAD
 70
     1
  9
$DIMZIN
 70
     0
  9
$DIMBLK
  1

  9
$DIMASO
 70
     1
  9
$DIMSHO
 70
     1
  9
$DIMPOST
  1

  9
$DIMAPOST
  1

  9
$DIMALT
 70
     0
  9
$DIMALTD
 70
     3
  9
$DIMALTF
 40
0.0393700787
  9
$DIMLFAC
 40
1.0
  9
$DIMTOFL
 70
     1
  9
$DIMTVP
 40
0.0
  9
$DIMTIX
 70
     0
  9
$DIMSOXD
 70
     0
  9
$DIMSAH
 70
     0
  9
$DIMBLK1
  1

  9
$DIMBLK2
  1

  9
$DIMSTYLE
  2
ISO-25
  9
$DIMCLRD
 70
     0
  9
$DIMCLRE
 70
     0
  9
$DIMCLRT
 70
     0
  9
$DIMTFAC
 40
1.0
  9
$DIMGAP
 40
1.524
  9
$DIMJUST
 70
     0
  9
$DIMSD1
 70
     0
  9
$DIMSD2
 70
     0
  9
$DIMTOLJ
 70
     0
  9
$DIMTZIN
 70
     0
  9
$DIMALTZ
 70
     0
  9
$DIMALTTZ
 70
     0
  9
$DIMUPT
 70
     0
  9
$DIMDEC
 70
     2
  9
$DIMTDEC
 70
     2
  9
$DIMALTU
 70
     2
  9
$DIMALTTD
 70
     3
  9
$DIMTXSTY
  7
Standard
  9
$DIMAUNIT
 70
     0
  9
$DIMADEC
 70
     2
  9
$DIMALTRND
 40
0.0
  9
$DIMAZIN
 70
     0
  9
$DIMDSEP
 70
    44
  9
$DIMATFIT
 70
     3
  9
$DIMFRAC
 70
     0
  9
$DIMLDRBLK
  1

  9
$DIMLUNIT
 70
     2
  9
$DIMLWD
 70
    -2
  9
$DIMLWE
 70
    -2
  9
$DIMTMOVE
 70
     0
  9
$DIMFXL
 40
1.0
  9
$DIMFXLON
 70
     0
  9
$DIMJOGANG
 40
0.7853981634
  9
$DIMTFILL
 70
     0
  9
$DIMTFILLCLR
 70
     0
  9
$DIMARCSYM
 70
     0
  9
$DIMLTYPE
  6

  9
$DIMLTEX1
  6

  9
$DIMLTEX2
  6

  9
$LUNITS
 70
     2
  9
$LUPREC
 70
     2
  9
$SKETCHINC
 40
1.0
  9
$FILLETRAD
 40
10.0
  9
$AUNITS
 70
     0
  9
$AUPREC
 70
     2
  9
$MENU
  1
.
  9
$ELEVATION
 40
0.0
  9
$PELEVATION
 40
0.0
  9
$THICKNESS
 40
0.0
  9
$LIMCHECK
 70
     0
  9
$CHAMFERA
 40
10.0
  9
$CHAMFERB
 40
10.0
  9
$CHAMFERC
 40
20.0
  9
$CHAMFERD
 40
0.0
  9
$SKPOLY
 70
     0
  9
$TDCREATE
 40
2456608.5803911
  9
$TDUCREATE
 40
2456608.538724433
  9
$TDUPDATE
 40
2456608.580391458
  9
$TDUUPDATE
 40
2456608.538724792
  9
$TDINDWG
 40
0.0000000116
  9
$TDUSRTIMER
 40
0.0000000116
  9
$USRTIMER
 70
     1
  9
$ANGBASE
 50
0.0
  9
$ANGDIR
 70
     0
  9
$PDMODE
 70
     0
  9
$PDSIZE
 40
-1.0
  9
$PLINEWID
 40
0.0
  9
$SPLFRAME
 70
     0
  9
$SPLINETYPE
 70
     6
  9
$SPLINESEGS
 70
     8
  9
$HANDSEED
  5
115
  9
$SURFTAB1
 70
     6
  9
$SURFTAB2
 70
     6
  9
$SURFTYPE
 70
     6
  9
$SURFU
 70
     6
  9
$SURFV
 70
     6
  9
$UCSBASE
  2

  9
$UCSNAME
  2

  9
$UCSORG
 10
0.0
 20
0.0
 30
0.0
  9
$UCSXDIR
 10
1.0
 20
0.0
 30
0.0
  9
$UCSYDIR
 10
0.0
 20
1.0
 30
0.0
  9
$UCSORTHOREF
  2

  9
$UCSORTHOVIEW
 70
     0
  9
$UCSORGTOP
 10
0.0
 20
0.0
 30
0.0
  9
$UCSORGBOTTOM
 10
0.0
 20
0.0
 30
0.0
  9
$UCSORGLEFT
 10
0.0
 20
0.0
 30
0.0
  9
$UCSORGRIGHT
 10
0.0
 20
0.0
 30
0.0
  9
$UCSORGFRONT
 10
0.0
 20
0.0
 30
0.0
  9
$UCSORGBACK
 10
0.0
 20
0.0
 30
0.0
  9
$PUCSBASE
  2

  9
$PUCSNAME
  2

  9
$PUCSORG
 10
0.0
 20
0.0
 30
0.0
  9
$PUCSXDIR
 10
1.0
 20
0.0
 30
0.0
  9
$PUCSYDIR
 10
0.0
 20
1.0
 30
0.0
  9
$PUCSORTHOREF
  2

  9
$PUCSORTHOVIEW
 70
     0
  9
$PUCSORGTOP
 10
0.0
 20
0.0
 30
0.0
  9
$PUCSORGBOTTOM
 10
0.0
 20
0.0
 30
0.0
  9
$PUCSORGLEFT
 10
0.0
 20
0.0
 30
0.0
  9
$PUCSORGRIGHT
 10
0.0
 20
0.0
 30
0.0
  9
$PUCSORGFRONT
 10
0.0
 20
0.0
 30
0.0
  9
$PUCSORGBACK
 10
0.0
 20
0.0
 30
0.0
  9
$USERI1
 70
     0
  9
$USERI2
 70
     0
  9
$USERI3
 70
     0
  9
$USERI4
 70
     0
  9
$USERI5
 70
     0
  9
$USERR1
 40
0.0
  9
$USERR2
 40
0.0
  9
$USERR3
 40
0.0
  9
$USERR4
 40
0.0
  9
$USERR5
 40
0.0
  9
$WORLDVIEW
 70
     1
  9
$SHADEDGE
 70
     3
  9
$SHADEDIF
 70
    70
  9
$TILEMODE
 70
     1
  9
$MAXACTVP
 70
    64
  9
$PINSBASE
 10
0.0
 20
0.0
 30
0.0
  9
$PLIMCHECK
 70
     0
  9
$PEXTMIN
 10
1.0000000000E+20
 20
1.0000000000E+20
 30
1.0000000000E+20
  9
$PEXTMAX
 10
-1.0000000000E+20
 20
-1.0000000000E+20
 30
-1.0000000000E+20
  9
$PLIMMIN
 10
0.0
 20
0.0
  9
$PLIMMAX
 10
420.0
 20
297.0
  9
$UNITMODE
 70
     0
  9
$VISRETAIN
 70
     1
  9
$PLINEGEN
 70
     0
  9
$PSLTSCALE
 70
     1
  9
$TREEDEPTH
 70
  3020
  9
$CMLSTYLE
  2
Standard
  9
$CMLJUST
 70
     0
  9
$CMLSCALE
 40
20.0
  9
$PROXYGRAPHICS
 70
     1
  9
$MEASUREMENT
 70
     1
  9
$CELWEIGHT
370
    -1
  9
$ENDCAPS
280
     0
  9
$JOINSTYLE
280
     0
  9
$LWDISPLAY
290
     1
  9
$INSUNITS
 70
     4
  9
$HYPERLINKBASE
  1

  9
$STYLESHEET
  1

  9
$XEDIT
290
     1
  9
$CEPSNTYPE
380
     0
  9
$PSTYLEMODE
290
     1
  9
$FINGERPRINTGUID
  2
{D49B92E0-51CA-4F78-8680-85235227CF3A}
  9
$VERSIONGUID
  2
{FAEB1C32-E019-11D5-929B-00C0DF256EC4}
  9
$EXTNAMES
290
     1
  9
$PSVPSCALE
 40
0.0
  9
$OLESTARTUP
290
     0
  9
$SORTENTS
280
   127
  9
$INDEXCTL
280
     0
  9
$HIDETEXT
280
     1
  9
$XCLIPFRAME
290
     0
  9
$HALOGAP
280
     0
  9
$OBSCOLOR
 70
   257
  9
$OBSLTYPE
280
     0
  9
$INTERSECTIONDISPLAY
280
     0
  9
$INTERSECTIONCOLOR
 70
   257
  9
$DIMASSOC
280
     2
  9
$PROJECTNAME
  1

  9
$CAMERADISPLAY
290
     0
  9
$LENSLENGTH
 40
50.0
  9
$CAMERAHEIGHT
 40
0.0
  9
$STEPSPERSEC
 40
2.0
  9
$STEPSIZE
 40
6.0
  9
$3DDWFPREC
 40
2.0
  9
$PSOLWIDTH
 40
5.0
  9
$PSOLHEIGHT
 40
80.0
  9
$LOFTANG1
 40
1.5707963268
  9
$LOFTANG2
 40
1.5707963268
  9
$LOFTMAG1
 40
0.0
  9
$LOFTMAG2
 40
0.0
  9
$LOFTPARAM
 70
     7
  9
$LOFTNORMALS
280
     1
  9
$LATITUDE
 40
37.795
  9
$LONGITUDE
 40
-122.394
  9
$NORTHDIRECTION
 40
0.0
  9
$TIMEZONE
 70
 -8000
  9
$LIGHTGLYPHDISPLAY
280
     1
  9
$TILEMODELIGHTSYNCH
280
     1
  9
$SOLIDHIST
280
     1
  9
$SHOWHIST
280
     1
  9
$DWFFRAME
280
     2
  9
$DGNFRAME
280
     2
  9
$REALWORLDSCALE
290
     1
  9
$INTERFERECOLOR
 62
   256
  9
$CSHADOW
280
     0
  9
$SHADOWPLANELOCATION
 40
0.0
  0
ENDSEC
  0
SECTION
  2
CLASSES
  0
CLASS
  1
ACDBDICTIONARYWDFLT
  2
AcDbDictionaryWithDefault
  3
ObjectDBX Classes
 90
        0
 91
        4
280
     0
281
     0
  0
CLASS
  1
VISUALSTYLE
  2
AcDbVisualStyle
  3
ObjectDBX Classes
 90
     4095
 91
        4
280
     0
281
     0
  0
CLASS
  1
MATERIAL
  2
AcDbMaterial
  3
ObjectDBX Classes
 90
     1153
 91
        4
280
     0
281
     0
  0
ENDSEC
  0
SECTION
  2
TABLES
  0
TABLE
  2
VPORT
  5
8
330
0
100
AcDbSymbolTable
 70
     1
  0
VPORT
  5
29
330
8
100
AcDbSymbolTableRecord
100
AcDbViewportTableRecord
  2
*Active
 70
     0
 10
0.0
 20
0.0
 11
1.0
 21
1.0
 12
148.5
 22
105.0
 13
0.0
 23
0.0
 14
10.0
 24
10.0
 15
10.0
 25
10.0
 16
0.0
 26
0.0
 36
1.0
 17
0.0
 27
0.0
 37
0.0
 40
210.0
 41
1.4142857143
 42
50.0
 43
0.0
 44
0.0
 50
0.0
 51
0.0
 71
     0
 72
  2000
 73
     1
 74
     3
 75
     0
 76
     0
 77
     0
 78
     0
281
     0
 65
     1
110
0.0
120
0.0
130
0.0
111
1.0
121
0.0
131
0.0
112
0.0
122
1.0
132
0.0
 79
     0
146
0.0
 60
     3
 61
     5
292
     1
282
     1
141
0.0
142
0.0
 63
   250
  0
ENDTAB
  0
TABLE
  2
LTYPE
  5
5
330
0
100
AcDbSymbolTable
 70
     8
  0
LTYPE
  5
14
330
5
100
AcDbSymbolTableRecord
100
AcDbLinetypeTableRecord
  2
ByBlock
 70
     0
  3

 72
    65
 73
     0
 40
0.0
  0
LTYPE
  5
15
330
5
100
AcDbSymbolTableRecord
100
AcDbLinetypeTableRecord
  2
ByLayer
 70
     0
  3

 72
    65
 73
     0
 40
0.0
  0
LTYPE
  5
16
330
5
100
AcDbSymbolTableRecord
100
AcDbLinetypeTableRecord
  2
Continuous
 70
     0
  3
Solid line
 72
    65
 73
     0
 40
0.0
  0
LTYPE
  5
3F
330
5
100
AcDbSymbolTableRecord
100
AcDbLinetypeTableRecord
  2
SLD-Durchgehend
 70
     0
  3
SolidWorks Line Style
 72
    65
 73
     0
 40
0.0
  0
LTYPE
  5
40
330
5
100
AcDbSymbolTableRecord
100
AcDbLinetypeTableRecord
  2
SLD-Gestrichelt
 70
     0
  3
SolidWorks Line Style
 72
    65
 73
     2
 40
1.905
 49
1.27
 74
     0
 49
-0.635
 74
     0
  0
LTYPE
  5
41
330
5
100
AcDbSymbolTableRecord
100
AcDbLinetypeTableRecord
  2
SLD-Phantom
 70
     0
  3
SolidWorks Line Style
 72
    65
 73
     6
 40
12.7
 49
6.35
 74
     0
 49
-1.27
 74
     0
 49
1.27
 74
     0
 49
-1.27
 74
     0
 49
1.27
 74
     0
 49
-1.27
 74
     0
  0
LTYPE
  5
42
330
5
100
AcDbSymbolTableRecord
100
AcDbLinetypeTableRecord
  2
SLD-Kette
 70
     0
  3
SolidWorks Line Style
 72
    65
 73
     4
 40
10.16
 49
6.35
 74
     0
 49
-1.27
 74
     0
 49
1.27
 74
     0
 49
-1.27
 74
     0
  0
LTYPE
  5
43
330
5
100
AcDbSymbolTableRecord
100
AcDbLinetypeTableRecord
  2
SLD-Punktstrich
 70
     0
  3
SolidWorks Line Style
 72
    65
 73
     4
 40
19.05
 49
15.24
 74
     0
 49
-1.27
 74
     0
 49
1.27
 74
     0
 49
-1.27
 74
     0
  0
LTYPE
  5
44
330
5
100
AcDbSymbolTableRecord
100
AcDbLinetypeTableRecord
  2
SLD-Naht
 70
     0
  3
SolidWorks Line Style
 72
    65
 73
     2
 40
0.635
 49
0.0
 74
     0
 49
-0.635
 74
     0
  0
LTYPE
  5
45
330
5
100
AcDbSymbolTableRecord
100
AcDbLinetypeTableRecord
  2
SLD-Dicke-Dünne-Kette
 70
     0
  3
SolidWorks Line Style
 72
    65
 73
     4
 40
10.16
 49
6.35
 74
     0
 49
-1.27
 74
     0
 49
1.27
 74
     0
 49
-1.27
 74
     0
  0
ENDTAB
  0
TABLE
  2
LAYER
  5
2
330
0
100
AcDbSymbolTable
 70
     3
  0
LAYER
  5
10
330
2
100
AcDbSymbolTableRecord
100
AcDbLayerTableRecord
  2
0
 70
     0
 62
     7
  6
Continuous
370
    -3
390
F
347
3E
  0
LAYER
  5
46
330
2
100
AcDbSymbolTableRecord
100
AcDbLayerTableRecord
  2
1
 70
     0
 62
     4
  6
Continuous
370
    -1
390
F
347
3E
  0
LAYER
  5
47
330
2
100
AcDbSymbolTableRecord
100
AcDbLayerTableRecord
  2
2
 70
     0
 62
     7
  6
SLD-Durchgehend
370
    -3
390
F
347
3E
  0
ENDTAB
  0
TABLE
  2
STYLE
  5
3
330
0
100
AcDbSymbolTable
 70
     2
  0
STYLE
  5
11
330
3
100
AcDbSymbolTableRecord
100
AcDbTextStyleTableRecord
  2
Standard
 70
     0
 40
0.0
 41
1.0
 50
0.0
 71
     0
 42
3.5
  3
txt
  4

  0
STYLE
  5
7F
330
3
100
AcDbSymbolTableRecord
100
AcDbTextStyleTableRecord
  2
SLDTEXTSTYLE0
 70
     0
 40
0.0
 41
0.75
 50
0.0
 71
     0
 42
0.2
  3
TXT
  4

  0
ENDTAB
  0
TABLE
  2
VIEW
  5
6
330
0
100
AcDbSymbolTable
 70
     0
  0
ENDTAB
  0
TABLE
  2
UCS
  5
7
330
0
100
AcDbSymbolTable
 70
     0
  0
ENDTAB
  0
TABLE
  2
APPID
  5
9
330
0
100
AcDbSymbolTable
 70
     1
  0
APPID
  5
12
330
9
100
AcDbSymbolTableRecord
100
AcDbRegAppTableRecord
  2
ACAD
 70
     0
  0
ENDTAB
  0
TABLE
  2
DIMSTYLE
  5
A
330
0
100
AcDbSymbolTable
 70
     3
100
AcDbDimStyleTable
  0
DIMSTYLE
105
27
330
A
100
AcDbSymbolTableRecord
100
AcDbDimStyleTableRecord
  2
ISO-25
 70
     0
 41
2.5
 42
0.625
 43
3.75
 44
1.25
 73
     0
 74
     0
 77
     1
 78
     8
140
2.5
141
2.5
143
0.0393700787
147
0.625
171
     3
172
     1
178
     0
271
     2
272
     2
274
     3
278
    44
283
     0
284
     8
340
11
  0
DIMSTYLE
105
80
102
{ACAD_REACTORS
330
7E
102
}
330
A
100
AcDbSymbolTableRecord
100
AcDbDimStyleTableRecord
  2
SLDDIMSTYLE0
 70
     0
 41
3.302
 44
0.0
 45
0.000000001
 73
     0
 74
     0
 77
     1
 78
    12
 79
     3
140
3.5
147
0.875
173
     1
178
     0
271
     2
272
     2
276
     2
284
    12
340
7F
  0
DIMSTYLE
105
8D
102
{ACAD_REACTORS
330
8C
330
107
102
}
330
A
100
AcDbSymbolTableRecord
100
AcDbDimStyleTableRecord
  2
SLDDIMSTYLE1
 70
     0
 41
3.302
 44
0.0
 45
0.000000001
 73
     0
 74
     0
 77
     1
 78
    12
 79
     3
140
3.5
147
0.875
172
     1
173
     1
178
     0
271
     2
272
     2
276
     2
284
    12
289
     0
340
7F
  0
ENDTAB
  0
TABLE
  2
BLOCK_RECORD
  5
1
330
0
100
AcDbSymbolTable
 70
     4
  0
BLOCK_RECORD
  5
1F
330
1
100
AcDbSymbolTableRecord
100
AcDbBlockTableRecord
  2
*Model_Space
340
22
 70
     0
280
     1
281
     0
  0
BLOCK_RECORD
  5
1B
330
1
100
AcDbSymbolTableRecord
100
AcDbBlockTableRecord
  2
*Paper_Space
340
1E
 70
     0
280
     1
281
     0
  0
BLOCK_RECORD
  5
23
330
1
100
AcDbSymbolTableRecord
100
AcDbBlockTableRecord
  2
*Paper_Space0
340
26
 70
     0
280
     1
281
     0
  0
BLOCK_RECORD
  5
81
330
1
100
AcDbSymbolTableRecord
100
AcDbBlockTableRecord
  2
_D
340
0
 70
     0
280
     1
281
     0
  0
BLOCK_RECORD
  5
8E
330
1
100
AcDbSymbolTableRecord
100
AcDbBlockTableRecord
  2
_D_1
340
0
 70
     0
280
     1
281
     0
  0
BLOCK_RECORD
  5
108
330
1
100
AcDbSymbolTableRecord
100
AcDbBlockTableRecord
  2
_D_2
340
0
 70
     0
280
     1
281
     0
  0
ENDTAB
  0
ENDSEC
  0
SECTION
  2
BLOCKS
  0
BLOCK
  5
20
330
1F
100
AcDbEntity
  8
0
100
AcDbBlockBegin
  2
*Model_Space
 70
     0
 10
0.0
 20
0.0
 30
0.0
  3
*Model_Space
  1

  0
ENDBLK
  5
21
330
1F
100
AcDbEntity
  8
0
100
AcDbBlockEnd
  0
BLOCK
  5
1C
330
1B
100
AcDbEntity
 67
     1
  8
0
100
AcDbBlockBegin
  2
*Paper_Space
 70
     0
 10
0.0
 20
0.0
 30
0.0
  3
*Paper_Space
  1

  0
ENDBLK
  5
1D
330
1B
100
AcDbEntity
 67
     1
  8
0
100
AcDbBlockEnd
  0
BLOCK
  5
24
330
23
100
AcDbEntity
  8
0
100
AcDbBlockBegin
  2
*Paper_Space0
 70
     0
 10
0.0
 20
0.0
 30
0.0
  3
*Paper_Space0
  1

  0
ENDBLK
  5
25
330
23
100
AcDbEntity
  8
0
100
AcDbBlockEnd
  0
BLOCK
  5
82
330
81
100
AcDbEntity
  8
0
100
AcDbBlockBegin
  2
_D
 70
     0
 10
0.0
 20
0.0
 30
0.0
  3
_D
  1

  0
SOLID
  5
84
330
81
100
AcDbEntity
  8
2
 62
     7
420
 16777215
100
AcDbTrace
 10
136.6025816956
 20
79.881312661
 30
0.0
 11
139.9045816956
 21
79.373312661
 31
0.0
 12
139.9045816956
 22
80.389312661
 32
0.0
 13
139.9045816956
 23
80.389312661
 33
0.0
  0
SOLID
  5
85
330
81
100
AcDbEntity
  8
2
 62
     7
420
 16777215
100
AcDbTrace
 10
149.8025816956
 20
79.881312661
 30
0.0
 11
146.5005816956
 21
80.389312661
 31
0.0
 12
146.5005816956
 22
79.373312661
 32
0.0
 13
146.5005816956
 23
79.373312661
 33
0.0
  0
LINE
  5
86
330
81
100
AcDbEntity
  8
2
 62
     7
420
 16777215
100
AcDbLine
 10
136.6025816956
 20
96.8467952703
 30
0.0
 11
136.6025816956
 21
78.881312661
 31
0.0
  0
LINE
  5
87
330
81
100
AcDbEntity
  8
2
 62
     7
420
 16777215
100
AcDbLine
 10
149.8025816956
 20
96.8467952703
 30
0.0
 11
149.8025816956
 21
78.881312661
 31
0.0
  0
LINE
  5
88
330
81
100
AcDbEntity
  8
2
 62
     7
420
 16777215
100
AcDbLine
 10
136.6025816956
 20
79.881312661
 30
0.0
 11
111.9717127765
 21
79.881312661
 31
0.0
  0
LINE
  5
89
330
81
100
AcDbEntity
  8
2
 62
     7
420
 16777215
100
AcDbLine
 10
136.6025816956
 20
79.881312661
 30
0.0
 11
149.8025816956
 21
79.881312661
 31
0.0
  0
MTEXT
  5
8A
330
81
100
AcDbEntity
  8
2
 62
     7
420
 16777215
100
AcDbMText
 10
111.9717127765
 20
84.3930497502
 30
46.5161989144
 40
3.5
 41
0.0
 46
0.0
 71
     1
 72
     1
  1
%%c
  7
SLDTEXTSTYLE0
 73
     1
 44
1.0
  0
MTEXT
  5
8B
330
81
100
AcDbEntity
  8
2
 62
     7
420
 16777215
100
AcDbMText
 10
117.2501501748
 20
84.4465219268
 30
46.5161989144
 40
3.5
 41
0.0
 46
0.0
 71
     1
 72
     1
  1
13,20
  7
SLDTEXTSTYLE0
 73
     1
 44
1.0
  0
ENDBLK
  5
83
330
81
100
AcDbEntity
  8
0
100
AcDbBlockEnd
  0
BLOCK
  5
8F
330
8E
100
AcDbEntity
  8
0
100
AcDbBlockBegin
  2
_D_1
 70
     0
 10
0.0
 20
0.0
 30
0.0
  3
_D_1
  1

  0
SOLID
  5
91
330
8E
100
AcDbEntity
  8
2
 62
     7
420
 16777215
100
AcDbTrace
 10
133.2045618917
 20
110.4537387419
 30
0.0
 11
129.9025618917
 21
110.9617387419
 31
0.0
 12
129.9025618917
 22
109.9457387419
 32
0.0
 13
129.9025618917
 23
109.9457387419
 33
0.0
  0
SOLID
  5
92
330
8E
100
AcDbEntity
  8
2
 62
     7
420
 16777215
100
AcDbTrace
 10
143.2025816956
 20
110.4537387419
 30
0.0
 11
146.5045816956
 21
109.9457387419
 31
0.0
 12
146.5045816956
 22
110.9617387419
 32
0.0
 13
146.5045816956
 23
110.9617387419
 33
0.0
  0
LINE
  5
93
330
8E
100
AcDbEntity
  8
2
 62
     7
420
 16777215
100
AcDbLine
 10
133.2045618917
 20
105.4467952703
 30
0.0
 11
133.2045618917
 21
111.4537387419
 31
0.0
  0
LINE
  5
94
330
8E
100
AcDbEntity
  8
2
 62
     7
420
 16777215
100
AcDbLine
 10
143.2025816956
 20
98.8467952703
 30
0.0
 11
143.2025816956
 21
111.4537387419
 31
0.0
  0
LINE
  5
95
330
8E
100
AcDbEntity
  8
2
 62
     7
420
 16777215
100
AcDbLine
 10
133.2045618917
 20
110.4537387419
 30
0.0
 11
128.2045618917
 21
110.4537387419
 31
0.0
  0
LINE
  5
96
330
8E
100
AcDbEntity
  8
2
 62
     7
420
 16777215
100
AcDbLine
 10
133.2045618917
 20
110.4537387419
 30
0.0
 11
143.2025816956
 21
110.4537387419
 31
0.0
  0
LINE
  5
97
330
8E
100
AcDbEntity
  8
2
 62
     7
420
 16777215
100
AcDbLine
 10
143.2025816956
 20
110.4537387419
 30
0.0
 11
148.2025816956
 21
110.4537387419
 31
0.0
  0
MTEXT
  5
98
330
8E
100
AcDbEntity
  8
2
 62
     7
420
 16777215
100
AcDbMText
 10
134.1955855126
 20
114.9654756565
 30
46.5161989144
 40
3.5
 41
0.0
 46
0.0
 71
     1
 72
     1
  1
10
  7
SLDTEXTSTYLE0
 73
     1
 44
1.0
  0
ENDBLK
  5
90
330
8E
100
AcDbEntity
  8
0
100
AcDbBlockEnd
  0
BLOCK
  5
109
330
108
100
AcDbEntity
  8
0
100
AcDbBlockBegin
  2
_D_2
 70
     0
 10
0.0
 20
0.0
 30
0.0
  3
_D_2
  1

  0
SOLID
  5
10B
330
108
100
AcDbEntity
  8
2
 62
     7
420
 16777215
100
AcDbTrace
 10
85.5135757286
 20
79.881312661
 30
0.0
 11
82.2115757286
 21
80.389312661
 31
0.0
 12
82.2115757286
 22
79.373312661
 32
0.0
 13
82.2115757286
 23
79.373312661
 33
0.0
  0
SOLID
  5
10C
330
108
100
AcDbEntity
  8
2
 62
     7
420
 16777215
100
AcDbTrace
 10
87.4911577323
 20
79.881312661
 30
0.0
 11
90.7931577323
 21
79.373312661
 31
0.0
 12
90.7931577323
 22
80.389312661
 32
0.0
 13
90.7931577323
 23
80.389312661
 33
0.0
  0
LINE
  5
10D
330
108
100
AcDbEntity
  8
2
 62
     7
420
 16777215
100
AcDbLine
 10
85.5135757286
 20
84.9971651936
 30
0.0
 11
85.5135757286
 21
78.881312661
 31
0.0
  0
LINE
  5
10E
330
108
100
AcDbEntity
  8
2
 62
     7
420
 16777215
100
AcDbLine
 10
87.4911577323
 20
84.9971651936
 30
0.0
 11
87.4911577323
 21
78.881312661
 31
0.0
  0
LINE
  5
10F
330
108
100
AcDbEntity
  8
2
 62
     7
420
 16777215
100
AcDbLine
 10
85.5135757286
 20
79.881312661
 30
0.0
 11
68.7472560998
 21
79.881312661
 31
0.0
  0
LINE
  5
110
330
108
100
AcDbEntity
  8
2
 62
     7
420
 16777215
100
AcDbLine
 10
85.5135757286
 20
79.881312661
 30
0.0
 11
87.4911577323
 21
79.881312661
 31
0.0
  0
LINE
  5
111
330
108
100
AcDbEntity
  8
2
 62
     7
420
 16777215
100
AcDbLine
 10
87.4911577323
 20
79.881312661
 30
0.0
 11
92.4911577323
 21
79.881312661
 31
0.0
  0
MTEXT
  5
112
330
108
100
AcDbEntity
  8
2
 62
     7
420
 16777215
100
AcDbMText
 10
68.7472560998
 20
84.3930495755
 30
-4.755
 40
3.5
 41
0.0
 46
0.0
 71
     1
 72
     1
  1
1,98
  7
SLDTEXTSTYLE0
 73
     1
 44
1.0
  0
ENDBLK
  5
10A
330
108
100
AcDbEntity
  8
0
100
AcDbBlockEnd
  0
ENDSEC
  0
SECTION
  2
ENTITIES
  0
CIRCLE
  5
48
330
1F
100
AcDbEntity
  8
0
  6
SLD-Punktstrich
 62
     7
100
AcDbCircle
 10
143.2025816956
 20
97.8467952703
 30
0.0
 40
6.59999999999998
  0
CIRCLE
  5
49
330
1F
100
AcDbEntity
  8
0
  6
SLD-Punktstrich
 62
     7
100
AcDbCircle
 10
143.2025816956
 20
97.8467952703
 30
0.0
 40
11.97999999999997
  0
POINT
  5
4A
330
1F
100
AcDbEntity
  8
1
 62
     4
420
    65535
100
AcDbPoint
 10
143.2025816956
 20
97.8467952703
 30
0.0
  0
POINT
  5
4B
330
1F
100
AcDbEntity
  8
1
 62
     4
420
    65535
100
AcDbPoint
 10
143.2025816956
 20
97.8467952703
 30
0.0
  0
POINT
  5
4C
330
1F
100
AcDbEntity
  8
1
 62
     4
420
    65535
100
AcDbPoint
 10
143.2025816956
 20
97.8467952703
 30
0.0
  0
ELLIPSE
  5
4D
330
1F
100
AcDbEntity
  8
1
 62
     4
420
    65535
100
AcDbEllipse
 10
133.1625570645
 20
105.6094480392
 30
0.0
 11
-0.6265404528680847
 21
5.10276249929791
 31
0.0
210
0.0
220
0.0
230
1.0
 40
0.0194511532
 41
2.544145995947108
 42
2.618782995578
  0
LINE
  5
4E
330
1F
100
AcDbEntity
  8
1
 62
     4
420
    65535
100
AcDbLine
 10
133.6558445894
 20
101.1822289849
 30
0.0
 11
133.5917745019
 21
101.2932016316
 31
0.0
  0
LINE
  5
4F
330
1F
100
AcDbEntity
  8
1
 62
     4
420
    65535
100
AcDbLine
 10
133.5917745019
 20
101.2932016316
 30
0.0
 11
133.2045618917
 21
104.4467952703
 31
0.0
  0
SPLINE
  5
50
330
1F
100
AcDbEntity
  8
1
 62
     4
420
    65535
100
AcDbSpline
210
0.0
220
0.0
230
1.0
 70
     8
 71
     3
 72
    20
 73
    16
 74
     0
 42
0.00000001
 43
0.00000001
 12
1.0
 22
0.0
 32
0.0
 13
1.0
 23
0.0
 33
0.0
 40
0.0
 40
0.0
 40
0.0
 40
0.0
 40
0.0000313614559311
 40
0.0000313614559311
 40
0.0000313614559311
 40
0.0000626599385915
 40
0.0000626599385915
 40
0.0000626599385915
 40
0.0000949122019696
 40
0.0000949122019696
 40
0.0000949122019696
 40
0.0001296710245176
 40
0.0001296710245176
 40
0.0001296710245176
 40
0.0001644043320425
 40
0.0001644043320425
 40
0.0001644043320425
 40
0.0001644043320425
 10
133.2045618917045
 20
104.4467952703008
 30
0.0
 10
133.2045618917045
 20
104.4467952703008
 30
0.0
 10
133.2063329632157
 20
104.446266578023
 30
0.0
 10
133.2096921256638
 20
104.4452678656648
 30
0.0
 10
133.2130475704677
 20
104.444270258599
 30
0.0
 10
133.2180667990955
 20
104.4427805593738
 30
0.0
 10
133.224273182283
 20
104.4409500052341
 30
0.0
 10
133.2306720160612
 20
104.4390626883689
 30
0.0
 10
133.238484381143
 20
104.4367688376859
 30
0.0
 10
133.2470726909205
 20
104.4342673952651
 30
0.0
 10
133.2563228888809
 20
104.43157317042
 30
0.0
 10
133.2666999340073
 20
104.4285725588239
 30
0.0
 10
133.2774208449983
 20
104.4255023875769
 30
0.0
 10
133.2881412929709
 20
104.4224323489255
 30
0.0
 10
133.2994540838615
 20
104.4192216954516
 30
0.0
 10
133.3106142878667
 20
104.416085160173
 30
0.0
  0
LINE
  5
51
330
1F
100
AcDbEntity
  8
1
 62
     4
420
    65535
100
AcDbLine
 10
133.3106142879
 20
104.4160851602
 30
0.0
 11
133.6686155237
 21
101.500399074
 31
0.0
  0
SPLINE
  5
52
330
1F
100
AcDbEntity
  8
1
 62
     4
420
    65535
100
AcDbSpline
210
0.0
220
0.0
230
1.0
 70
     8
 71
     3
 72
     8
 73
     4
 74
     0
 42
0.00000001
 43
0.00000001
 12
1.0
 22
0.0
 32
0.0
 13
1.0
 23
0.0
 33
0.0
 40
0.0
 40
0.0
 40
0.0
 40
0.0
 40
1.0
 40
1.0
 40
1.0
 40
1.0
 10
133.6686155236834
 20
101.500399074039
 30
0.0
 10
133.6534113105818
 20
101.46072415
 30
0.0
 10
133.6387521275329
 20
101.4217265899981
 30
0.0
 10
133.6247308039102
 20
101.3837578115915
 30
0.0
  0
ELLIPSE
  5
53
330
1F
100
AcDbEntity
  8
1
 62
     4
420
    65535
100
AcDbEllipse
 10
154.9452485099
 20
102.660385271
 30
0.0
 11
4.732392180304601
 21
-2.008781300966547
 31
0.0
210
0.0
220
0.0
230
1.0
 40
0.0194511532
 41
2.544145995948222
 42
2.618782995577983
  0
LINE
  5
54
330
1F
100
AcDbEntity
  8
1
 62
     4
420
    65535
100
AcDbLine
 10
150.8645205783
 20
104.4467952703
 30
0.0
 11
150.9926607532
 21
104.4467952703
 31
0.0
  0
LINE
  5
55
330
1F
100
AcDbEntity
  8
1
 62
     4
420
    65535
100
AcDbLine
 10
150.9926607532
 20
104.4467952703
 30
0.0
 11
153.9173592626
 21
103.2053344081
 31
0.0
  0
SPLINE
  5
56
330
1F
100
AcDbEntity
  8
1
 62
     4
420
    65535
100
AcDbSpline
210
0.0
220
0.0
230
1.0
 70
     8
 71
     3
 72
    20
 73
    16
 74
     0
 42
0.00000001
 43
0.00000001
 12
1.0
 22
0.0
 32
0.0
 13
1.0
 23
0.0
 33
0.0
 40
0.0
 40
0.0
 40
0.0
 40
0.0
 40
0.0000313614559311
 40
0.0000313614559311
 40
0.0000313614559311
 40
0.0000626599385915
 40
0.0000626599385915
 40
0.0000626599385915
 40
0.0000949122019696
 40
0.0000949122019696
 40
0.0000949122019696
 40
0.0001296710245176
 40
0.0001296710245176
 40
0.0001296710245176
 40
0.0001644043320425
 40
0.0001644043320425
 40
0.0001644043320425
 40
0.0001644043320425
 10
153.9173592625935
 20
103.2053344080538
 30
0.0
 10
153.9173592625935
 20
103.2053344080538
 30
0.0
 10
153.9160158658947
 20
103.2040649612722
 30
0.0
 10
153.9134713743972
 20
103.2016551974358
 30
0.0
 10
153.9109296989334
 20
103.1992481005274
 30
0.0
 10
153.9071299672464
 20
103.195646170641
 30
0.0
 10
153.9024414692646
 20
103.1911865622048
 30
0.0
 10
153.8976075880253
 20
103.186588668031
 30
0.0
 10
153.8917148725205
 20
103.180969886748
 30
0.0
 10
153.8852544049492
 20
103.1747829135155
 30
0.0
 10
153.8782960388097
 20
103.1681191195143
 30
0.0
 10
153.8705089103773
 20
103.1606326406166
 30
0.0
 10
153.8624896085879
 20
103.1528831449702
 30
0.0
 10
153.854470653139
 20
103.1451339840117
 30
0.0
 10
153.8460337502225
 20
103.1369421464497
 30
0.0
 10
153.8377373289888
 20
103.128845393909
 30
0.0
  0
LINE
  5
57
330
1F
100
AcDbEntity
  8
1
 62
     4
420
    65535
100
AcDbLine
 10
153.837737329
 20
103.1288453939
 30
0.0
 11
151.133678491
 21
104.2766502722
 31
0.0
  0
SPLINE
  5
58
330
1F
100
AcDbEntity
  8
1
 62
     4
420
    65535
100
AcDbSpline
210
0.0
220
0.0
230
1.0
 70
     8
 71
     3
 72
     8
 73
     4
 74
     0
 42
0.00000001
 43
0.00000001
 12
1.0
 22
0.0
 32
0.0
 13
1.0
 23
0.0
 33
0.0
 40
0.0
 40
0.0
 40
0.0
 40
0.0
 40
1.0
 40
1.0
 40
1.0
 40
1.0
 10
151.1336784910276
 20
104.2766502721726
 30
0.0
 10
151.1069211054674
 20
104.3096549689825
 30
0.0
 10
151.0804778193445
 20
104.3418489739027
 30
0.0
 10
151.0546065545051
 20
104.3729761855579
 30
0.0
  0
ELLIPSE
  5
59
330
1F
100
AcDbEntity
  8
1
 62
     4
420
    65535
100
AcDbEllipse
 10
141.4999395125
 20
85.2705525007
 30
0.0
 11
-4.105851727436488
 21
-3.093981198331336
 31
0.0
210
0.0
220
0.0
230
1.0
 40
0.0194511532
 41
2.54414599594738
 42
2.618782995577909
  0
LINE
  5
5A
330
1F
100
AcDbEntity
  8
1
 62
     4
420
    65535
100
AcDbLine
 10
145.0873799193
 20
87.9113615557
 30
0.0
 11
145.0233098319
 21
87.800388909
 31
0.0
  0
LINE
  5
5B
330
1F
100
AcDbEntity
  8
1
 62
     4
420
    65535
100
AcDbLine
 10
145.0233098319
 20
87.800388909
 30
0.0
 11
142.4858239326
 21
85.8882561325
 31
0.0
  0
SPLINE
  5
5C
330
1F
100
AcDbEntity
  8
1
 62
     4
420
    65535
100
AcDbSpline
210
0.0
220
0.0
230
1.0
 70
     8
 71
     3
 72
    20
 73
    16
 74
     0
 42
0.00000001
 43
0.00000001
 12
1.0
 22
0.0
 32
0.0
 13
1.0
 23
0.0
 33
0.0
 40
0.0
 40
0.0
 40
0.0
 40
0.0
 40
0.0000313614559311
 40
0.0000313614559311
 40
0.0000313614559311
 40
0.0000626599385915
 40
0.0000626599385915
 40
0.0000626599385915
 40
0.0000949122019696
 40
0.0000949122019696
 40
0.0000949122019696
 40
0.0001296710245176
 40
0.0001296710245176
 40
0.0001296710245176
 40
0.0001644043320425
 40
0.0001644043320425
 40
0.0001644043320425
 40
0.0001644043320425
 10
142.4858239326391
 20
85.88825613254781
 30
0.0
 10
142.4858239326391
 20
85.88825613254781
 30
0.0
 10
142.4853962578268
 20
85.89005427160724
 30
0.0
 10
142.4845815868761
 20
85.8934627478019
 30
0.0
 10
142.483767817536
 20
85.89686745177593
 30
0.0
 10
142.4825483205952
 20
85.90195908088765
 30
0.0
 10
142.4810304353894
 20
85.90824924346354
 30
0.0
 10
142.4794654828506
 20
85.91473445450262
 30
0.0
 10
142.4775458332736
 20
85.92264708646857
 30
0.0
 10
142.4754179910674
 20
85.93133550212184
 30
0.0
 10
142.4731261592465
 20
85.94069352096814
 30
0.0
 10
142.4705362425525
 20
85.95118061146191
 30
0.0
 10
142.4678346333509
 20
85.96200027835529
 30
0.0
 10
142.4651331408272
 20
85.97281947796519
 30
0.0
 10
142.4622572528531
 20
85.98422196900107
 30
0.0
 10
142.4593934700816
 20
85.99545525682036
 30
0.0
  0
LINE
  5
5D
330
1F
100
AcDbEntity
  8
1
 62
     4
420
    65535
100
AcDbLine
 10
142.4593934701
 20
85.9954552568
 30
0.0
 11
144.8054510722
 21
87.7633364647
 31
0.0
  0
SPLINE
  5
5E
330
1F
100
AcDbEntity
  8
1
 62
     4
420
    65535
100
AcDbSpline
210
0.0
220
0.0
230
1.0
 70
     8
 71
     3
 72
     8
 73
     4
 74
     0
 42
0.00000001
 43
0.00000001
 12
1.0
 22
0.0
 32
0.0
 13
1.0
 23
0.0
 33
0.0
 40
0.0
 40
0.0
 40
0.0
 40
0.0
 40
1.0
 40
1.0
 40
1.0
 40
1.0
 10
144.8054510722261
 20
87.76333646469084
 30
0.0
 10
144.8474126708879
 20
87.7700066919198
 30
0.0
 10
144.8885151400596
 20
87.77681024700165
 30
0.0
 10
144.9284077285218
 20
87.78365181375305
 30
0.0
  0
ARC
  5
5F
330
1F
100
AcDbEntity
  8
1
 62
     4
420
    65535
100
AcDbCircle
 10
143.2025816956
 20
97.8467952703
 30
0.0
 40
10.21006031925435
100
AcDbArc
 50
21.8408219695
 51
39.0321825913
  0
ARC
  5
60
330
1F
100
AcDbEntity
  8
1
 62
     4
420
    65535
100
AcDbCircle
 10
158.7268342819
 20
98.1191816342
 30
0.0
 40
7.000000000000004
100
AcDbArc
 50
134.3021724837
 51
149.7534389968
  0
ARC
  5
61
330
1F
100
AcDbEntity
  8
1
 62
     4
420
    65535
100
AcDbCircle
 10
143.2025816956
 20
97.8467952703
 30
0.0
 40
10.21006031925437
100
AcDbArc
 50
261.8408219695
 51
279.0321825913
  0
ARC
  5
62
330
1F
100
AcDbEntity
  8
1
 62
     4
420
    65535
100
AcDbCircle
 10
135.6763489133
 20
84.2662049739
 30
0.0
 40
6.999999999999983
100
AcDbArc
 50
14.3021724837
 51
29.7534389968
  0
ARC
  5
63
330
1F
100
AcDbEntity
  8
1
 62
     4
420
    65535
100
AcDbCircle
 10
143.2025816956
 20
97.8467952703
 30
0.0
 40
10.21006031925434
100
AcDbArc
 50
141.8408219695
 51
159.0321825913
  0
ARC
  5
64
330
1F
100
AcDbEntity
  8
1
 62
     4
420
    65535
100
AcDbCircle
 10
135.2045618917
 20
111.1549992028
 30
0.0
 40
6.99999999999999
100
AcDbArc
 50
254.3021724837
 51
269.7534389968
  0
LINE
  5
65
330
1F
100
AcDbEntity
  8
1
 62
     4
420
    65535
100
AcDbLine
 10
147.6151264476
 20
104.4467952703
 30
0.0
 11
150.2719382404
 21
104.4467952703
 31
0.0
  0
LINE
  5
66
330
1F
100
AcDbEntity
  8
1
 62
     4
420
    65535
100
AcDbLine
 10
150.7352131344
 20
102.7173029785
 30
0.0
 11
150.2719382404
 21
104.4467952703
 31
0.0
  0
LINE
  5
67
330
1F
100
AcDbEntity
  8
1
 62
     4
420
    65535
100
AcDbLine
 10
135.2805416547
 20
98.3681711208
 30
0.0
 11
140.4858239326
 21
89.3523577477
 31
0.0
  0
LINE
  5
68
330
1F
100
AcDbEntity
  8
1
 62
     4
420
    65535
100
AcDbLine
 10
135.2182825716
 20
101.9349915996
 30
0.0
 11
133.9521357583
 21
100.6690376265
 31
0.0
  0
LINE
  5
69
330
1F
100
AcDbEntity
  8
1
 62
     4
420
    65535
100
AcDbLine
 10
133.6558445894
 20
101.1822289849
 30
0.0
 11
133.9521357583
 21
100.6690376265
 31
0.0
  0
LINE
  5
6A
330
1F
100
AcDbEntity
  8
1
 62
     4
420
    65535
100
AcDbLine
 10
143.6542493809
 20
88.8880912329
 30
0.0
 11
145.3836710882
 21
88.4245529141
 31
0.0
  0
LINE
  5
6B
330
1F
100
AcDbEntity
  8
1
 62
     4
420
    65535
100
AcDbLine
 10
135.2805416547
 20
98.3681711208
 30
0.0
 11
135.2182825716
 21
101.9349915996
 31
0.0
  0
LINE
  5
6C
330
1F
100
AcDbEntity
  8
1
 62
     4
420
    65535
100
AcDbLine
 10
150.8645205783
 20
104.4467952703
 30
0.0
 11
150.2719382404
 21
104.4467952703
 31
0.0
  0
LINE
  5
6D
330
1F
100
AcDbEntity
  8
1
 62
     4
420
    65535
100
AcDbLine
 10
147.6151264476
 20
104.4467952703
 30
0.0
 11
137.2045618917
 21
104.4467952703
 31
0.0
  0
CIRCLE
  5
6E
330
1F
100
AcDbEntity
  8
1
 62
     4
420
    65535
100
AcDbCircle
 10
143.2025816956
 20
97.8467952703
 30
0.0
 40
2.549999999999983
  0
LINE
  5
6F
330
1F
100
AcDbEntity
  8
1
 62
     4
420
    65535
100
AcDbLine
 10
146.7120769846
 20
90.7254194198
 30
0.0
 11
143.6542493809
 21
88.8880912329
 31
0.0
  0
LINE
  5
70
330
1F
100
AcDbEntity
  8
1
 62
     4
420
    65535
100
AcDbLine
 10
145.0873799193
 20
87.9113615557
 30
0.0
 11
145.3836710882
 21
88.4245529141
 31
0.0
  0
LINE
  5
71
330
1F
100
AcDbEntity
  8
1
 62
     4
420
    65535
100
AcDbLine
 10
146.7120769846
 20
90.7254194198
 30
0.0
 11
151.9173592626
 21
99.7412327929
 31
0.0
  0
LINE
  5
72
330
1F
100
AcDbEntity
  8
1
 62
     4
420
    65535
100
AcDbLine
 10
147.6151264476
 20
104.4467952703
 30
0.0
 11
150.7352131344
 21
102.7173029785
 31
0.0
  0
ARC
  5
73
330
1F
100
AcDbEntity
  8
1
 62
     4
420
    65535
100
AcDbCircle
 10
135.6763489133
 20
84.2662049739
 30
0.0
 40
7.000000000000046
100
AcDbArc
 50
29.7534389968
 51
46.601549599
  0
ARC
  5
74
330
1F
100
AcDbEntity
  8
1
 62
     4
420
    65535
100
AcDbCircle
 10
135.2045618917
 20
111.1549992028
 30
0.0
 40
6.99999999999999
100
AcDbArc
 50
269.7534389968
 51
286.601549599
  0
ARC
  5
75
330
1F
100
AcDbEntity
  8
1
 62
     4
420
    65535
100
AcDbCircle
 10
158.7268342819
 20
98.1191816342
 30
0.0
 40
7.00000000000006
100
AcDbArc
 50
149.7534389968
 51
166.601549599
  0
LINE
  5
76
330
1F
100
AcDbEntity
  8
1
 62
     4
420
    65535
100
AcDbLine
 10
135.2805416547
 20
98.3681711208
 30
0.0
 11
133.9521357583
 21
100.6690376265
 31
0.0
  0
LINE
  5
77
330
1F
100
AcDbEntity
  8
1
 62
     4
420
    65535
100
AcDbLine
 10
146.7120769846
 20
90.7254194198
 30
0.0
 11
145.3836710882
 21
88.4245529141
 31
0.0
  0
LINE
  5
78
330
1F
100
AcDbEntity
  8
1
  6
SLD-Gestrichelt
 62
   131
420
  8454143
370
     0
100
AcDbLine
 10
133.6686155237
 20
101.500399074
 30
0.0
 11
133.3106142879
 21
104.4160851602
 31
0.0
  0
LINE
  5
79
330
1F
100
AcDbEntity
  8
1
  6
SLD-Gestrichelt
 62
   131
420
  8454143
370
     0
100
AcDbLine
 10
144.8054510722
 20
87.7633364647
 30
0.0
 11
142.4593934701
 21
85.9954552568
 31
0.0
  0
LINE
  5
7A
330
1F
100
AcDbEntity
  8
1
  6
SLD-Gestrichelt
 62
   131
420
  8454143
370
     0
100
AcDbLine
 10
151.133678491
 20
104.2766502722
 30
0.0
 11
153.837737329
 21
103.1288453939
 31
0.0
  0
LINE
  5
7B
330
1F
100
AcDbEntity
  8
1
  6
SLD-Gestrichelt
 62
   131
420
  8454143
370
     0
100
AcDbLine
 10
151.0546065545
 20
104.3729761856
 30
0.0
 11
151.133678491
 21
104.2766502722
 31
0.0
  0
LINE
  5
7C
330
1F
100
AcDbEntity
  8
1
  6
SLD-Gestrichelt
 62
   131
420
  8454143
370
     0
100
AcDbLine
 10
144.9284077285
 20
87.7836518138
 30
0.0
 11
144.8054510722
 21
87.7633364647
 31
0.0
  0
LINE
  5
7D
330
1F
100
AcDbEntity
  8
1
  6
SLD-Gestrichelt
 62
   131
420
  8454143
370
     0
100
AcDbLine
 10
133.6247308039
 20
101.3837578116
 30
0.0
 11
133.6686155237
 21
101.500399074
 31
0.0
  0
DIMENSION
  5
7E
330
1F
100
AcDbEntity
  8
2
 62
     7
420
 16777215
100
AcDbDimension
  2
_D
 10
149.8025816956
 20
79.881312661
 30
0.0
 11
121.8515570396
 21
79.881312661
 31
0.0
 70
   160
  1
%%c<>
 71
     2
 42
-1.0
 73
     0
 74
     0
 75
     0
  3
SLDDIMSTYLE0
100
AcDbAlignedDimension
 13
136.6025816956
 23
97.8467952703
 33
0.0
 14
149.8025816956
 24
97.8467952703
 34
0.0
100
AcDbRotatedDimension
  0
DIMENSION
  5
8C
330
1F
100
AcDbEntity
  8
2
 62
     7
420
 16777215
100
AcDbDimension
  2
_D_1
 10
143.2025816956
 20
110.4537387419
 30
0.0
 11
138.2035717937
 21
110.4537387419
 31
0.0
 70
   160
  1
<>
 71
     2
 42
-1.0
 73
     0
 74
     0
 75
     0
  3
SLDDIMSTYLE1
100
AcDbAlignedDimension
 13
133.2045618917
 23
104.4467952703
 33
0.0
 14
143.2025816956
 24
97.8467952703
 34
0.0
100
AcDbRotatedDimension
  0
LINE
  5
99
330
1F
100
AcDbEntity
  8
1
 62
     4
420
    65535
100
AcDbLine
 10
87.3604345717
 20
103.1334850428
 30
0.0
 11
87.3030263802
 21
104.2864718831
 31
0.0
  0
LINE
  5
9A
330
1F
100
AcDbEntity
  8
1
 62
     4
420
    65535
100
AcDbLine
 10
86.8527070807
 20
104.2864718831
 30
0.0
 11
86.7952986061
 21
103.1334793566
 31
0.0
  0
LINE
  5
9B
330
1F
100
AcDbEntity
  8
1
 62
     4
420
    65535
100
AcDbLine
 10
87.2613165229
 20
103.2053344081
 30
0.0
 11
87.1995031348
 21
104.4467952703
 31
0.0
  0
LINE
  5
9C
330
1F
100
AcDbEntity
  8
1
 62
     4
420
    65535
100
AcDbLine
 10
87.1995031348
 20
104.4467952703
 30
0.0
 11
87.2838667304
 21
104.4467952703
 31
0.0
  0
LINE
  5
9D
330
1F
100
AcDbEntity
  8
1
 62
     4
420
    65535
100
AcDbLine
 10
87.2838667304
 20
104.4467952703
 30
0.0
 11
87.2838667304
 21
104.3729761856
 31
0.0
  0
LINE
  5
9E
330
1F
100
AcDbEntity
  8
1
 62
     4
420
    65535
100
AcDbLine
 10
87.2838667304
 20
104.3729761856
 30
0.0
 11
87.3014359221
 21
104.2860210295
 31
0.0
  0
SPLINE
  5
9F
330
1F
100
AcDbEntity
  8
1
 62
     4
420
    65535
100
AcDbSpline
210
0.0
220
0.0
230
1.0
 70
     8
 71
     3
 72
    20
 73
    16
 74
     0
 42
0.00000001
 43
0.00000001
 12
1.0
 22
0.0
 32
0.0
 13
1.0
 23
0.0
 33
0.0
 40
0.0
 40
0.0
 40
0.0
 40
0.0
 40
0.0000388510653299
 40
0.0000388510653299
 40
0.0000388510653299
 40
0.0000778003081509
 40
0.0000778003081509
 40
0.0000778003081509
 40
0.0001150311530365
 40
0.0001150311530365
 40
0.0001150311530365
 40
0.0001490902510116
 40
0.0001490902510116
 40
0.0001490902510116
 40
0.0001643626226385
 40
0.0001643626226385
 40
0.0001643626226385
 40
0.0001643626226385
 10
87.36047945035288
 20
103.128845393909
 30
0.0
 10
87.36075817398361
 20
103.1378883761376
 30
0.0
 10
87.35885081735658
 20
103.1470636314877
 30
0.0
 10
87.35485728333995
 20
103.1556193558968
 30
0.0
 10
87.35085819437076
 20
103.1641869812045
 30
0.0
 10
87.34463606658586
 20
103.1723843697989
 30
0.0
 10
87.33660613780442
 20
103.1794206150695
 30
0.0
 10
87.32893410097418
 20
103.1861432566186
 30
0.0
 10
87.31935573634209
 20
103.1920081709834
 30
0.0
 10
87.3086869309586
 20
103.1963456697506
 30
0.0
 10
87.29891439876522
 20
103.2003187805927
 30
0.0
 10
87.28792314595297
 20
103.2031255548794
 30
0.0
 10
87.27673524056137
 20
103.2044368873363
 30
0.0
 10
87.27165068611154
 20
103.2050328470844
 30
0.0
 10
87.26647450432773
 20
103.2053344080539
 30
0.0
 10
87.2613165228876
 20
103.2053344080539
 30
0.0
  0
LINE
  5
A0
330
1F
100
AcDbEntity
  8
1
 62
     4
420
    65535
100
AcDbLine
 10
86.8718667304
 20
104.3729761856
 30
0.0
 11
86.8718667304
 21
104.4467952703
 31
0.0
  0
LINE
  5
A1
330
1F
100
AcDbEntity
  8
1
 62
     4
420
    65535
100
AcDbLine
 10
86.8718667304
 20
104.4467952703
 30
0.0
 11
86.956230326
 21
104.4467952703
 31
0.0
  0
LINE
  5
A2
330
1F
100
AcDbEntity
  8
1
 62
     4
420
    65535
100
AcDbLine
 10
86.956230326
 20
104.4467952703
 30
0.0
 11
86.894416938
 21
103.2053344081
 31
0.0
  0
SPLINE
  5
A3
330
1F
100
AcDbEntity
  8
1
 62
     4
420
    65535
100
AcDbSpline
210
0.0
220
0.0
230
1.0
 70
     8
 71
     3
 72
    20
 73
    16
 74
     0
 42
0.00000001
 43
0.00000001
 12
1.0
 22
0.0
 32
0.0
 13
1.0
 23
0.0
 33
0.0
 40
0.0
 40
0.0
 40
0.0
 40
0.0
 40
0.0000313614559311
 40
0.0000313614559311
 40
0.0000313614559311
 40
0.0000626599385915
 40
0.0000626599385915
 40
0.0000626599385915
 40
0.0000949122019696
 40
0.0000949122019696
 40
0.0000949122019696
 40
0.0001296710245176
 40
0.0001296710245176
 40
0.0001296710245176
 40
0.0001644043320425
 40
0.0001644043320425
 40
0.0001644043320425
 40
0.0001644043320425
 10
86.89441693798221
 20
103.2053344080538
 30
0.0
 10
86.88396311933852
 20
103.2053344080538
 30
0.0
 10
86.87336457009793
 20
103.2040649612722
 30
0.0
 10
86.86351566531073
 20
103.2016551974358
 30
0.0
 10
86.8536776604799
 20
103.1992481005274
 30
0.0
 10
86.84432321431873
 20
103.195646170641
 30
0.0
 10
86.8361274563909
 20
103.1911865622048
 30
0.0
 10
86.82767756035946
 20
103.186588668031
 30
0.0
 10
86.82023930474482
 20
103.180969886748
 30
0.0
 10
86.81424835301794
 20
103.1747829135155
 30
0.0
 10
86.80779568760636
 20
103.1681191195143
 30
0.0
 10
86.80285484192261
 20
103.1606326406166
 30
0.0
 10
86.79967710424073
 20
103.1528831449702
 30
0.0
 10
86.79649950380008
 20
103.1451339840117
 30
0.0
 10
86.79500445166474
 20
103.1369421464497
 30
0.0
 10
86.79525401051693
 20
103.128845393909
 30
0.0
  0
LINE
  5
A4
330
1F
100
AcDbEntity
  8
1
 62
     4
420
    65535
100
AcDbLine
 10
86.8542975388
 20
104.2860210295
 30
0.0
 11
86.8718667304
 21
104.3729761856
 31
0.0
  0
LINE
  5
A5
330
1F
100
AcDbEntity
  8
1
 62
     4
420
    65535
100
AcDbLine
 10
86.956230326
 20
104.4467952703
 30
0.0
 11
87.1995031348
 21
104.4467952703
 31
0.0
  0
LINE
  5
A6
330
1F
100
AcDbEntity
  8
1
 62
     4
420
    65535
100
AcDbLine
 10
86.894416938
 20
103.2053344081
 30
0.0
 11
87.2613165229
 21
103.2053344081
 31
0.0
  0
LINE
  5
A7
330
1F
100
AcDbEntity
  8
1
 62
     4
420
    65535
100
AcDbLine
 10
87.2838667304
 20
101.6452365244
 30
0.0
 11
87.3233894361
 21
101.6452365244
 31
0.0
  0
LINE
  5
A8
330
1F
100
AcDbEntity
  8
1
 62
     4
420
    65535
100
AcDbLine
 10
87.2838667304
 20
99.7412327929
 30
0.0
 11
87.2838667304
 21
101.6452365244
 31
0.0
  0
LINE
  5
A9
330
1F
100
AcDbEntity
  8
1
 62
     4
420
    65535
100
AcDbLine
 10
86.8718667304
 20
99.7412327929
 30
0.0
 11
87.2838667304
 21
99.7412327929
 31
0.0
  0
LINE
  5
AA
330
1F
100
AcDbEntity
  8
1
 62
     4
420
    65535
100
AcDbLine
 10
86.8718667304
 20
99.7412327929
 30
0.0
 11
86.8718667304
 21
101.6452365244
 31
0.0
  0
LINE
  5
AB
330
1F
100
AcDbEntity
  8
1
 62
     4
420
    65535
100
AcDbLine
 10
86.8323440247
 20
101.6452365244
 30
0.0
 11
86.8718667304
 21
101.6452365244
 31
0.0
  0
ELLIPSE
  5
AC
330
1F
100
AcDbEntity
  8
1
 62
     4
420
    65535
100
AcDbEllipse
 10
86.7106668887
 20
98.1191816342
 30
0.0
 11
-0.04473911348273418
 21
6.999999918706535
 31
0.0
210
0.0
220
0.0
230
1.0
 40
0.0238453913
 41
5.240138654200083
 42
5.509814128457773
  0
ELLIPSE
  5
AD
330
1F
100
AcDbEntity
  8
1
 62
     4
420
    65535
100
AcDbEllipse
 10
87.4450665722
 20
98.1191816342
 30
0.0
 11
0.04473911348270576
 21
6.999999918706535
 31
0.0
210
0.0
220
0.0
230
1.0
 40
0.0238453913
 41
0.7733711787220352
 42
1.043046652979653
  0
ELLIPSE
  5
AE
330
1F
100
AcDbEntity
  8
1
 62
     4
420
    65535
100
AcDbEllipse
 10
86.9608135977
 20
88.0220311946
 30
0.0
 11
0.005754078501269077
 21
0.2216270914513103
 31
0.0
210
0.0
220
0.0
230
1.0
 40
0.4510206763
 41
2.105315247208463
 42
3.153301915991694
  0
LINE
  5
AF
330
1F
100
AcDbEntity
  8
1
 62
     4
420
    65535
100
AcDbLine
 10
86.9352220336
 20
90.7254194198
 30
0.0
 11
86.8718667304
 21
88.4245529141
 31
0.0
  0
LINE
  5
B0
330
1F
100
AcDbEntity
  8
1
 62
     4
420
    65535
100
AcDbLine
 10
86.8718667304
 20
90.7254194198
 30
0.0
 11
86.9352220336
 21
90.7254194198
 31
0.0
  0
LINE
  5
B1
330
1F
100
AcDbEntity
  8
1
 62
     4
420
    65535
100
AcDbLine
 10
87.2205114273
 20
90.7254194198
 30
0.0
 11
87.2838667304
 21
90.7254194198
 31
0.0
  0
LINE
  5
B2
330
1F
100
AcDbEntity
  8
1
 62
     4
420
    65535
100
AcDbLine
 10
87.2838667304
 20
88.4245529141
 30
0.0
 11
87.2205114273
 21
90.7254194198
 31
0.0
  0
ELLIPSE
  5
B3
330
1F
100
AcDbEntity
  8
1
 62
     4
420
    65535
100
AcDbEllipse
 10
87.1949198632
 20
88.0220311946
 30
0.0
 11
-0.005754078501269077
 21
0.2216270914513103
 31
0.0
210
0.0
220
0.0
230
1.0
 40
0.4510206763
 41
3.129883391188067
 42
4.177870059971146
  0
LINE
  5
B4
330
1F
100
AcDbEntity
  8
1
 62
     4
420
    65535
100
AcDbLine
 10
86.956230326
 20
87.800388909
 30
0.0
 11
87.1995031348
 21
87.800388909
 31
0.0
  0
LINE
  5
B5
330
1F
100
AcDbEntity
  8
1
 62
     4
420
    65535
100
AcDbLine
 10
86.8718667304
 20
90.7254194198
 30
0.0
 11
86.8718667304
 21
99.7412327929
 31
0.0
  0
LINE
  5
B6
330
1F
100
AcDbEntity
  8
1
 62
     4
420
    65535
100
AcDbLine
 10
86.8718667304
 20
87.9113615557
 30
0.0
 11
86.8718667304
 21
88.4245529141
 31
0.0
  0
LINE
  5
B7
330
1F
100
AcDbEntity
  8
1
 62
     4
420
    65535
100
AcDbLine
 10
87.2838667304
 20
90.7254194198
 30
0.0
 11
87.2838667304
 21
99.7412327929
 31
0.0
  0
LINE
  5
B8
330
1F
100
AcDbEntity
  8
1
 62
     4
420
    65535
100
AcDbLine
 10
87.2838667304
 20
87.9113615557
 30
0.0
 11
87.2838667304
 21
88.4245529141
 31
0.0
  0
LINE
  5
B9
330
1F
100
AcDbEntity
  8
1
 62
     4
420
    65535
100
AcDbLine
 10
86.9352220336
 20
90.7254194198
 30
0.0
 11
86.8718667304
 21
88.8880912329
 31
0.0
  0
LINE
  5
BA
330
1F
100
AcDbEntity
  8
1
 62
     4
420
    65535
100
AcDbLine
 10
86.8718667304
 20
88.8880912329
 30
0.0
 11
86.8718667304
 21
88.4245529141
 31
0.0
  0
LINE
  5
BB
330
1F
100
AcDbEntity
  8
1
 62
     4
420
    65535
100
AcDbLine
 10
86.8718667304
 20
90.7254194198
 30
0.0
 11
86.8718667304
 21
88.8880912329
 31
0.0
  0
LINE
  5
BC
330
1F
100
AcDbEntity
  8
1
 62
     4
420
    65535
100
AcDbLine
 10
87.2205114273
 20
90.7254194198
 30
0.0
 11
87.2838667304
 21
88.8880912329
 31
0.0
  0
LINE
  5
BD
330
1F
100
AcDbEntity
  8
1
 62
     4
420
    65535
100
AcDbLine
 10
87.2838667304
 20
88.8880912329
 30
0.0
 11
87.2838667304
 21
88.4245529141
 31
0.0
  0
LINE
  5
BE
330
1F
100
AcDbEntity
  8
1
 62
     4
420
    65535
100
AcDbLine
 10
87.2838667304
 20
90.7254194198
 30
0.0
 11
87.2838667304
 21
88.8880912329
 31
0.0
  0
LINE
  5
BF
330
1F
100
AcDbEntity
  8
1
 62
     4
420
    65535
100
AcDbLine
 10
86.956230326
 20
87.800388909
 30
0.0
 11
86.894416938
 21
85.8882561325
 31
0.0
  0
SPLINE
  5
C0
330
1F
100
AcDbEntity
  8
1
 62
     4
420
    65535
100
AcDbSpline
210
0.0
220
0.0
230
1.0
 70
     8
 71
     3
 72
    20
 73
    16
 74
     0
 42
0.00000001
 43
0.00000001
 12
1.0
 22
0.0
 32
0.0
 13
1.0
 23
0.0
 33
0.0
 40
0.0
 40
0.0
 40
0.0
 40
0.0
 40
0.0000313614559311
 40
0.0000313614559311
 40
0.0000313614559311
 40
0.0000626599385915
 40
0.0000626599385915
 40
0.0000626599385915
 40
0.0000949122019696
 40
0.0000949122019696
 40
0.0000949122019696
 40
0.0001296710245176
 40
0.0001296710245176
 40
0.0001296710245176
 40
0.0001644043320425
 40
0.0001644043320425
 40
0.0001644043320425
 40
0.0001644043320425
 10
86.89441693798221
 20
85.88825613254781
 30
0.0
 10
86.88396311933852
 20
85.88825613254781
 30
0.0
 10
86.87336457009793
 20
85.89005427160724
 30
0.0
 10
86.86351566531073
 20
85.8934627478019
 30
0.0
 10
86.8536776604799
 20
85.89686745177593
 30
0.0
 10
86.84432321431873
 20
85.90195908088765
 30
0.0
 10
86.8361274563909
 20
85.90824924346354
 30
0.0
 10
86.82767756035946
 20
85.91473445450262
 30
0.0
 10
86.82023930474482
 20
85.92264708646857
 30
0.0
 10
86.81424835301794
 20
85.93133550212184
 30
0.0
 10
86.80779568760636
 20
85.94069352096814
 30
0.0
 10
86.80285484192261
 20
85.95118061146192
 30
0.0
 10
86.79967710424073
 20
85.96200027835529
 30
0.0
 10
86.79649950380008
 20
85.97281947796519
 30
0.0
 10
86.79500445166474
 20
85.98422196900108
 30
0.0
 10
86.79525401051693
 20
85.99545525682036
 30
0.0
  0
LINE
  5
C1
330
1F
100
AcDbEntity
  8
1
 62
     4
420
    65535
100
AcDbLine
 10
86.7952540105
 20
85.9954552568
 30
0.0
 11
86.8524041878
 21
87.7633364647
 31
0.0
  0
SPLINE
  5
C2
330
1F
100
AcDbEntity
  8
1
 62
     4
420
    65535
100
AcDbSpline
210
0.0
220
0.0
230
1.0
 70
     8
 71
     3
 72
     8
 73
     4
 74
     0
 42
0.00000001
 43
0.00000001
 12
1.0
 22
0.0
 32
0.0
 13
1.0
 23
0.0
 33
0.0
 40
0.0
 40
0.0
 40
0.0
 40
0.0
 40
1.0
 40
1.0
 40
1.0
 40
1.0
 10
86.85240418778201
 20
87.76333646469084
 30
0.0
 10
86.85283143112177
 20
87.7700066919198
 30
0.0
 10
86.85854714521226
 20
87.77681024700166
 30
0.0
 10
86.87186673043473
 20
87.78365181375305
 30
0.0
  0
LINE
  5
C3
330
1F
100
AcDbEntity
  8
1
 62
     4
420
    65535
100
AcDbLine
 10
86.8718667304
 20
87.7836518138
 30
0.0
 11
86.8718667304
 21
87.9113615557
 31
0.0
  0
LINE
  5
C4
330
1F
100
AcDbEntity
  8
1
 62
     4
420
    65535
100
AcDbLine
 10
87.2613165229
 20
85.8882561325
 30
0.0
 11
87.1995031348
 21
87.800388909
 31
0.0
  0
SPLINE
  5
C5
330
1F
100
AcDbEntity
  8
1
 62
     4
420
    65535
100
AcDbSpline
210
0.0
220
0.0
230
1.0
 70
     8
 71
     3
 72
     8
 73
     4
 74
     0
 42
0.00000001
 43
0.00000001
 12
1.0
 22
0.0
 32
0.0
 13
1.0
 23
0.0
 33
0.0
 40
0.0
 40
0.0
 40
0.0
 40
0.0
 40
1.0
 40
1.0
 40
1.0
 40
1.0
 10
87.28386673043491
 20
87.78365181375305
 30
0.0
 10
87.29718631565741
 20
87.77681024700166
 30
0.0
 10
87.30290202974804
 20
87.7700066919198
 30
0.0
 10
87.30332927308777
 20
87.76333646469084
 30
0.0
  0
LINE
  5
C6
330
1F
100
AcDbEntity
  8
1
 62
     4
420
    65535
100
AcDbLine
 10
87.3033292731
 20
87.7633364647
 30
0.0
 11
87.3604794504
 21
85.9954552568
 31
0.0
  0
SPLINE
  5
C7
330
1F
100
AcDbEntity
  8
1
 62
     4
420
    65535
100
AcDbSpline
210
0.0
220
0.0
230
1.0
 70
     8
 71
     3
 72
    20
 73
    16
 74
     0
 42
0.00000001
 43
0.00000001
 12
1.0
 22
0.0
 32
0.0
 13
1.0
 23
0.0
 33
0.0
 40
0.0
 40
0.0
 40
0.0
 40
0.0
 40
0.0000388510653299
 40
0.0000388510653299
 40
0.0000388510653299
 40
0.0000778003081509
 40
0.0000778003081509
 40
0.0000778003081509
 40
0.0001150311530365
 40
0.0001150311530365
 40
0.0001150311530365
 40
0.0001490902510116
 40
0.0001490902510116
 40
0.0001490902510116
 40
0.0001643626226385
 40
0.0001643626226385
 40
0.0001643626226385
 40
0.0001643626226385
 10
87.36047945035288
 20
85.99545525682036
 30
0.0
 10
87.36075817398361
 20
85.9829091870711
 30
0.0
 10
87.35885081735658
 20
85.97013260629332
 30
0.0
 10
87.35485728333995
 20
85.95817866289292
 30
0.0
 10
87.35085819437076
 20
85.94620809171664
 30
0.0
 10
87.34463606658586
 20
85.93471199075123
 30
0.0
 10
87.33660613780442
 20
85.9248187159003
 30
0.0
 10
87.32893410097418
 20
85.9153663818767
 30
0.0
 10
87.31935573634209
 20
85.90709382162945
 30
0.0
 10
87.3086869309586
 20
85.9009674203673
 30
0.0
 10
87.29891439876522
 20
85.89535569052387
 30
0.0
 10
87.28792314595297
 20
85.8913829256282
 30
0.0
 10
87.27673524056137
 20
85.88952672988306
 30
0.0
 10
87.27165068611154
 20
85.88868314674525
 30
0.0
 10
87.26647450432773
 20
85.88825613254781
 30
0.0
 10
87.2613165228876
 20
85.88825613254781
 30
0.0
  0
LINE
  5
C8
330
1F
100
AcDbEntity
  8
1
 62
     4
420
    65535
100
AcDbLine
 10
87.2838667304
 20
87.9113615557
 30
0.0
 11
87.2838667304
 21
87.7836518138
 31
0.0
  0
LINE
  5
C9
330
1F
100
AcDbEntity
  8
1
 62
     4
420
    65535
100
AcDbLine
 10
86.894416938
 20
85.8882561325
 30
0.0
 11
87.2613165229
 21
85.8882561325
 31
0.0
  0
LINE
  5
CA
330
1F
100
AcDbEntity
  8
1
 62
     4
420
    65535
100
AcDbLine
 10
87.3048668154
 20
87.7400852694
 30
0.0
 11
87.3233894361
 21
87.7400852694
 31
0.0
  0
ELLIPSE
  5
CB
330
1F
100
AcDbEntity
  8
1
 62
     4
420
    65535
100
AcDbEllipse
 10
87.0731296684
 20
97.8467952703
 30
0.0
 11
-0.2434728232859271
 21
10.21006020080645
 31
0.0
210
0.0
220
0.0
230
1.0
 40
0.0063876677
 41
2.983799006076221
 42
3.283844851827108
  0
LINE
  5
CC
330
1F
100
AcDbEntity
  8
1
 62
     4
420
    65535
100
AcDbLine
 10
86.8323440247
 20
87.7400852694
 30
0.0
 11
86.8508666455
 21
87.7400852694
 31
0.0
  0
ELLIPSE
  5
CD
330
1F
100
AcDbEntity
  8
1
 62
     4
420
    65535
100
AcDbEllipse
 10
87.0826037925
 20
97.8467952703
 30
0.0
 11
0.2434728232859271
 21
10.21006020080645
 31
0.0
210
0.0
220
0.0
230
1.0
 40
0.0063876677
 41
2.999340455354446
 42
3.29938630110499
  0
ELLIPSE
  5
CE
330
1F
100
AcDbEntity
  8
1
 62
     4
420
    65535
100
AcDbEllipse
 10
87.4450665722
 20
84.2662049739
 30
0.0
 11
-0.1669245537940043
 21
6.999999918792327
 31
0.0
210
0.0
220
0.0
230
1.0
 40
0.0063876677
 41
1.051348529855286
 42
1.321024004112752
  0
ELLIPSE
  5
CF
330
1F
100
AcDbEntity
  8
1
 62
     4
420
    65535
100
AcDbEllipse
 10
86.7106668887
 20
84.2662049739
 30
0.0
 11
0.1669245537940043
 21
6.999999918792327
 31
0.0
210
0.0
220
0.0
230
1.0
 40
0.0063876677
 41
4.962161303066885
 42
5.23183677732484
  0
SPLINE
  5
D0
330
1F
100
AcDbEntity
  8
1
 62
     4
420
    65535
100
AcDbSpline
210
0.0
220
0.0
230
1.0
 70
     8
 71
     3
 72
    11
 73
     7
 74
     0
 42
0.00000001
 43
0.00000001
 12
1.0
 22
0.0
 32
0.0
 13
1.0
 23
0.0
 33
0.0
 40
0.0
 40
0.0
 40
0.0
 40
0.0
 40
0.2748061999427784
 40
0.5499946516452942
 40
0.8129180217248289
 40
1.0
 40
1.0
 40
1.0
 40
1.0
 10
87.36047945035288
 20
104.416085160173
 30
0.0
 10
87.35951518591588
 20
104.4196394412096
 30
0.0
 10
87.3575853157629
 20
104.4267529472403
 30
0.0
 10
87.33857385116798
 20
104.4363185278369
 30
0.0
 10
87.31295230315494
 20
104.4432215791586
 30
0.0
 10
87.29240776752081
 20
104.4449542687956
 30
0.0
 10
87.28386673043485
 20
104.4456746046898
 30
0.0
  0
ELLIPSE
  5
D1
330
1F
100
AcDbEntity
  8
1
 62
     4
420
    65535
100
AcDbEllipse
 10
87.4450665722
 20
111.1549992028
 30
0.0
 11
0.1222412941348665
 21
6.999999674997994
 31
0.0
210
0.0
220
0.0
230
1.0
 40
0.0174497451
 41
3.146200680540166
 42
3.415876154797763
  0
LINE
  5
D2
330
1F
100
AcDbEntity
  8
1
 62
     4
420
    65535
100
AcDbLine
 10
87.3095692891
 20
104.1550640171
 30
0.0
 11
87.3233894361
 21
104.1550640171
 31
0.0
  0
LINE
  5
D3
330
1F
100
AcDbEntity
  8
1
 62
     4
420
    65535
100
AcDbLine
 10
86.8323440247
 20
104.1550640171
 30
0.0
 11
86.8461641717
 21
104.1550640171
 31
0.0
  0
ELLIPSE
  5
D4
330
1F
100
AcDbEntity
  8
1
 62
     4
420
    65535
100
AcDbEllipse
 10
86.7106668887
 20
111.1549992028
 30
0.0
 11
-0.1222412941348665
 21
6.999999674997994
 31
0.0
210
0.0
220
0.0
230
1.0
 40
0.0174497451
 41
2.867309152382565
 42
3.136984626640093
  0
SPLINE
  5
D5
330
1F
100
AcDbEntity
  8
1
 62
     4
420
    65535
100
AcDbSpline
210
0.0
220
0.0
230
1.0
 70
     8
 71
     3
 72
    12
 73
     8
 74
     0
 42
0.00000001
 43
0.00000001
 12
1.0
 22
0.0
 32
0.0
 13
1.0
 23
0.0
 33
0.0
 40
0.0
 40
0.0
 40
0.0
 40
0.0
 40
0.0598237004542472
 40
0.280943107716793
 40
0.5089190946055748
 40
0.7544648496601555
 40
1.0
 40
1.0
 40
1.0
 40
1.0
 10
86.87186673043486
 20
104.445680646579
 30
0.0
 10
86.86905895356523
 20
104.4455677760221
 30
0.0
 10
86.85587311662208
 20
104.445037715113
 30
0.0
 10
86.83487444296257
 20
104.441114440224
 30
0.0
 10
86.81240223439316
 20
104.4343730219479
 30
0.0
 10
86.79751084998756
 20
104.4255855898664
 30
0.0
 10
86.79600627951025
 20
104.4192519244798
 30
0.0
 10
86.79525401051693
 20
104.416085160173
 30
0.0
  0
LINE
  5
D6
330
1F
100
AcDbEntity
  8
1
 62
     4
420
    65535
100
AcDbLine
 10
87.3033292731
 20
101.500399074
 30
0.0
 11
87.3061682227
 21
101.6452365244
 31
0.0
  0
LINE
  5
D7
330
1F
100
AcDbEntity
  8
1
 62
     4
420
    65535
100
AcDbLine
 10
87.342427894
 20
103.4951313833
 30
0.0
 11
87.3604794504
 21
104.4160851602
 31
0.0
  0
ELLIPSE
  5
D8
330
1F
100
AcDbEntity
  8
1
 62
     4
420
    65535
100
AcDbEllipse
 10
87.0731296684
 20
97.8467952703
 30
0.0
 11
0.1782987123743709
 21
10.2100598452129
 31
0.0
210
0.0
220
0.0
230
1.0
 40
0.0174497451
 41
5.07865115676069
 42
5.093887960730537
  0
ELLIPSE
  5
D9
330
1F
100
AcDbEntity
  8
1
 62
     4
420
    65535
100
AcDbEllipse
 10
87.0731296684
 20
97.8467952703
 30
0.0
 11
0.1782987123743709
 21
10.2100598452129
 31
0.0
210
0.0
220
0.0
230
1.0
 40
0.0174497451
 41
5.347186569070766
 42
5.378697002509546
  0
SPLINE
  5
DA
330
1F
100
AcDbEntity
  8
1
 62
     4
420
    65535
100
AcDbSpline
210
0.0
220
0.0
230
1.0
 70
     8
 71
     3
 72
     8
 73
     4
 74
     0
 42
0.00000001
 43
0.00000001
 12
1.0
 22
0.0
 32
0.0
 13
1.0
 23
0.0
 33
0.0
 40
0.0
 40
0.0
 40
0.0
 40
0.0
 40
1.0
 40
1.0
 40
1.0
 40
1.0
 10
87.28386673043491
 20
101.3837578115915
 30
0.0
 10
87.29718631565741
 20
101.4217265899981
 30
0.0
 10
87.30290202974804
 20
101.46072415
 30
0.0
 10
87.30332927308777
 20
101.500399074039
 30
0.0
  0
ELLIPSE
  5
DB
330
1F
100
AcDbEntity
  8
1
 62
     4
420
    65535
100
AcDbEllipse
 10
87.0826037925
 20
97.8467952703
 30
0.0
 11
-0.1782987123743851
 21
10.2100598452129
 31
0.0
210
0.0
220
0.0
230
1.0
 40
0.0174497451
 41
0.9044883046703724
 42
0.9359987381088187
  0
ELLIPSE
  5
DC
330
1F
100
AcDbEntity
  8
1
 62
     4
420
    65535
100
AcDbEllipse
 10
87.0826037925
 20
97.8467952703
 30
0.0
 11
-0.1782987123743851
 21
10.2100598452129
 31
0.0
210
0.0
220
0.0
230
1.0
 40
0.0174497451
 41
1.189297346449182
 42
1.204534150419046
  0
LINE
  5
DD
330
1F
100
AcDbEntity
  8
1
 62
     4
420
    65535
100
AcDbLine
 10
86.7952540105
 20
104.4160851602
 30
0.0
 11
86.8133055668
 21
103.4951313833
 31
0.0
  0
LINE
  5
DE
330
1F
100
AcDbEntity
  8
1
 62
     4
420
    65535
100
AcDbLine
 10
86.8495652381
 20
101.6452365244
 30
0.0
 11
86.8524041878
 21
101.500399074
 31
0.0
  0
SPLINE
  5
DF
330
1F
100
AcDbEntity
  8
1
 62
     4
420
    65535
100
AcDbSpline
210
0.0
220
0.0
230
1.0
 70
     8
 71
     3
 72
     8
 73
     4
 74
     0
 42
0.00000001
 43
0.00000001
 12
1.0
 22
0.0
 32
0.0
 13
1.0
 23
0.0
 33
0.0
 40
0.0
 40
0.0
 40
0.0
 40
0.0
 40
1.0
 40
1.0
 40
1.0
 40
1.0
 10
86.85240418778201
 20
101.500399074039
 30
0.0
 10
86.85283143112177
 20
101.46072415
 30
0.0
 10
86.85854714521226
 20
101.4217265899981
 30
0.0
 10
86.87186673043473
 20
101.3837578115915
 30
0.0
  0
LINE
  5
E0
330
1F
100
AcDbEntity
  8
1
  6
SLD-Gestrichelt
 62
   131
420
  8454143
370
     0
100
AcDbLine
 10
87.3014359221
 20
104.2860210295
 30
0.0
 11
87.3033292731
 21
104.2766502722
 31
0.0
  0
LINE
  5
E1
330
1F
100
AcDbEntity
  8
1
  6
SLD-Gestrichelt
 62
   131
420
  8454143
370
     0
100
AcDbLine
 10
87.3033292731
 20
104.2766502722
 30
0.0
 11
87.3604794504
 21
103.1288453939
 31
0.0
  0
LINE
  5
E2
330
1F
100
AcDbEntity
  8
1
  6
SLD-Gestrichelt
 62
   131
420
  8454143
370
     0
100
AcDbLine
 10
86.7952540105
 20
103.1288453939
 30
0.0
 11
86.8524041878
 21
104.2766502722
 31
0.0
  0
LINE
  5
E3
330
1F
100
AcDbEntity
  8
1
  6
SLD-Gestrichelt
 62
   131
420
  8454143
370
     0
100
AcDbLine
 10
86.8524041878
 20
104.2766502722
 30
0.0
 11
86.8542975388
 21
104.2860210295
 31
0.0
  0
LINE
  5
E4
330
1F
100
AcDbEntity
  8
1
  6
SLD-Gestrichelt
 62
   131
420
  8454143
370
     0
100
AcDbLine
 10
86.8718667304
 20
104.3729761856
 30
0.0
 11
86.8718667304
 21
101.6452365244
 31
0.0
  0
ELLIPSE
  5
E5
330
1F
100
AcDbEntity
  8
1
  6
SLD-Gestrichelt
 62
   131
420
  8454143
370
     0
100
AcDbEllipse
 10
87.0826037925
 20
97.8467952703
 30
0.0
 11
-0.06525557818407887
 21
10.21006020068131
 31
0.0
210
0.0
220
0.0
230
1.0
 40
0.0238453913
 41
0.8894038232415229
 42
1.189449668990149
  0
LINE
  5
E6
330
1F
100
AcDbEntity
  8
1
  6
SLD-Gestrichelt
 62
   131
420
  8454143
370
     0
100
AcDbLine
 10
87.2838667304
 20
104.3729761856
 30
0.0
 11
87.2838667304
 21
101.6452365244
 31
0.0
  0
ELLIPSE
  5
E7
330
1F
100
AcDbEntity
  8
1
  6
SLD-Gestrichelt
 62
   131
420
  8454143
370
     0
100
AcDbEllipse
 10
87.0731296684
 20
97.8467952703
 30
0.0
 11
0.06525557818407887
 21
10.21006020068131
 31
0.0
210
0.0
220
0.0
230
1.0
 40
0.0238453913
 41
5.093735638189539
 42
5.393781483938378
  0
LINE
  5
E8
330
1F
100
AcDbEntity
  8
1
  6
SLD-Gestrichelt
 62
   131
420
  8454143
370
     0
100
AcDbLine
 10
86.9352220336
 20
104.4467952703
 30
0.0
 11
86.8718667304
 21
102.7173029785
 31
0.0
  0
LINE
  5
E9
330
1F
100
AcDbEntity
  8
1
  6
SLD-Gestrichelt
 62
   131
420
  8454143
370
     0
100
AcDbLine
 10
87.2205114273
 20
104.4467952703
 30
0.0
 11
87.2838667304
 21
102.7173029785
 31
0.0
  0
LINE
  5
EA
330
1F
100
AcDbEntity
  8
1
  6
SLD-Gestrichelt
 62
   131
420
  8454143
370
     0
100
AcDbLine
 10
87.2838667304
 20
87.7400852694
 30
0.0
 11
87.3048668154
 21
87.7400852694
 31
0.0
  0
LINE
  5
EB
330
1F
100
AcDbEntity
  8
1
  6
SLD-Gestrichelt
 62
   131
420
  8454143
370
     0
100
AcDbLine
 10
87.2838667304
 20
87.7836518138
 30
0.0
 11
87.2838667304
 21
87.636734951
 31
0.0
  0
LINE
  5
EC
330
1F
100
AcDbEntity
  8
1
  6
SLD-Gestrichelt
 62
   131
420
  8454143
370
     0
100
AcDbLine
 10
86.8508666455
 20
87.7400852694
 30
0.0
 11
86.8718667304
 21
87.7400852694
 31
0.0
  0
LINE
  5
ED
330
1F
100
AcDbEntity
  8
1
  6
SLD-Gestrichelt
 62
   131
420
  8454143
370
     0
100
AcDbLine
 10
86.8718667304
 20
87.7836518138
 30
0.0
 11
86.8718667304
 21
87.636734951
 31
0.0
  0
LINE
  5
EE
330
1F
100
AcDbEntity
  8
1
  6
SLD-Gestrichelt
 62
   131
420
  8454143
370
     0
100
AcDbLine
 10
86.8718667304
 20
89.3523577477
 30
0.0
 11
87.2838667304
 21
89.3523577477
 31
0.0
  0
SPLINE
  5
EF
330
1F
100
AcDbEntity
  8
1
  6
SLD-Gestrichelt
 62
   131
420
  8454143
370
     0
100
AcDbSpline
210
0.0
220
0.0
230
1.0
 70
     8
 71
     3
 72
     9
 73
     5
 74
     0
 42
0.00000001
 43
0.00000001
 12
1.0
 22
0.0
 32
0.0
 13
1.0
 23
0.0
 33
0.0
 40
0.0
 40
0.0
 40
0.0
 40
0.0
 40
0.3293604640200335
 40
1.0
 40
1.0
 40
1.0
 40
1.0
 10
87.28386673043485
 20
104.4456746046898
 30
0.0
 10
87.28151376735468
 20
104.445954780987
 30
0.0
 10
87.27436973114749
 20
104.4468054486527
 30
0.0
 10
87.26655643092397
 20
104.4467993561643
 30
0.0
 10
87.2613165228876
 20
104.4467952703008
 30
0.0
  0
LINE
  5
F0
330
1F
100
AcDbEntity
  8
1
  6
SLD-Gestrichelt
 62
   131
420
  8454143
370
     0
100
AcDbLine
 10
87.2838667304
 20
104.1550640171
 30
0.0
 11
87.3095692891
 21
104.1550640171
 31
0.0
  0
LINE
  5
F1
330
1F
100
AcDbEntity
  8
1
  6
SLD-Gestrichelt
 62
   131
420
  8454143
370
     0
100
AcDbLine
 10
86.8461641717
 20
104.1550640171
 30
0.0
 11
86.8718667304
 21
104.1550640171
 31
0.0
  0
LINE
  5
F2
330
1F
100
AcDbEntity
  8
1
  6
SLD-Gestrichelt
 62
   131
420
  8454143
370
     0
100
AcDbLine
 10
86.894416938
 20
104.4467952703
 30
0.0
 11
86.8718667304
 21
104.4456806466
 31
0.0
  0
LINE
  5
F3
330
1F
100
AcDbEntity
  8
1
  6
SLD-Gestrichelt
 62
   131
420
  8454143
370
     0
100
AcDbLine
 10
87.2205114273
 20
98.3681711208
 30
0.0
 11
87.2838667304
 21
98.3681711208
 31
0.0
  0
LINE
  5
F4
330
1F
100
AcDbEntity
  8
1
  6
SLD-Gestrichelt
 62
   131
420
  8454143
370
     0
100
AcDbLine
 10
87.2205114273
 20
98.3681711208
 30
0.0
 11
87.2838667304
 21
101.9349915996
 31
0.0
  0
LINE
  5
F5
330
1F
100
AcDbEntity
  8
1
  6
SLD-Gestrichelt
 62
   131
420
  8454143
370
     0
100
AcDbLine
 10
87.2838667304
 20
100.6690376265
 30
0.0
 11
87.2205114273
 21
98.3681711208
 31
0.0
  0
LINE
  5
F6
330
1F
100
AcDbEntity
  8
1
  6
SLD-Gestrichelt
 62
   131
420
  8454143
370
     0
100
AcDbLine
 10
86.8718667304
 20
98.3681711208
 30
0.0
 11
86.9352220336
 21
98.3681711208
 31
0.0
  0
LINE
  5
F7
330
1F
100
AcDbEntity
  8
1
  6
SLD-Gestrichelt
 62
   131
420
  8454143
370
     0
100
AcDbLine
 10
86.9352220336
 20
98.3681711208
 30
0.0
 11
86.8718667304
 21
101.9349915996
 31
0.0
  0
LINE
  5
F8
330
1F
100
AcDbEntity
  8
1
  6
SLD-Gestrichelt
 62
   131
420
  8454143
370
     0
100
AcDbLine
 10
86.9352220336
 20
98.3681711208
 30
0.0
 11
86.8718667304
 21
100.6690376265
 31
0.0
  0
LINE
  5
F9
330
1F
100
AcDbEntity
  8
1
  6
SLD-Gestrichelt
 62
   131
420
  8454143
370
     0
100
AcDbLine
 10
87.3061682227
 20
101.6452365244
 30
0.0
 11
87.342427894
 21
103.4951313833
 31
0.0
  0
ELLIPSE
  5
FA
330
1F
100
AcDbEntity
  8
1
  6
SLD-Gestrichelt
 62
   131
420
  8454143
370
     0
100
AcDbEllipse
 10
87.0731296684
 20
97.8467952703
 30
0.0
 11
0.1782987123743709
 21
10.2100598452129
 31
0.0
210
0.0
220
0.0
230
1.0
 40
0.0174497451
 41
5.093887960730537
 42
5.347186569070766
  0
ELLIPSE
  5
FB
330
1F
100
AcDbEntity
  8
1
  6
SLD-Gestrichelt
 62
   131
420
  8454143
370
     0
100
AcDbEllipse
 10
87.0826037925
 20
97.8467952703
 30
0.0
 11
-0.1782987123743851
 21
10.2100598452129
 31
0.0
210
0.0
220
0.0
230
1.0
 40
0.0174497451
 41
0.9359987381088187
 42
1.189297346449182
  0
LINE
  5
FC
330
1F
100
AcDbEntity
  8
1
  6
SLD-Gestrichelt
 62
   131
420
  8454143
370
     0
100
AcDbLine
 10
86.8133055668
 20
103.4951313833
 30
0.0
 11
86.8495652381
 21
101.6452365244
 31
0.0
  0
LINE
  5
FD
330
1F
100
AcDbEntity
  8
1
  6
SLD-Gestrichelt
 62
   131
420
  8454143
370
     0
100
AcDbLine
 10
87.2613165229
 20
104.4467952703
 30
0.0
 11
87.1995031348
 21
101.2932016316
 31
0.0
  0
ELLIPSE
  5
FE
330
1F
100
AcDbEntity
  8
1
  6
SLD-Gestrichelt
 62
   131
420
  8454143
370
     0
100
AcDbEllipse
 10
87.1949198632
 20
101.071559346
 30
0.0
 11
0.005754078501269078
 21
0.2216270914512961
 31
0.0
210
0.0
220
0.0
230
1.0
 40
0.4510206763
 41
5.246907900798167
 42
6.294894569581189
  0
LINE
  5
FF
330
1F
100
AcDbEntity
  8
1
  6
SLD-Gestrichelt
 62
   131
420
  8454143
370
     0
100
AcDbLine
 10
86.956230326
 20
101.2932016316
 30
0.0
 11
86.894416938
 21
104.4467952703
 31
0.0
  0
ELLIPSE
  5
100
330
1F
100
AcDbEntity
  8
1
  6
SLD-Gestrichelt
 62
   131
420
  8454143
370
     0
100
AcDbEllipse
 10
86.9608135977
 20
101.071559346
 30
0.0
 11
-0.005754078501254867
 21
0.2216270914512961
 31
0.0
210
0.0
220
0.0
230
1.0
 40
0.4510206763
 41
6.271476044777871
 42
7.319462713560877
  0
LINE
  5
101
330
1F
100
AcDbEntity
  8
1
  6
SLD-Gestrichelt
 62
   131
420
  8454143
370
     0
100
AcDbLine
 10
86.956230326
 20
101.2932016316
 30
0.0
 11
87.1995031348
 21
101.2932016316
 31
0.0
  0
LINE
  5
102
330
1F
100
AcDbEntity
  8
1
  6
SLD-Gestrichelt
 62
   131
420
  8454143
370
     0
100
AcDbLine
 10
87.2838667304
 20
100.3967952703
 30
0.0
 11
86.8718667304
 21
100.3967952703
 31
0.0
  0
LINE
  5
103
330
1F
100
AcDbEntity
  8
1
  6
SLD-Gestrichelt
 62
   131
420
  8454143
370
     0
100
AcDbLine
 10
86.8718667304
 20
95.2967952703
 30
0.0
 11
87.2838667304
 21
95.2967952703
 31
0.0
  0
LINE
  5
104
330
1F
100
AcDbEntity
  8
1
  6
SLD-Gestrichelt
 62
   131
420
  8454143
370
     0
100
AcDbLine
 10
87.2838667304
 20
87.636734951
 30
0.0
 11
87.3165925546
 21
87.636734951
 31
0.0
  0
LINE
  5
105
330
1F
100
AcDbEntity
  8
1
  6
SLD-Gestrichelt
 62
   131
420
  8454143
370
     0
100
AcDbLine
 10
86.8391409063
 20
87.636734951
 30
0.0
 11
86.8718667304
 21
87.636734951
 31
0.0
  0
LINE
  5
106
330
1F
100
AcDbEntity
  8
1
  6
SLD-Gestrichelt
 62
   131
420
  8454143
370
     0
100
AcDbLine
 10
86.8718667304
 20
104.1549992028
 30
0.0
 11
87.2838667304
 21
104.1549992028
 31
0.0
  0
DIMENSION
  5
107
330
1F
100
AcDbEntity
  8
2
 62
     7
420
 16777215
100
AcDbDimension
  2
_D_2
 10
87.4911577323
 20
79.881312661
 30
0.0
 11
74.694825485
 21
79.881312661
 31
0.0
 70
   160
  1
<>
 71
     2
 42
-1.0
 73
     0
 74
     0
 75
     0
  3
SLDDIMSTYLE1
100
AcDbAlignedDimension
 13
85.5135757286
 23
85.9971651936
 33
0.0
 14
87.4911577323
 24
85.9971651936
 34
0.0
100
AcDbRotatedDimension
  0
ENDSEC
  0
SECTION
  2
OBJECTS
  0
DICTIONARY
  5
C
330
0
100
AcDbDictionary
281
     1
  3
ACAD_GROUP
350
D
  3
ACAD_LAYOUT
350
1A
  3
ACAD_MATERIAL
350
3B
  3
ACAD_MLEADERSTYLE
350
114
  3
ACAD_MLINESTYLE
350
17
  3
ACAD_PLOTSETTINGS
350
19
  3
ACAD_PLOTSTYLENAME
350
E
  3
ACAD_TABLESTYLE
350
113
  3
ACAD_VISUALSTYLE
350
2A
  0
DICTIONARY
  5
D
102
{ACAD_REACTORS
330
C
102
}
330
C
100
AcDbDictionary
281
     1
  0
DICTIONARY
  5
1A
102
{ACAD_REACTORS
330
C
102
}
330
C
100
AcDbDictionary
281
     1
  3
Layout1
350
1E
  3
Layout2
350
26
  3
Model
350
22
  0
DICTIONARY
  5
3B
102
{ACAD_REACTORS
330
C
102
}
330
C
100
AcDbDictionary
281
     1
  3
ByBlock
350
3D
  3
ByLayer
350
3C
  3
Global
350
3E
  0
DICTIONARY
  5
114
102
{ACAD_REACTORS
330
C
102
}
330
C
100
AcDbDictionary
281
     1
  0
DICTIONARY
  5
17
102
{ACAD_REACTORS
330
C
102
}
330
C
100
AcDbDictionary
281
     1
  3
Standard
350
18
  0
DICTIONARY
  5
19
102
{ACAD_REACTORS
330
C
102
}
330
C
100
AcDbDictionary
281
     1
  0
ACDBDICTIONARYWDFLT
  5
E
102
{ACAD_REACTORS
330
C
102
}
330
C
100
AcDbDictionary
281
     1
  3
Normal
350
F
100
AcDbDictionaryWithDefault
340
F
  0
DICTIONARY
  5
113
102
{ACAD_REACTORS
330
C
102
}
330
C
100
AcDbDictionary
281
     1
  0
DICTIONARY
  5
2A
102
{ACAD_REACTORS
330
C
102
}
330
C
100
AcDbDictionary
281
     1
  3
2dWireframe
350
2F
  3
3D Hidden
350
31
  3
3dWireframe
350
30
  3
Basic
350
32
  3
Brighten
350
36
  3
ColorChange
350
3A
  3
Conceptual
350
34
  3
Dim
350
35
  3
Facepattern
350
39
  3
Flat
350
2B
  3
FlatWithEdges
350
2C
  3
Gouraud
350
2D
  3
GouraudWithEdges
350
2E
  3
Linepattern
350
38
  3
Realistic
350
33
  3
Thicken
350
37
  0
LAYOUT
  5
1E
102
{ACAD_REACTORS
330
1A
102
}
330
1A
100
AcDbPlotSettings
  1

  2
none_device
  4

  6

 40
0.0
 41
0.0
 42
0.0
 43
0.0
 44
0.0
 45
0.0
 46
0.0
 47
0.0
 48
0.0
 49
0.0
140
0.0
141
0.0
142
1.0
143
1.0
 70
   688
 72
     0
 73
     0
 74
     5
  7

 75
    16
 76
     0
 77
     2
 78
   300
147
1.0
148
0.0
149
0.0
100
AcDbLayout
  1
Layout1
 70
     1
 71
     1
 10
0.0
 20
0.0
 11
420.0
 21
297.0
 12
0.0
 22
0.0
 32
0.0
 14
1.0000000000E+20
 24
1.0000000000E+20
 34
1.0000000000E+20
 15
-1.0000000000E+20
 25
-1.0000000000E+20
 35
-1.0000000000E+20
146
0.0
 13
0.0
 23
0.0
 33
0.0
 16
1.0
 26
0.0
 36
0.0
 17
0.0
 27
1.0
 37
0.0
 76
     0
330
1B
  0
LAYOUT
  5
26
102
{ACAD_REACTORS
330
1A
102
}
330
1A
100
AcDbPlotSettings
  1

  2
none_device
  4

  6

 40
0.0
 41
0.0
 42
0.0
 43
0.0
 44
0.0
 45
0.0
 46
0.0
 47
0.0
 48
0.0
 49
0.0
140
0.0
141
0.0
142
1.0
143
1.0
 70
   688
 72
     0
 73
     0
 74
     5
  7

 75
    16
 76
     0
 77
     2
 78
   300
147
1.0
148
0.0
149
0.0
100
AcDbLayout
  1
Layout2
 70
     1
 71
     2
 10
0.0
 20
0.0
 11
0.0
 21
0.0
 12
0.0
 22
0.0
 32
0.0
 14
0.0
 24
0.0
 34
0.0
 15
0.0
 25
0.0
 35
0.0
146
0.0
 13
0.0
 23
0.0
 33
0.0
 16
1.0
 26
0.0
 36
0.0
 17
0.0
 27
1.0
 37
0.0
 76
     0
330
23
  0
LAYOUT
  5
22
102
{ACAD_REACTORS
330
1A
102
}
330
1A
100
AcDbPlotSettings
  1

  2
none_device
  4

  6

 40
0.0
 41
0.0
 42
0.0
 43
0.0
 44
0.0
 45
0.0
 46
0.0
 47
0.0
 48
0.0
 49
0.0
140
0.0
141
0.0
142
1.0
143
1.0
 70
  1712
 72
     0
 73
     0
 74
     0
  7

 75
     0
 76
     0
 77
     2
 78
   300
147
1.0
148
0.0
149
0.0
100
AcDbLayout
  1
Model
 70
     1
 71
     0
 10
0.0
 20
0.0
 11
297.0
 21
210.0
 12
0.0
 22
0.0
 32
0.0
 14
0.0
 24
0.0
 34
0.0
 15
297.0
 25
210.0
 35
0.0
146
0.0
 13
0.0
 23
0.0
 33
0.0
 16
1.0
 26
0.0
 36
0.0
 17
0.0
 27
1.0
 37
0.0
 76
     0
330
1F
331
29
  0
MATERIAL
  5
3D
102
{ACAD_REACTORS
330
3B
102
}
330
3B
100
AcDbMaterial
  1
ByBlock
 72
     1
 94
      127
  0
MATERIAL
  5
3C
102
{ACAD_REACTORS
330
3B
102
}
330
3B
100
AcDbMaterial
  1
ByLayer
 72
     1
 94
      127
  0
MATERIAL
  5
3E
102
{ACAD_REACTORS
330
3B
102
}
330
3B
100
AcDbMaterial
  1
Global
 72
     1
 94
      127
  0
MLINESTYLE
  5
18
102
{ACAD_REACTORS
330
17
102
}
330
17
100
AcDbMlineStyle
  2
Standard
 70
     0
  3

 62
   256
 51
90.0
 52
90.0
 71
     2
 49
0.5
 62
   256
  6
BYLAYER
 49
-0.5
 62
   256
  6
BYLAYER
  0
ACDBPLACEHOLDER
  5
F
102
{ACAD_REACTORS
330
E
102
}
330
E
  0
VISUALSTYLE
  5
2F
102
{ACAD_REACTORS
330
2A
102
}
330
2A
100
AcDbVisualStyle
  2
2dWireframe
 70
     4
 71
     0
 72
     2
 73
     0
 90
        0
 40
-0.6
 41
-30.0
 62
     5
 63
     7
421
 16777215
 74
     1
 91
        4
 64
     7
 65
   257
 75
     1
175
     1
 42
1.0
 92
        0
 66
   257
 43
1.0
 76
     1
 77
     6
 78
     2
 67
     7
 79
     5
170
     0
171
     0
290
     0
174
     0
 93
        1
 44
0.0
173
     0
291
     0
 45
0.0
  0
VISUALSTYLE
  5
31
102
{ACAD_REACTORS
330
2A
102
}
330
2A
100
AcDbVisualStyle
  2
3D Hidden
 70
     6
 71
     1
 72
     2
 73
     2
 90
        0
 40
-0.6
 41
-30.0
 62
     5
 63
     7
421
 16777215
 74
     2
 91
        2
 64
     7
 65
   257
 75
     2
175
     1
 42
40.0
 92
        0
 66
   257
 43
1.0
 76
     1
 77
     6
 78
     2
 67
     7
 79
     3
170
     0
171
     0
290
     0
174
     0
 93
        1
 44
0.0
173
     0
291
     0
 45
0.0
  0
VISUALSTYLE
  5
30
102
{ACAD_REACTORS
330
2A
102
}
330
2A
100
AcDbVisualStyle
  2
3dWireframe
 70
     5
 71
     0
 72
     2
 73
     0
 90
        0
 40
-0.6
 41
-30.0
 62
     5
 63
     7
421
 16777215
 74
     1
 91
        4
 64
     7
 65
   257
 75
     1
175
     1
 42
1.0
 92
        0
 66
   257
 43
1.0
 76
     1
 77
     6
 78
     2
 67
     7
 79
     5
170
     0
171
     0
290
     0
174
     0
 93
        1
 44
0.0
173
     0
291
     0
 45
0.0
  0
VISUALSTYLE
  5
32
102
{ACAD_REACTORS
330
2A
102
}
330
2A
100
AcDbVisualStyle
  2
Basic
 70
     7
 71
     1
 72
     0
 73
     1
 90
        0
 40
-0.6
 41
-30.0
 62
     5
 63
     7
421
 16777215
 74
     0
 91
        4
 64
     7
 65
   257
 75
     1
175
     1
 42
1.0
 92
        8
 66
     7
 43
1.0
 76
     1
 77
     6
 78
     2
 67
     7
 79
     5
170
     0
171
     0
290
     0
174
     0
 93
        1
 44
0.0
173
     0
291
     1
 45
0.0
  0
VISUALSTYLE
  5
36
102
{ACAD_REACTORS
330
2A
102
}
330
2A
100
AcDbVisualStyle
  2
Brighten
 70
    12
 71
     2
 72
     2
 73
     0
 90
        0
 40
-0.6
 41
-30.0
 62
     5
 63
     7
421
 16777215
 74
     1
 91
        4
 64
     7
 65
   257
 75
     1
175
     1
 42
1.0
 92
        8
 66
     7
 43
1.0
 76
     1
 77
     6
 78
     2
 67
     7
 79
     5
170
     0
171
     0
290
     0
174
     0
 93
        1
 44
50.0
173
     0
291
     1
 45
0.0
  0
VISUALSTYLE
  5
3A
102
{ACAD_REACTORS
330
2A
102
}
330
2A
100
AcDbVisualStyle
  2
ColorChange
 70
    16
 71
     2
 72
     2
 73
     3
 90
        0
 40
-0.6
 41
-30.0
 62
     5
 63
     8
421
  8421504
 74
     1
 91
        4
 64
     7
 65
   257
 75
     1
175
     1
 42
1.0
 92
        8
 66
     8
424
  8421504
 43
1.0
 76
     1
 77
     6
 78
     2
 67
     7
 79
     5
170
     0
171
     0
290
     0
174
     0
 93
        1
 44
0.0
173
     0
291
     1
 45
0.0
  0
VISUALSTYLE
  5
34
102
{ACAD_REACTORS
330
2A
102
}
330
2A
100
AcDbVisualStyle
  2
Conceptual
 70
     9
 71
     3
 72
     2
 73
     0
 90
        0
 40
-0.6
 41
-30.0
 62
     5
 63
     7
421
 16777215
 74
     2
 91
        2
 64
     7
 65
   257
 75
     1
175
     1
 42
40.0
 92
        8
 66
     7
 43
1.0
 76
     1
 77
     6
 78
     2
 67
     7
 79
     3
170
     0
171
     0
290
     0
174
     0
 93
        1
 44
0.0
173
     0
291
     0
 45
0.0
  0
VISUALSTYLE
  5
35
102
{ACAD_REACTORS
330
2A
102
}
330
2A
100
AcDbVisualStyle
  2
Dim
 70
    11
 71
     2
 72
     2
 73
     0
 90
        0
 40
-0.6
 41
-30.0
 62
     5
 63
     7
421
 16777215
 74
     1
 91
        4
 64
     7
 65
   257
 75
     1
175
     1
 42
1.0
 92
        8
 66
     7
 43
1.0
 76
     1
 77
     6
 78
     2
 67
     7
 79
     5
170
     0
171
     0
290
     0
174
     0
 93
        1
 44
-50.0
173
     0
291
     1
 45
0.0
  0
VISUALSTYLE
  5
39
102
{ACAD_REACTORS
330
2A
102
}
330
2A
100
AcDbVisualStyle
  2
Facepattern
 70
    15
 71
     2
 72
     2
 73
     0
 90
        0
 40
-0.6
 41
-30.0
 62
     5
 63
     7
421
 16777215
 74
     1
 91
        4
 64
     7
 65
   257
 75
     1
175
     1
 42
1.0
 92
        8
 66
     7
 43
1.0
 76
     1
 77
     6
 78
     2
 67
     7
 79
     5
170
     0
171
     0
290
     0
174
     0
 93
        1
 44
0.0
173
     0
291
     1
 45
0.0
  0
VISUALSTYLE
  5
2B
102
{ACAD_REACTORS
330
2A
102
}
330
2A
100
AcDbVisualStyle
  2
Flat
 70
     0
 71
     2
 72
     1
 73
     1
 90
        2
 40
-0.6
 41
30.0
 62
     5
 63
     7
421
 16777215
 74
     0
 91
        4
 64
     7
 65
   257
 75
     1
175
     1
 42
1.0
 92
        8
 66
     7
 43
1.0
 76
     1
 77
     6
 78
     2
 67
     7
 79
     5
170
     0
171
     0
290
     0
174
     0
 93
       13
 44
0.0
173
     0
291
     1
 45
0.0
  0
VISUALSTYLE
  5
2C
102
{ACAD_REACTORS
330
2A
102
}
330
2A
100
AcDbVisualStyle
  2
FlatWithEdges
 70
     1
 71
     2
 72
     1
 73
     1
 90
        2
 40
-0.6
 41
30.0
 62
     5
 63
     7
421
 16777215
 74
     1
 91
        4
 64
     7
 65
   257
 75
     1
175
     1
 42
1.0
 92
        0
 66
   257
 43
1.0
 76
     1
 77
     6
 78
     2
 67
     7
 79
     5
170
     0
171
     0
290
     0
174
     0
 93
       13
 44
0.0
173
     0
291
     1
 45
0.0
  0
VISUALSTYLE
  5
2D
102
{ACAD_REACTORS
330
2A
102
}
330
2A
100
AcDbVisualStyle
  2
Gouraud
 70
     2
 71
     2
 72
     2
 73
     1
 90
        2
 40
-0.6
 41
30.0
 62
     5
 63
     7
421
 16777215
 74
     0
 91
        4
 64
     7
 65
   257
 75
     1
175
     1
 42
1.0
 92
        0
 66
     7
 43
1.0
 76
     1
 77
     6
 78
     2
 67
     7
 79
     5
170
     0
171
     0
290
     0
174
     0
 93
       13
 44
0.0
173
     0
291
     1
 45
0.0
  0
VISUALSTYLE
  5
2E
102
{ACAD_REACTORS
330
2A
102
}
330
2A
100
AcDbVisualStyle
  2
GouraudWithEdges
 70
     3
 71
     2
 72
     2
 73
     1
 90
        2
 40
-0.6
 41
30.0
 62
     5
 63
     7
421
 16777215
 74
     1
 91
        4
 64
     7
 65
   257
 75
     1
175
     1
 42
1.0
 92
        0
 66
   257
 43
1.0
 76
     1
 77
     6
 78
     2
 67
     7
 79
     5
170
     0
171
     0
290
     0
174
     0
 93
       13
 44
0.0
173
     0
291
     1
 45
0.0
  0
VISUALSTYLE
  5
38
102
{ACAD_REACTORS
330
2A
102
}
330
2A
100
AcDbVisualStyle
  2
Linepattern
 70
    14
 71
     2
 72
     2
 73
     0
 90
        0
 40
-0.6
 41
-30.0
 62
     5
 63
     7
421
 16777215
 74
     1
 91
        4
 64
     7
 65
   257
 75
     7
175
     7
 42
1.0
 92
        8
 66
     7
 43
1.0
 76
     1
 77
     6
 78
     2
 67
     7
 79
     5
170
     0
171
     0
290
     0
174
     0
 93
        1
 44
0.0
173
     0
291
     1
 45
0.0
  0
VISUALSTYLE
  5
33
102
{ACAD_REACTORS
330
2A
102
}
330
2A
100
AcDbVisualStyle
  2
Realistic
 70
     8
 71
     2
 72
     2
 73
     0
 90
        0
 40
-0.6
 41
-30.0
 62
     5
 63
     7
421
 16777215
 74
     1
 91
        0
 64
     7
 65
   257
 75
     1
175
     1
 42
1.0
 92
        8
 66
     8
424
  7895160
 43
1.0
 76
     1
 77
     6
 78
     2
 67
     7
 79
     5
170
     0
171
     0
290
     0
174
     0
 93
       13
 44
0.0
173
     0
291
     0
 45
0.0
  0
VISUALSTYLE
  5
37
102
{ACAD_REACTORS
330
2A
102
}
330
2A
100
AcDbVisualStyle
  2
Thicken
 70
    13
 71
     2
 72
     2
 73
     0
 90
        0
 40
-0.6
 41
-30.0
 62
     5
 63
     7
421
 16777215
 74
     1
 91
        4
 64
     7
 65
   257
 75
     1
175
     1
 42
1.0
 92
       12
 66
     7
 43
1.0
 76
     1
 77
     6
 78
     2
 67
     7
 79
     5
170
     0
171
     0
290
     0
174
     0
 93
        1
 44
0.0
173
     0
291
     1
 45
0.0
  0
ENDSEC
  0
EOF
