  0
SECTION
  2
HEADER
  9
$ACADVER
  1
AC1021
  9
$ACADMAINTVER
 70
    25
  9
$DWGCODEPAGE
  3
ANSI_1252
  9
$INSBASE
 10
0.0
 20
0.0
 30
0.0
  9
$EXTMIN
 10
0.0
 20
0.0
 30
0.0
  9
$EXTMAX
 10
297.0
 20
210.0
 30
0.0
  9
$LIMMIN
 10
0.0
 20
0.0
  9
$LIMMAX
 10
297.0
 20
210.0
  9
$ORTHOMODE
 70
     0
  9
$REGENMODE
 70
     1
  9
$FILLMODE
 70
     1
  9
$QTEXTMODE
 70
     0
  9
$MIRRTEXT
 70
     1
  9
$LTSCALE
 40
1.0
  9
$ATTMODE
 70
     1
  9
$TEXTSIZE
 40
3.5
  9
$TRACEWID
 40
1.0
  9
$TEXTSTYLE
  7
Standard
  9
$CLAYER
  8
0
  9
$CELTYPE
  6
ByLayer
  9
$CECOLOR
 62
   256
  9
$CELTSCALE
 40
1.0
  9
$DISPSILH
 70
     0
  9
$DIMSCALE
 40
1.0
  9
$DIMASZ
 40
3.302
  9
$DIMEXO
 40
1.0
  9
$DIMDLI
 40
3.75
  9
$DIMRND
 40
0.0
  9
$DIMDLE
 40
0.0
  9
$DIMEXE
 40
1.0
  9
$DIMTP
 40
0.0
  9
$DIMTM
 40
0.0
  9
$DIMTXT
 40
3.5
  9
$DIMCEN
 40
2.5
  9
$DIMTSZ
 40
0.0
  9
$DIMTOL
 70
     0
  9
$DIMLIM
 70
     0
  9
$DIMTIH
 70
     1
  9
$DIMTOH
 70
     1
  9
$DIMSE1
 70
     0
  9
$DIMSE2
 70
     0
  9
$DIMTAD
 70
     1
  9
$DIMZIN
 70
     0
  9
$DIMBLK
  1

  9
$DIMASO
 70
     1
  9
$DIMSHO
 70
     1
  9
$DIMPOST
  1

  9
$DIMAPOST
  1

  9
$DIMALT
 70
     0
  9
$DIMALTD
 70
     3
  9
$DIMALTF
 40
0.0393700787
  9
$DIMLFAC
 40
1.0
  9
$DIMTOFL
 70
     1
  9
$DIMTVP
 40
0.0
  9
$DIMTIX
 70
     0
  9
$DIMSOXD
 70
     0
  9
$DIMSAH
 70
     0
  9
$DIMBLK1
  1

  9
$DIMBLK2
  1

  9
$DIMSTYLE
  2
ISO-25
  9
$DIMCLRD
 70
     0
  9
$DIMCLRE
 70
     0
  9
$DIMCLRT
 70
     0
  9
$DIMTFAC
 40
1.0
  9
$DIMGAP
 40
1.524
  9
$DIMJUST
 70
     0
  9
$DIMSD1
 70
     0
  9
$DIMSD2
 70
     0
  9
$DIMTOLJ
 70
     0
  9
$DIMTZIN
 70
     0
  9
$DIMALTZ
 70
     0
  9
$DIMALTTZ
 70
     0
  9
$DIMUPT
 70
     0
  9
$DIMDEC
 70
     2
  9
$DIMTDEC
 70
     2
  9
$DIMALTU
 70
     2
  9
$DIMALTTD
 70
     3
  9
$DIMTXSTY
  7
Standard
  9
$DIMAUNIT
 70
     0
  9
$DIMADEC
 70
     2
  9
$DIMALTRND
 40
0.0
  9
$DIMAZIN
 70
     0
  9
$DIMDSEP
 70
    44
  9
$DIMATFIT
 70
     3
  9
$DIMFRAC
 70
     0
  9
$DIMLDRBLK
  1

  9
$DIMLUNIT
 70
     2
  9
$DIMLWD
 70
    -2
  9
$DIMLWE
 70
    -2
  9
$DIMTMOVE
 70
     0
  9
$DIMFXL
 40
1.0
  9
$DIMFXLON
 70
     0
  9
$DIMJOGANG
 40
0.7853981634
  9
$DIMTFILL
 70
     0
  9
$DIMTFILLCLR
 70
     0
  9
$DIMARCSYM
 70
     0
  9
$DIMLTYPE
  6

  9
$DIMLTEX1
  6

  9
$DIMLTEX2
  6

  9
$LUNITS
 70
     2
  9
$LUPREC
 70
     2
  9
$SKETCHINC
 40
1.0
  9
$FILLETRAD
 40
10.0
  9
$AUNITS
 70
     0
  9
$AUPREC
 70
     2
  9
$MENU
  1
.
  9
$ELEVATION
 40
0.0
  9
$PELEVATION
 40
0.0
  9
$THICKNESS
 40
0.0
  9
$LIMCHECK
 70
     0
  9
$CHAMFERA
 40
10.0
  9
$CHAMFERB
 40
10.0
  9
$CHAMFERC
 40
20.0
  9
$CHAMFERD
 40
0.0
  9
$SKPOLY
 70
     0
  9
$TDCREATE
 40
2456608.58064919
  9
$TDUCREATE
 40
2456608.538982523
  9
$TDUPDATE
 40
2456608.580649537
  9
$TDUUPDATE
 40
2456608.538982871
  9
$TDINDWG
 40
0.0000000116
  9
$TDUSRTIMER
 40
0.0000000116
  9
$USRTIMER
 70
     1
  9
$ANGBASE
 50
0.0
  9
$ANGDIR
 70
     0
  9
$PDMODE
 70
     0
  9
$PDSIZE
 40
-1.0
  9
$PLINEWID
 40
0.0
  9
$SPLFRAME
 70
     0
  9
$SPLINETYPE
 70
     6
  9
$SPLINESEGS
 70
     8
  9
$HANDSEED
  5
10B
  9
$SURFTAB1
 70
     6
  9
$SURFTAB2
 70
     6
  9
$SURFTYPE
 70
     6
  9
$SURFU
 70
     6
  9
$SURFV
 70
     6
  9
$UCSBASE
  2

  9
$UCSNAME
  2

  9
$UCSORG
 10
0.0
 20
0.0
 30
0.0
  9
$UCSXDIR
 10
1.0
 20
0.0
 30
0.0
  9
$UCSYDIR
 10
0.0
 20
1.0
 30
0.0
  9
$UCSORTHOREF
  2

  9
$UCSORTHOVIEW
 70
     0
  9
$UCSORGTOP
 10
0.0
 20
0.0
 30
0.0
  9
$UCSORGBOTTOM
 10
0.0
 20
0.0
 30
0.0
  9
$UCSORGLEFT
 10
0.0
 20
0.0
 30
0.0
  9
$UCSORGRIGHT
 10
0.0
 20
0.0
 30
0.0
  9
$UCSORGFRONT
 10
0.0
 20
0.0
 30
0.0
  9
$UCSORGBACK
 10
0.0
 20
0.0
 30
0.0
  9
$PUCSBASE
  2

  9
$PUCSNAME
  2

  9
$PUCSORG
 10
0.0
 20
0.0
 30
0.0
  9
$PUCSXDIR
 10
1.0
 20
0.0
 30
0.0
  9
$PUCSYDIR
 10
0.0
 20
1.0
 30
0.0
  9
$PUCSORTHOREF
  2

  9
$PUCSORTHOVIEW
 70
     0
  9
$PUCSORGTOP
 10
0.0
 20
0.0
 30
0.0
  9
$PUCSORGBOTTOM
 10
0.0
 20
0.0
 30
0.0
  9
$PUCSORGLEFT
 10
0.0
 20
0.0
 30
0.0
  9
$PUCSORGRIGHT
 10
0.0
 20
0.0
 30
0.0
  9
$PUCSORGFRONT
 10
0.0
 20
0.0
 30
0.0
  9
$PUCSORGBACK
 10
0.0
 20
0.0
 30
0.0
  9
$USERI1
 70
     0
  9
$USERI2
 70
     0
  9
$USERI3
 70
     0
  9
$USERI4
 70
     0
  9
$USERI5
 70
     0
  9
$USERR1
 40
0.0
  9
$USERR2
 40
0.0
  9
$USERR3
 40
0.0
  9
$USERR4
 40
0.0
  9
$USERR5
 40
0.0
  9
$WORLDVIEW
 70
     1
  9
$SHADEDGE
 70
     3
  9
$SHADEDIF
 70
    70
  9
$TILEMODE
 70
     1
  9
$MAXACTVP
 70
    64
  9
$PINSBASE
 10
0.0
 20
0.0
 30
0.0
  9
$PLIMCHECK
 70
     0
  9
$PEXTMIN
 10
1.0000000000E+20
 20
1.0000000000E+20
 30
1.0000000000E+20
  9
$PEXTMAX
 10
-1.0000000000E+20
 20
-1.0000000000E+20
 30
-1.0000000000E+20
  9
$PLIMMIN
 10
0.0
 20
0.0
  9
$PLIMMAX
 10
420.0
 20
297.0
  9
$UNITMODE
 70
     0
  9
$VISRETAIN
 70
     1
  9
$PLINEGEN
 70
     0
  9
$PSLTSCALE
 70
     1
  9
$TREEDEPTH
 70
  3020
  9
$CMLSTYLE
  2
Standard
  9
$CMLJUST
 70
     0
  9
$CMLSCALE
 40
20.0
  9
$PROXYGRAPHICS
 70
     1
  9
$MEASUREMENT
 70
     1
  9
$CELWEIGHT
370
    -1
  9
$ENDCAPS
280
     0
  9
$JOINSTYLE
280
     0
  9
$LWDISPLAY
290
     1
  9
$INSUNITS
 70
     4
  9
$HYPERLINKBASE
  1

  9
$STYLESHEET
  1

  9
$XEDIT
290
     1
  9
$CEPSNTYPE
380
     0
  9
$PSTYLEMODE
290
     1
  9
$FINGERPRINTGUID
  2
{D408AF72-A140-497B-930F-8DAE1F840BFF}
  9
$VERSIONGUID
  2
{FAEB1C32-E019-11D5-929B-00C0DF256EC4}
  9
$EXTNAMES
290
     1
  9
$PSVPSCALE
 40
0.0
  9
$OLESTARTUP
290
     0
  9
$SORTENTS
280
   127
  9
$INDEXCTL
280
     0
  9
$HIDETEXT
280
     1
  9
$XCLIPFRAME
290
     0
  9
$HALOGAP
280
     0
  9
$OBSCOLOR
 70
   257
  9
$OBSLTYPE
280
     0
  9
$INTERSECTIONDISPLAY
280
     0
  9
$INTERSECTIONCOLOR
 70
   257
  9
$DIMASSOC
280
     2
  9
$PROJECTNAME
  1

  9
$CAMERADISPLAY
290
     0
  9
$LENSLENGTH
 40
50.0
  9
$CAMERAHEIGHT
 40
0.0
  9
$STEPSPERSEC
 40
2.0
  9
$STEPSIZE
 40
6.0
  9
$3DDWFPREC
 40
2.0
  9
$PSOLWIDTH
 40
5.0
  9
$PSOLHEIGHT
 40
80.0
  9
$LOFTANG1
 40
1.5707963268
  9
$LOFTANG2
 40
1.5707963268
  9
$LOFTMAG1
 40
0.0
  9
$LOFTMAG2
 40
0.0
  9
$LOFTPARAM
 70
     7
  9
$LOFTNORMALS
280
     1
  9
$LATITUDE
 40
37.795
  9
$LONGITUDE
 40
-122.394
  9
$NORTHDIRECTION
 40
0.0
  9
$TIMEZONE
 70
 -8000
  9
$LIGHTGLYPHDISPLAY
280
     1
  9
$TILEMODELIGHTSYNCH
280
     1
  9
$SOLIDHIST
280
     1
  9
$SHOWHIST
280
     1
  9
$DWFFRAME
280
     2
  9
$DGNFRAME
280
     2
  9
$REALWORLDSCALE
290
     1
  9
$INTERFERECOLOR
 62
   256
  9
$CSHADOW
280
     0
  9
$SHADOWPLANELOCATION
 40
0.0
  0
ENDSEC
  0
SECTION
  2
CLASSES
  0
CLASS
  1
ACDBDICTIONARYWDFLT
  2
AcDbDictionaryWithDefault
  3
ObjectDBX Classes
 90
        0
 91
        4
280
     0
281
     0
  0
CLASS
  1
VISUALSTYLE
  2
AcDbVisualStyle
  3
ObjectDBX Classes
 90
     4095
 91
        4
280
     0
281
     0
  0
CLASS
  1
MATERIAL
  2
AcDbMaterial
  3
ObjectDBX Classes
 90
     1153
 91
        4
280
     0
281
     0
  0
ENDSEC
  0
SECTION
  2
TABLES
  0
TABLE
  2
VPORT
  5
8
330
0
100
AcDbSymbolTable
 70
     1
  0
VPORT
  5
29
330
8
100
AcDbSymbolTableRecord
100
AcDbViewportTableRecord
  2
*Active
 70
     0
 10
0.0
 20
0.0
 11
1.0
 21
1.0
 12
148.5
 22
105.0
 13
0.0
 23
0.0
 14
10.0
 24
10.0
 15
10.0
 25
10.0
 16
0.0
 26
0.0
 36
1.0
 17
0.0
 27
0.0
 37
0.0
 40
210.0
 41
1.4142857143
 42
50.0
 43
0.0
 44
0.0
 50
0.0
 51
0.0
 71
     0
 72
  2000
 73
     1
 74
     3
 75
     0
 76
     0
 77
     0
 78
     0
281
     0
 65
     1
110
0.0
120
0.0
130
0.0
111
1.0
121
0.0
131
0.0
112
0.0
122
1.0
132
0.0
 79
     0
146
0.0
 60
     3
 61
     5
292
     1
282
     1
141
0.0
142
0.0
 63
   250
  0
ENDTAB
  0
TABLE
  2
LTYPE
  5
5
330
0
100
AcDbSymbolTable
 70
     8
  0
LTYPE
  5
14
330
5
100
AcDbSymbolTableRecord
100
AcDbLinetypeTableRecord
  2
ByBlock
 70
     0
  3

 72
    65
 73
     0
 40
0.0
  0
LTYPE
  5
15
330
5
100
AcDbSymbolTableRecord
100
AcDbLinetypeTableRecord
  2
ByLayer
 70
     0
  3

 72
    65
 73
     0
 40
0.0
  0
LTYPE
  5
16
330
5
100
AcDbSymbolTableRecord
100
AcDbLinetypeTableRecord
  2
Continuous
 70
     0
  3
Solid line
 72
    65
 73
     0
 40
0.0
  0
LTYPE
  5
3F
330
5
100
AcDbSymbolTableRecord
100
AcDbLinetypeTableRecord
  2
SLD-Durchgehend
 70
     0
  3
SolidWorks Line Style
 72
    65
 73
     0
 40
0.0
  0
LTYPE
  5
40
330
5
100
AcDbSymbolTableRecord
100
AcDbLinetypeTableRecord
  2
SLD-Gestrichelt
 70
     0
  3
SolidWorks Line Style
 72
    65
 73
     2
 40
1.905
 49
1.27
 74
     0
 49
-0.635
 74
     0
  0
LTYPE
  5
41
330
5
100
AcDbSymbolTableRecord
100
AcDbLinetypeTableRecord
  2
SLD-Phantom
 70
     0
  3
SolidWorks Line Style
 72
    65
 73
     6
 40
12.7
 49
6.35
 74
     0
 49
-1.27
 74
     0
 49
1.27
 74
     0
 49
-1.27
 74
     0
 49
1.27
 74
     0
 49
-1.27
 74
     0
  0
LTYPE
  5
42
330
5
100
AcDbSymbolTableRecord
100
AcDbLinetypeTableRecord
  2
SLD-Kette
 70
     0
  3
SolidWorks Line Style
 72
    65
 73
     4
 40
10.16
 49
6.35
 74
     0
 49
-1.27
 74
     0
 49
1.27
 74
     0
 49
-1.27
 74
     0
  0
LTYPE
  5
43
330
5
100
AcDbSymbolTableRecord
100
AcDbLinetypeTableRecord
  2
SLD-Punktstrich
 70
     0
  3
SolidWorks Line Style
 72
    65
 73
     4
 40
19.05
 49
15.24
 74
     0
 49
-1.27
 74
     0
 49
1.27
 74
     0
 49
-1.27
 74
     0
  0
LTYPE
  5
44
330
5
100
AcDbSymbolTableRecord
100
AcDbLinetypeTableRecord
  2
SLD-Naht
 70
     0
  3
SolidWorks Line Style
 72
    65
 73
     2
 40
0.635
 49
0.0
 74
     0
 49
-0.635
 74
     0
  0
LTYPE
  5
45
330
5
100
AcDbSymbolTableRecord
100
AcDbLinetypeTableRecord
  2
SLD-Dicke-Dünne-Kette
 70
     0
  3
SolidWorks Line Style
 72
    65
 73
     4
 40
10.16
 49
6.35
 74
     0
 49
-1.27
 74
     0
 49
1.27
 74
     0
 49
-1.27
 74
     0
  0
ENDTAB
  0
TABLE
  2
LAYER
  5
2
330
0
100
AcDbSymbolTable
 70
     3
  0
LAYER
  5
10
330
2
100
AcDbSymbolTableRecord
100
AcDbLayerTableRecord
  2
0
 70
     0
 62
     7
  6
Continuous
370
    -3
390
F
347
3E
  0
LAYER
  5
46
330
2
100
AcDbSymbolTableRecord
100
AcDbLayerTableRecord
  2
1
 70
     0
 62
     4
  6
Continuous
370
    -1
390
F
347
3E
  0
LAYER
  5
47
330
2
100
AcDbSymbolTableRecord
100
AcDbLayerTableRecord
  2
2
 70
     0
 62
     7
  6
SLD-Durchgehend
370
    -3
390
F
347
3E
  0
ENDTAB
  0
TABLE
  2
STYLE
  5
3
330
0
100
AcDbSymbolTable
 70
     2
  0
STYLE
  5
11
330
3
100
AcDbSymbolTableRecord
100
AcDbTextStyleTableRecord
  2
Standard
 70
     0
 40
0.0
 41
1.0
 50
0.0
 71
     0
 42
3.5
  3
txt
  4

  0
STYLE
  5
79
330
3
100
AcDbSymbolTableRecord
100
AcDbTextStyleTableRecord
  2
SLDTEXTSTYLE0
 70
     0
 40
0.0
 41
0.75
 50
0.0
 71
     0
 42
0.2
  3
TXT
  4

  0
ENDTAB
  0
TABLE
  2
VIEW
  5
6
330
0
100
AcDbSymbolTable
 70
     0
  0
ENDTAB
  0
TABLE
  2
UCS
  5
7
330
0
100
AcDbSymbolTable
 70
     0
  0
ENDTAB
  0
TABLE
  2
APPID
  5
9
330
0
100
AcDbSymbolTable
 70
     1
  0
APPID
  5
12
330
9
100
AcDbSymbolTableRecord
100
AcDbRegAppTableRecord
  2
ACAD
 70
     0
  0
ENDTAB
  0
TABLE
  2
DIMSTYLE
  5
A
330
0
100
AcDbSymbolTable
 70
     3
100
AcDbDimStyleTable
  0
DIMSTYLE
105
27
330
A
100
AcDbSymbolTableRecord
100
AcDbDimStyleTableRecord
  2
ISO-25
 70
     0
 41
2.5
 42
0.625
 43
3.75
 44
1.25
 73
     0
 74
     0
 77
     1
 78
     8
140
2.5
141
2.5
143
0.0393700787
147
0.625
171
     3
172
     1
178
     0
271
     2
272
     2
274
     3
278
    44
283
     0
284
     8
340
11
  0
DIMSTYLE
105
7A
102
{ACAD_REACTORS
330
78
102
}
330
A
100
AcDbSymbolTableRecord
100
AcDbDimStyleTableRecord
  2
SLDDIMSTYLE0
 70
     0
 41
3.302
 44
0.0
 45
0.000000001
 73
     0
 74
     0
 77
     1
 78
    12
 79
     3
140
3.5
147
0.875
173
     1
178
     0
271
     2
272
     2
276
     2
284
    12
340
79
  0
DIMSTYLE
105
87
102
{ACAD_REACTORS
330
86
330
FD
102
}
330
A
100
AcDbSymbolTableRecord
100
AcDbDimStyleTableRecord
  2
SLDDIMSTYLE1
 70
     0
 41
3.302
 44
0.0
 45
0.000000001
 73
     0
 74
     0
 77
     1
 78
    12
 79
     3
140
3.5
147
0.875
172
     1
173
     1
178
     0
271
     2
272
     2
276
     2
284
    12
289
     0
340
79
  0
ENDTAB
  0
TABLE
  2
BLOCK_RECORD
  5
1
330
0
100
AcDbSymbolTable
 70
     4
  0
BLOCK_RECORD
  5
1F
330
1
100
AcDbSymbolTableRecord
100
AcDbBlockTableRecord
  2
*Model_Space
340
22
 70
     0
280
     1
281
     0
  0
BLOCK_RECORD
  5
1B
330
1
100
AcDbSymbolTableRecord
100
AcDbBlockTableRecord
  2
*Paper_Space
340
1E
 70
     0
280
     1
281
     0
  0
BLOCK_RECORD
  5
23
330
1
100
AcDbSymbolTableRecord
100
AcDbBlockTableRecord
  2
*Paper_Space0
340
26
 70
     0
280
     1
281
     0
  0
BLOCK_RECORD
  5
7B
330
1
100
AcDbSymbolTableRecord
100
AcDbBlockTableRecord
  2
_D
340
0
 70
     0
280
     1
281
     0
  0
BLOCK_RECORD
  5
88
330
1
100
AcDbSymbolTableRecord
100
AcDbBlockTableRecord
  2
_D_1
340
0
 70
     0
280
     1
281
     0
  0
BLOCK_RECORD
  5
FE
330
1
100
AcDbSymbolTableRecord
100
AcDbBlockTableRecord
  2
_D_2
340
0
 70
     0
280
     1
281
     0
  0
ENDTAB
  0
ENDSEC
  0
SECTION
  2
BLOCKS
  0
BLOCK
  5
20
330
1F
100
AcDbEntity
  8
0
100
AcDbBlockBegin
  2
*Model_Space
 70
     0
 10
0.0
 20
0.0
 30
0.0
  3
*Model_Space
  1

  0
ENDBLK
  5
21
330
1F
100
AcDbEntity
  8
0
100
AcDbBlockEnd
  0
BLOCK
  5
1C
330
1B
100
AcDbEntity
 67
     1
  8
0
100
AcDbBlockBegin
  2
*Paper_Space
 70
     0
 10
0.0
 20
0.0
 30
0.0
  3
*Paper_Space
  1

  0
ENDBLK
  5
1D
330
1B
100
AcDbEntity
 67
     1
  8
0
100
AcDbBlockEnd
  0
BLOCK
  5
24
330
23
100
AcDbEntity
  8
0
100
AcDbBlockBegin
  2
*Paper_Space0
 70
     0
 10
0.0
 20
0.0
 30
0.0
  3
*Paper_Space0
  1

  0
ENDBLK
  5
25
330
23
100
AcDbEntity
  8
0
100
AcDbBlockEnd
  0
BLOCK
  5
7C
330
7B
100
AcDbEntity
  8
0
100
AcDbBlockBegin
  2
_D
 70
     0
 10
0.0
 20
0.0
 30
0.0
  3
_D
  1

  0
SOLID
  5
7E
330
7B
100
AcDbEntity
  8
2
 62
     7
420
 16777215
100
AcDbTrace
 10
136.6025816956
 20
79.8812939422
 30
0.0
 11
139.9045816956
 21
79.3732939422
 31
0.0
 12
139.9045816956
 22
80.3892939422
 32
0.0
 13
139.9045816956
 23
80.3892939422
 33
0.0
  0
SOLID
  5
7F
330
7B
100
AcDbEntity
  8
2
 62
     7
420
 16777215
100
AcDbTrace
 10
149.8025816956
 20
79.8812939422
 30
0.0
 11
146.5005816956
 21
80.3892939422
 31
0.0
 12
146.5005816956
 22
79.3732939422
 32
0.0
 13
146.5005816956
 23
79.3732939422
 33
0.0
  0
LINE
  5
80
330
7B
100
AcDbEntity
  8
2
 62
     7
420
 16777215
100
AcDbLine
 10
136.6025816956
 20
96.8467952703
 30
0.0
 11
136.6025816956
 21
78.8812939422
 31
0.0
  0
LINE
  5
81
330
7B
100
AcDbEntity
  8
2
 62
     7
420
 16777215
100
AcDbLine
 10
149.8025816956
 20
96.8467952703
 30
0.0
 11
149.8025816956
 21
78.8812939422
 31
0.0
  0
LINE
  5
82
330
7B
100
AcDbEntity
  8
2
 62
     7
420
 16777215
100
AcDbLine
 10
136.6025816956
 20
79.8812939422
 30
0.0
 11
111.9717127765
 21
79.8812939422
 31
0.0
  0
LINE
  5
83
330
7B
100
AcDbEntity
  8
2
 62
     7
420
 16777215
100
AcDbLine
 10
136.6025816956
 20
79.8812939422
 30
0.0
 11
149.8025816956
 21
79.8812939422
 31
0.0
  0
MTEXT
  5
84
330
7B
100
AcDbEntity
  8
2
 62
     7
420
 16777215
100
AcDbMText
 10
111.9717127765
 20
84.3930310315
 30
46.5161989144
 40
3.5
 41
0.0
 46
0.0
 71
     1
 72
     1
  1
%%c
  7
SLDTEXTSTYLE0
 73
     1
 44
1.0
  0
MTEXT
  5
85
330
7B
100
AcDbEntity
  8
2
 62
     7
420
 16777215
100
AcDbMText
 10
117.2501501748
 20
84.4465032081
 30
46.5161989144
 40
3.5
 41
0.0
 46
0.0
 71
     1
 72
     1
  1
13,20
  7
SLDTEXTSTYLE0
 73
     1
 44
1.0
  0
ENDBLK
  5
7D
330
7B
100
AcDbEntity
  8
0
100
AcDbBlockEnd
  0
BLOCK
  5
89
330
88
100
AcDbEntity
  8
0
100
AcDbBlockBegin
  2
_D_1
 70
     0
 10
0.0
 20
0.0
 30
0.0
  3
_D_1
  1

  0
SOLID
  5
8B
330
88
100
AcDbEntity
  8
2
 62
     7
420
 16777215
100
AcDbTrace
 10
133.2045618917
 20
110.47583653
 30
0.0
 11
129.9025618917
 21
110.98383653
 31
0.0
 12
129.9025618917
 22
109.96783653
 32
0.0
 13
129.9025618917
 23
109.96783653
 33
0.0
  0
SOLID
  5
8C
330
88
100
AcDbEntity
  8
2
 62
     7
420
 16777215
100
AcDbTrace
 10
143.2025816956
 20
110.47583653
 30
0.0
 11
146.5045816956
 21
109.96783653
 31
0.0
 12
146.5045816956
 22
110.98383653
 32
0.0
 13
146.5045816956
 23
110.98383653
 33
0.0
  0
LINE
  5
8D
330
88
100
AcDbEntity
  8
2
 62
     7
420
 16777215
100
AcDbLine
 10
133.2045618917
 20
105.4467952703
 30
0.0
 11
133.2045618917
 21
111.47583653
 31
0.0
  0
LINE
  5
8E
330
88
100
AcDbEntity
  8
2
 62
     7
420
 16777215
100
AcDbLine
 10
143.2025816956
 20
98.8467952703
 30
0.0
 11
143.2025816956
 21
111.47583653
 31
0.0
  0
LINE
  5
8F
330
88
100
AcDbEntity
  8
2
 62
     7
420
 16777215
100
AcDbLine
 10
133.2045618917
 20
110.47583653
 30
0.0
 11
128.2045618917
 21
110.47583653
 31
0.0
  0
LINE
  5
90
330
88
100
AcDbEntity
  8
2
 62
     7
420
 16777215
100
AcDbLine
 10
133.2045618917
 20
110.47583653
 30
0.0
 11
143.2025816956
 21
110.47583653
 31
0.0
  0
LINE
  5
91
330
88
100
AcDbEntity
  8
2
 62
     7
420
 16777215
100
AcDbLine
 10
143.2025816956
 20
110.47583653
 30
0.0
 11
148.2025816956
 21
110.47583653
 31
0.0
  0
MTEXT
  5
92
330
88
100
AcDbEntity
  8
2
 62
     7
420
 16777215
100
AcDbMText
 10
134.1955855126
 20
114.9875734446
 30
46.5161989144
 40
3.5
 41
0.0
 46
0.0
 71
     1
 72
     1
  1
10
  7
SLDTEXTSTYLE0
 73
     1
 44
1.0
  0
ENDBLK
  5
8A
330
88
100
AcDbEntity
  8
0
100
AcDbBlockEnd
  0
BLOCK
  5
FF
330
FE
100
AcDbEntity
  8
0
100
AcDbBlockBegin
  2
_D_2
 70
     0
 10
0.0
 20
0.0
 30
0.0
  3
_D_2
  1

  0
SOLID
  5
101
330
FE
100
AcDbEntity
  8
2
 62
     7
420
 16777215
100
AcDbTrace
 10
83.2120757286
 20
79.8812939422
 30
0.0
 11
79.9100757286
 21
80.3892939422
 31
0.0
 12
79.9100757286
 22
79.3732939422
 32
0.0
 13
79.9100757286
 23
79.3732939422
 33
0.0
  0
SOLID
  5
102
330
FE
100
AcDbEntity
  8
2
 62
     7
420
 16777215
100
AcDbTrace
 10
87.4896577323
 20
79.8812939422
 30
0.0
 11
90.7916577323
 21
79.3732939422
 31
0.0
 12
90.7916577323
 22
80.3892939422
 32
0.0
 13
90.7916577323
 23
80.3892939422
 33
0.0
  0
LINE
  5
103
330
FE
100
AcDbEntity
  8
2
 62
     7
420
 16777215
100
AcDbLine
 10
83.2120757286
 20
84.9971651936
 30
0.0
 11
83.2120757286
 21
78.8812939422
 31
0.0
  0
LINE
  5
104
330
FE
100
AcDbEntity
  8
2
 62
     7
420
 16777215
100
AcDbLine
 10
87.4896577323
 20
84.9971651936
 30
0.0
 11
87.4896577323
 21
78.8812939422
 31
0.0
  0
LINE
  5
105
330
FE
100
AcDbEntity
  8
2
 62
     7
420
 16777215
100
AcDbLine
 10
83.2120757286
 20
79.8812939422
 30
0.0
 11
66.4457560998
 21
79.8812939422
 31
0.0
  0
LINE
  5
106
330
FE
100
AcDbEntity
  8
2
 62
     7
420
 16777215
100
AcDbLine
 10
83.2120757286
 20
79.8812939422
 30
0.0
 11
87.4896577323
 21
79.8812939422
 31
0.0
  0
LINE
  5
107
330
FE
100
AcDbEntity
  8
2
 62
     7
420
 16777215
100
AcDbLine
 10
87.4896577323
 20
79.8812939422
 30
0.0
 11
92.4896577323
 21
79.8812939422
 31
0.0
  0
MTEXT
  5
108
330
FE
100
AcDbEntity
  8
2
 62
     7
420
 16777215
100
AcDbMText
 10
66.4457560998
 20
84.3930308568
 30
-4.755
 40
3.5
 41
0.0
 46
0.0
 71
     1
 72
     1
  1
4,28
  7
SLDTEXTSTYLE0
 73
     1
 44
1.0
  0
ENDBLK
  5
100
330
FE
100
AcDbEntity
  8
0
100
AcDbBlockEnd
  0
ENDSEC
  0
SECTION
  2
ENTITIES
  0
CIRCLE
  5
48
330
1F
100
AcDbEntity
  8
0
  6
SLD-Punktstrich
 62
     7
100
AcDbCircle
 10
143.2025816956
 20
97.8467952703
 30
0.0
 40
6.59999999999998
  0
CIRCLE
  5
49
330
1F
100
AcDbEntity
  8
0
  6
SLD-Punktstrich
 62
     7
100
AcDbCircle
 10
143.2025816956
 20
97.8467952703
 30
0.0
 40
11.97999999999997
  0
POINT
  5
4A
330
1F
100
AcDbEntity
  8
1
 62
     4
420
    65535
100
AcDbPoint
 10
143.2025816956
 20
97.8467952703
 30
0.0
  0
POINT
  5
4B
330
1F
100
AcDbEntity
  8
1
 62
     4
420
    65535
100
AcDbPoint
 10
143.2025816956
 20
97.8467952703
 30
0.0
  0
POINT
  5
4C
330
1F
100
AcDbEntity
  8
1
 62
     4
420
    65535
100
AcDbPoint
 10
143.2025816956
 20
97.8467952703
 30
0.0
  0
LINE
  5
4D
330
1F
100
AcDbEntity
  8
1
 62
     4
420
    65535
100
AcDbLine
 10
145.0233098319
 20
87.800388909
 30
0.0
 11
142.4858239326
 21
85.8882561325
 31
0.0
  0
SPLINE
  5
4E
330
1F
100
AcDbEntity
  8
1
 62
     4
420
    65535
100
AcDbSpline
210
0.0
220
0.0
230
1.0
 70
     8
 71
     3
 72
    20
 73
    16
 74
     0
 42
0.00000001
 43
0.00000001
 12
1.0
 22
0.0
 32
0.0
 13
1.0
 23
0.0
 33
0.0
 40
0.0
 40
0.0
 40
0.0
 40
0.0
 40
0.00003132636467
 40
0.00003132636467
 40
0.00003132636467
 40
0.000062592101667
 40
0.000062592101667
 40
0.000062592101667
 40
0.0000947782491273
 40
0.0000947782491273
 40
0.0000947782491273
 40
0.0001294465417447
 40
0.0001294465417447
 40
0.0001294465417447
 40
0.0001681306373145
 40
0.0001681306373145
 40
0.0001681306373145
 40
0.0001681306373145
 10
142.4858239326391
 20
85.88825613254781
 30
0.0
 10
142.4858239326391
 20
85.88825613254781
 30
0.0
 10
142.4853972807722
 20
85.8900499705861
 30
0.0
 10
142.4845838703666
 20
85.89345319394772
 30
0.0
 10
142.483771323714
 20
85.89685280345796
 30
0.0
 10
142.482553214716
 20
85.90193869520094
 30
0.0
 10
142.4810366367116
 20
85.90822354478256
 30
0.0
 10
142.4794745752459
 20
85.91469688233592
 30
0.0
 10
142.4775584142701
 20
85.92259534095552
 30
0.0
 10
142.4754345495599
 20
85.93126788894966
 30
0.0
 10
142.4731482241205
 20
85.94060382593676
 30
0.0
 10
142.4705648338103
 20
85.95106513389342
 30
0.0
 10
142.4678703130973
 20
85.96185737824544
 30
0.0
 10
142.4648697147214
 20
85.97387554189105
 30
0.0
 10
142.4616491494153
 20
85.98663110815018
 30
0.0
 10
142.4584656121503
 20
85.99909074146814
 30
0.0
  0
LINE
  5
4F
330
1F
100
AcDbEntity
  8
1
 62
     4
420
    65535
100
AcDbLine
 10
142.4584656122
 20
85.9990907415
 30
0.0
 11
144.7981654636
 21
87.7621810406
 31
0.0
  0
SPLINE
  5
50
330
1F
100
AcDbEntity
  8
1
 62
     4
420
    65535
100
AcDbSpline
210
0.0
220
0.0
230
1.0
 70
     8
 71
     3
 72
    12
 73
     8
 74
     0
 42
0.00000001
 43
0.00000001
 12
1.0
 22
0.0
 32
0.0
 13
1.0
 23
0.0
 33
0.0
 40
0.0
 40
0.0
 40
0.0
 40
0.0
 40
0.4999999999999909
 40
0.4999999999999909
 40
0.7499999999999954
 40
0.7499999999999954
 40
1.0
 40
1.0
 40
1.0
 40
1.0
 10
144.7981654636482
 20
87.76218104058931
 30
0.0
 10
144.8427765395822
 20
87.76923938779149
 30
0.0
 10
144.8863342398752
 20
87.77643604883774
 30
0.0
 10
144.9495052419248
 20
87.78727011821528
 30
0.0
 10
144.9703566850995
 20
87.79091948645102
 30
0.0
 10
145.0063699489442
 20
87.79731696887552
 30
0.0
 10
145.0233098318502
 20
87.80038890897707
 30
0.0
 10
145.0233098318502
 20
87.80038890897707
 30
0.0
  0
LINE
  5
51
330
1F
100
AcDbEntity
  8
1
 62
     4
420
    65535
100
AcDbLine
 10
150.9926607532
 20
104.4467952703
 30
0.0
 11
153.9173592626
 21
103.2053344081
 31
0.0
  0
SPLINE
  5
52
330
1F
100
AcDbEntity
  8
1
 62
     4
420
    65535
100
AcDbSpline
210
0.0
220
0.0
230
1.0
 70
     8
 71
     3
 72
    20
 73
    16
 74
     0
 42
0.00000001
 43
0.00000001
 12
1.0
 22
0.0
 32
0.0
 13
1.0
 23
0.0
 33
0.0
 40
0.0
 40
0.0
 40
0.0
 40
0.0
 40
0.00003132636467
 40
0.00003132636467
 40
0.00003132636467
 40
0.000062592101667
 40
0.000062592101667
 40
0.000062592101667
 40
0.0000947782491273
 40
0.0000947782491273
 40
0.0000947782491273
 40
0.0001294465417447
 40
0.0001294465417447
 40
0.0001294465417447
 40
0.0001681306373145
 40
0.0001681306373145
 40
0.0001681306373145
 40
0.0001681306373145
 10
153.9173592625935
 20
103.2053344080538
 30
0.0
 10
153.9173592625935
 20
103.2053344080538
 30
0.0
 10
153.9160190792155
 20
103.2040679976795
 30
0.0
 10
153.9134785065324
 20
103.2016619519237
 30
0.0
 10
153.9109406316599
 20
103.1992584611257
 30
0.0
 10
153.9071451747085
 20
103.1956606019173
 30
0.0
 10
153.9024606243141
 20
103.1912047820479
 30
0.0
 10
153.8976355802785
 20
103.1866153283597
 30
0.0
 10
153.8917533949511
 20
103.181006654967
 30
0.0
 10
153.8853046804277
 20
103.1748310601767
 30
0.0
 10
153.8783626845484
 20
103.1681830757714
 30
0.0
 10
153.8705946212563
 20
103.1607151401565
 30
0.0
 10
153.8625955238401
 20
103.152985494592
 30
0.0
 10
153.8536877880041
 20
103.1443778183491
 30
0.0
 10
153.8442514262371
 20
103.1352109438499
 30
0.0
 10
153.8350528358944
 20
103.1262241030456
 30
0.0
  0
LINE
  5
53
330
1F
100
AcDbEntity
  8
1
 62
     4
420
    65535
100
AcDbLine
 10
153.8350528359
 20
103.126224103
 30
0.0
 11
151.1383219219
 21
104.2709184621
 31
0.0
  0
SPLINE
  5
54
330
1F
100
AcDbEntity
  8
1
 62
     4
420
    65535
100
AcDbSpline
210
0.0
220
0.0
230
1.0
 70
     8
 71
     3
 72
    12
 73
     8
 74
     0
 42
0.00000001
 43
0.00000001
 12
1.0
 22
0.0
 32
0.0
 13
1.0
 23
0.0
 33
0.0
 40
0.0
 40
0.0
 40
0.0
 40
0.0
 40
0.4999999999999898
 40
0.4999999999999898
 40
0.7499999999999949
 40
0.7499999999999949
 40
1.0
 40
1.0
 40
1.0
 40
1.0
 10
151.1383219219405
 20
104.2709184621128
 30
0.0
 10
151.1099036759878
 20
104.3060236135607
 30
0.0
 10
151.0818923345528
 20
104.3401473580218
 30
0.0
 10
151.0409242542207
 20
104.3894380158904
 30
0.0
 10
151.0273380870334
 20
104.4056712112675
 30
0.0
 10
151.0037910728112
 20
104.4336608714179
 30
0.0
 10
150.9926607531913
 20
104.4467952703008
 30
0.0
 10
150.9926607531913
 20
104.4467952703008
 30
0.0
  0
LINE
  5
55
330
1F
100
AcDbEntity
  8
1
 62
     4
420
    65535
100
AcDbLine
 10
133.5917745019
 20
101.2932016316
 30
0.0
 11
133.2045618917
 21
104.4467952703
 31
0.0
  0
SPLINE
  5
56
330
1F
100
AcDbEntity
  8
1
 62
     4
420
    65535
100
AcDbSpline
210
0.0
220
0.0
230
1.0
 70
     8
 71
     3
 72
    20
 73
    16
 74
     0
 42
0.00000001
 43
0.00000001
 12
1.0
 22
0.0
 32
0.0
 13
1.0
 23
0.0
 33
0.0
 40
0.0
 40
0.0
 40
0.0
 40
0.0
 40
0.00003132636467
 40
0.00003132636467
 40
0.00003132636467
 40
0.000062592101667
 40
0.000062592101667
 40
0.000062592101667
 40
0.0000947782491273
 40
0.0000947782491273
 40
0.0000947782491273
 40
0.0001294465417447
 40
0.0001294465417447
 40
0.0001294465417447
 40
0.0001681306373145
 40
0.0001681306373145
 40
0.0001681306373145
 40
0.0001681306373145
 10
133.2045618917045
 20
104.4467952703008
 30
0.0
 10
133.2045618917045
 20
104.4467952703008
 30
0.0
 10
133.2063287269494
 20
104.4462678426369
 30
0.0
 10
133.2096827100381
 20
104.445270665031
 30
0.0
 10
133.2130331315632
 20
104.4442745463188
 30
0.0
 10
133.2180466975125
 20
104.4427865137842
 30
0.0
 10
133.2242478259114
 20
104.440957484072
 30
0.0
 10
133.2306349314127
 20
104.4390736002069
 30
0.0
 10
133.2384332777159
 20
104.4367838149799
 30
0.0
 10
133.2470058569495
 20
104.434286861776
 30
0.0
 10
133.2562341782682
 20
104.4315989091943
 30
0.0
 10
133.2665856318706
 20
104.4286055368526
 30
0.0
 10
133.2772792499997
 20
104.425542938065
 30
0.0
 10
133.2891875842116
 20
104.4221324506622
 30
0.0
 10
133.3018445112847
 20
104.4185437589023
 30
0.0
 10
133.3142266388924
 20
104.4150709663887
 30
0.0
  0
LINE
  5
57
330
1F
100
AcDbEntity
  8
1
 62
     4
420
    65535
100
AcDbLine
 10
133.3142266389
 20
104.4150709664
 30
0.0
 11
133.6712577013
 21
101.5072863082
 31
0.0
  0
SPLINE
  5
58
330
1F
100
AcDbEntity
  8
1
 62
     4
420
    65535
100
AcDbSpline
210
0.0
220
0.0
230
1.0
 70
     8
 71
     3
 72
    12
 73
     8
 74
     0
 42
0.00000001
 43
0.00000001
 12
1.0
 22
0.0
 32
0.0
 13
1.0
 23
0.0
 33
0.0
 40
0.0
 40
0.0
 40
0.0
 40
0.0
 40
0.5000000000000017
 40
0.5000000000000017
 40
0.7500000000000008
 40
0.7500000000000008
 40
1.0
 40
1.0
 40
1.0
 40
1.0
 10
133.6712577013483
 20
101.5072863082002
 30
0.0
 10
133.6550648713671
 20
101.4651228095502
 30
0.0
 10
133.6395185125091
 20
101.4238024040429
 30
0.0
 10
133.6173155907916
 20
101.3636776767967
 30
0.0
 10
133.6100503148042
 20
101.3437951131839
 30
0.0
 10
133.5975840651817
 20
101.309407970609
 30
0.0
 10
133.5917745018956
 20
101.2932016316245
 30
0.0
 10
133.5917745018956
 20
101.2932016316245
 30
0.0
  0
ARC
  5
59
330
1F
100
AcDbEntity
  8
1
 62
     4
420
    65535
100
AcDbCircle
 10
143.2025816956
 20
97.8467952703
 30
0.0
 40
10.21006031925434
100
AcDbArc
 50
141.8408219695
 51
158.9907870049
  0
ARC
  5
5A
330
1F
100
AcDbEntity
  8
1
 62
     4
420
    65535
100
AcDbCircle
 10
135.2045618917
 20
111.1549992028
 30
0.0
 40
7.000000000000004
100
AcDbArc
 50
254.3328832018
 51
269.7534389968
  0
ARC
  5
5B
330
1F
100
AcDbEntity
  8
1
 62
     4
420
    65535
100
AcDbCircle
 10
143.2025816956
 20
97.8467952703
 30
0.0
 40
10.21006031925435
100
AcDbArc
 50
21.8408219695
 51
38.9907870049
  0
ARC
  5
5C
330
1F
100
AcDbEntity
  8
1
 62
     4
420
    65535
100
AcDbCircle
 10
158.7268342819
 20
98.1191816342
 30
0.0
 40
7.000000000000007
100
AcDbArc
 50
134.3328832018
 51
149.7534389968
  0
ARC
  5
5D
330
1F
100
AcDbEntity
  8
1
 62
     4
420
    65535
100
AcDbCircle
 10
143.2025816956
 20
97.8467952703
 30
0.0
 40
10.21006031925437
100
AcDbArc
 50
261.8408219695
 51
278.9907870049
  0
ARC
  5
5E
330
1F
100
AcDbEntity
  8
1
 62
     4
420
    65535
100
AcDbCircle
 10
135.6763489133
 20
84.2662049739
 30
0.0
 40
6.999999999999991
100
AcDbArc
 50
14.3328832018
 51
29.7534389968
  0
LINE
  5
5F
330
1F
100
AcDbEntity
  8
1
 62
     4
420
    65535
100
AcDbLine
 10
135.2776512243
 20
98.5337637693
 30
0.0
 11
135.243703334
 21
98.4319769639
 31
0.0
  0
LINE
  5
60
330
1F
100
AcDbEntity
  8
1
 62
     4
420
    65535
100
AcDbLine
 10
135.2805416547
 20
98.3681711208
 30
0.0
 11
135.243703334
 21
98.4319769639
 31
0.0
  0
LINE
  5
61
330
1F
100
AcDbEntity
  8
1
 62
     4
420
    65535
100
AcDbLine
 10
146.5701147596
 20
90.6401199093
 30
0.0
 11
146.675238664
 21
90.6616135767
 31
0.0
  0
LINE
  5
62
330
1F
100
AcDbEntity
  8
1
 62
     4
420
    65535
100
AcDbLine
 10
147.6151264476
 20
104.4467952703
 30
0.0
 11
147.7599791031
 21
104.3665021322
 31
0.0
  0
LINE
  5
63
330
1F
100
AcDbEntity
  8
1
 62
     4
420
    65535
100
AcDbLine
 10
147.7599791031
 20
104.3665021322
 30
0.0
 11
147.6888030889
 21
104.4467952703
 31
0.0
  0
LINE
  5
64
330
1F
100
AcDbEntity
  8
1
 62
     4
420
    65535
100
AcDbLine
 10
147.6151264476
 20
104.4467952703
 30
0.0
 11
137.2045618917
 21
104.4467952703
 31
0.0
  0
LINE
  5
65
330
1F
100
AcDbEntity
  8
1
 62
     4
420
    65535
100
AcDbLine
 10
150.9926607532
 20
104.4467952703
 30
0.0
 11
147.6888030889
 21
104.4467952703
 31
0.0
  0
CIRCLE
  5
66
330
1F
100
AcDbEntity
  8
1
 62
     4
420
    65535
100
AcDbCircle
 10
143.2025816956
 20
97.8467952703
 30
0.0
 40
2.549999999999983
  0
LINE
  5
67
330
1F
100
AcDbEntity
  8
1
 62
     4
420
    65535
100
AcDbLine
 10
146.7120769846
 20
90.7254194198
 30
0.0
 11
146.5701147596
 21
90.6401199093
 31
0.0
  0
LINE
  5
68
330
1F
100
AcDbEntity
  8
1
 62
     4
420
    65535
100
AcDbLine
 10
146.7120769846
 20
90.7254194198
 30
0.0
 11
151.9173592626
 21
99.7412327929
 31
0.0
  0
LINE
  5
69
330
1F
100
AcDbEntity
  8
1
 62
     4
420
    65535
100
AcDbLine
 10
145.0233098319
 20
87.800388909
 30
0.0
 11
146.675238664
 21
90.6616135767
 31
0.0
  0
LINE
  5
6A
330
1F
100
AcDbEntity
  8
1
 62
     4
420
    65535
100
AcDbLine
 10
135.2805416547
 20
98.3681711208
 30
0.0
 11
140.4858239326
 21
89.3523577477
 31
0.0
  0
LINE
  5
6B
330
1F
100
AcDbEntity
  8
1
 62
     4
420
    65535
100
AcDbLine
 10
133.5917745019
 20
101.2932016316
 30
0.0
 11
135.243703334
 21
98.4319769639
 31
0.0
  0
LINE
  5
6C
330
1F
100
AcDbEntity
  8
1
 62
     4
420
    65535
100
AcDbLine
 10
135.2805416547
 20
98.3681711208
 30
0.0
 11
135.2776512243
 21
98.5337637693
 31
0.0
  0
ARC
  5
6D
330
1F
100
AcDbEntity
  8
1
 62
     4
420
    65535
100
AcDbCircle
 10
135.6763489133
 20
84.2662049739
 30
0.0
 40
7.000000000000046
100
AcDbArc
 50
29.7534389968
 51
46.601549599
  0
ARC
  5
6E
330
1F
100
AcDbEntity
  8
1
 62
     4
420
    65535
100
AcDbCircle
 10
135.2045618917
 20
111.1549992028
 30
0.0
 40
6.99999999999999
100
AcDbArc
 50
269.7534389968
 51
286.601549599
  0
ARC
  5
6F
330
1F
100
AcDbEntity
  8
1
 62
     4
420
    65535
100
AcDbCircle
 10
158.7268342819
 20
98.1191816342
 30
0.0
 40
7.00000000000006
100
AcDbArc
 50
149.7534389968
 51
166.601549599
  0
LINE
  5
70
330
1F
100
AcDbEntity
  8
1
 62
     4
420
    65535
100
AcDbLine
 10
147.6151264476
 20
104.4467952703
 30
0.0
 11
147.6888030889
 21
104.4467952703
 31
0.0
  0
LINE
  5
71
330
1F
100
AcDbEntity
  8
1
 62
     4
420
    65535
100
AcDbLine
 10
146.7120769846
 20
90.7254194198
 30
0.0
 11
146.675238664
 21
90.6616135767
 31
0.0
  0
LINE
  5
72
330
1F
100
AcDbEntity
  8
1
  6
SLD-Gestrichelt
 62
   131
420
  8454143
370
     0
100
AcDbLine
 10
150.9926607532
 20
104.4467952703
 30
0.0
 11
151.1383219219
 21
104.2709184621
 31
0.0
  0
LINE
  5
73
330
1F
100
AcDbEntity
  8
1
  6
SLD-Gestrichelt
 62
   131
420
  8454143
370
     0
100
AcDbLine
 10
133.5917745019
 20
101.2932016316
 30
0.0
 11
133.6712577013
 21
101.5072863082
 31
0.0
  0
LINE
  5
74
330
1F
100
AcDbEntity
  8
1
  6
SLD-Gestrichelt
 62
   131
420
  8454143
370
     0
100
AcDbLine
 10
145.0233098319
 20
87.800388909
 30
0.0
 11
144.7981654636
 21
87.7621810406
 31
0.0
  0
LINE
  5
75
330
1F
100
AcDbEntity
  8
1
  6
SLD-Gestrichelt
 62
   131
420
  8454143
370
     0
100
AcDbLine
 10
133.6712577013
 20
101.5072863082
 30
0.0
 11
133.3142266389
 21
104.4150709664
 31
0.0
  0
LINE
  5
76
330
1F
100
AcDbEntity
  8
1
  6
SLD-Gestrichelt
 62
   131
420
  8454143
370
     0
100
AcDbLine
 10
151.1383219219
 20
104.2709184621
 30
0.0
 11
153.8350528359
 21
103.126224103
 31
0.0
  0
LINE
  5
77
330
1F
100
AcDbEntity
  8
1
  6
SLD-Gestrichelt
 62
   131
420
  8454143
370
     0
100
AcDbLine
 10
144.7981654636
 20
87.7621810406
 30
0.0
 11
142.4584656122
 21
85.9990907415
 31
0.0
  0
DIMENSION
  5
78
330
1F
100
AcDbEntity
  8
2
 62
     7
420
 16777215
100
AcDbDimension
  2
_D
 10
149.8025816956
 20
79.8812939422
 30
0.0
 11
121.8515570396
 21
79.8812939422
 31
0.0
 70
   160
  1
%%c<>
 71
     2
 42
-1.0
 73
     0
 74
     0
 75
     0
  3
SLDDIMSTYLE0
100
AcDbAlignedDimension
 13
136.6025816956
 23
97.8467952703
 33
0.0
 14
149.8025816956
 24
97.8467952703
 34
0.0
100
AcDbRotatedDimension
  0
DIMENSION
  5
86
330
1F
100
AcDbEntity
  8
2
 62
     7
420
 16777215
100
AcDbDimension
  2
_D_1
 10
143.2025816956
 20
110.47583653
 30
0.0
 11
138.2035717937
 21
110.47583653
 31
0.0
 70
   160
  1
<>
 71
     2
 42
-1.0
 73
     0
 74
     0
 75
     0
  3
SLDDIMSTYLE1
100
AcDbAlignedDimension
 13
133.2045618917
 23
104.4467952703
 33
0.0
 14
143.2025816956
 24
97.8467952703
 34
0.0
100
AcDbRotatedDimension
  0
LINE
  5
93
330
1F
100
AcDbEntity
  8
1
 62
     4
420
    65535
100
AcDbLine
 10
87.4896361801
 20
103.1342513423
 30
0.0
 11
87.4195482259
 21
104.2880247899
 31
0.0
  0
LINE
  5
94
330
1F
100
AcDbEntity
  8
1
 62
     4
420
    65535
100
AcDbLine
 10
83.2821735286
 20
104.2878320824
 30
0.0
 11
83.2120972399
 21
103.1342506705
 31
0.0
  0
LINE
  5
95
330
1F
100
AcDbEntity
  8
1
 62
     4
420
    65535
100
AcDbLine
 10
83.2119936003
 20
104.4165686512
 30
0.0
 11
83.234026151
 21
103.4952398818
 31
0.0
  0
LINE
  5
96
330
1F
100
AcDbEntity
  8
1
 62
     4
420
    65535
100
AcDbLine
 10
83.2574258057
 20
102.5167433205
 30
0.0
 11
83.2817974785
 21
101.4976001596
 31
0.0
  0
LINE
  5
97
330
1F
100
AcDbEntity
  8
1
 62
     4
420
    65535
100
AcDbLine
 10
87.4199298671
 20
101.4973444425
 30
0.0
 11
87.4443076552
 21
102.5167433205
 31
0.0
  0
LINE
  5
98
330
1F
100
AcDbEntity
  8
1
 62
     4
420
    65535
100
AcDbLine
 10
87.4677073099
 20
103.4952398818
 30
0.0
 11
87.4897398383
 21
104.416567719
 31
0.0
  0
LINE
  5
99
330
1F
100
AcDbEntity
  8
1
 62
     4
420
    65535
100
AcDbLine
 10
87.3907255438
 20
103.2053344081
 30
0.0
 11
87.3153108667
 21
104.4467952703
 31
0.0
  0
SPLINE
  5
9A
330
1F
100
AcDbEntity
  8
1
 62
     4
420
    65535
100
AcDbSpline
210
0.0
220
0.0
230
1.0
 70
     8
 71
     3
 72
    12
 73
     8
 74
     0
 42
0.00000001
 43
0.00000001
 12
1.0
 22
0.0
 32
0.0
 13
1.0
 23
0.0
 33
0.0
 40
0.0
 40
0.0
 40
0.0
 40
0.0
 40
0.0673387322340693
 40
0.1522351466810784
 40
0.2912502710434684
 40
0.5673262748569373
 40
1.0
 40
1.0
 40
1.0
 40
1.0
 10
87.31531086668446
 20
104.4467952703008
 30
0.0
 10
87.32088714215983
 20
104.4463109183275
 30
0.0
 10
87.33349363305693
 20
104.4452159260212
 30
0.0
 10
87.35438414573748
 20
104.4350634425214
 30
0.0
 10
87.38113166945753
 20
104.4107348780287
 30
0.0
 10
87.40988077022458
 20
104.3606086229638
 30
0.0
 10
87.41426870054588
 20
104.3151270212528
 30
0.0
 10
87.41694742066416
 20
104.2873616574949
 30
0.0
  0
SPLINE
  5
9B
330
1F
100
AcDbEntity
  8
1
 62
     4
420
    65535
100
AcDbSpline
210
0.0
220
0.0
230
1.0
 70
     8
 71
     3
 72
    20
 73
    16
 74
     0
 42
0.00000001
 43
0.00000001
 12
1.0
 22
0.0
 32
0.0
 13
1.0
 23
0.0
 33
0.0
 40
0.0
 40
0.0
 40
0.0
 40
0.0
 40
0.0000389438295027
 40
0.0000389438295027
 40
0.0000389438295027
 40
0.0000779789956326
 40
0.0000779789956326
 40
0.0000779789956326
 40
0.0001153943165023
 40
0.0001153943165023
 40
0.0001153943165023
 40
0.000149659102564
 40
0.000149659102564
 40
0.000149659102564
 40
0.0001680096531262
 40
0.0001680096531262
 40
0.0001680096531262
 40
0.0001680096531262
 10
87.48956493484826
 20
103.1262241030456
 30
0.0
 10
87.49028016450306
 20
103.13528197576
 30
0.0
 10
87.48880737531579
 20
103.1445237808489
 30
0.0
 10
87.48521864396162
 20
103.1531924160437
 30
0.0
 10
87.48162531063268
 20
103.1618721673785
 30
0.0
 10
87.47579255335056
 20
103.1702315818323
 30
0.0
 10
87.46809964747348
 20
103.1774737589437
 30
0.0
 10
87.4607299417922
 20
103.1844116722181
 30
0.0
 10
87.45140623690365
 20
103.1905334946657
 30
0.0
 10
87.44091062839915
 20
103.1951471713999
 30
0.0
 10
87.43128724467736
 20
103.1993774341391
 30
0.0
 10
87.4203774149909
 20
103.2024629802499
 30
0.0
 10
87.40919414297147
 20
103.2040427036527
 30
0.0
 10
87.40313284442023
 20
103.2048989088095
 30
0.0
 10
87.3969135487346
 20
103.2053344080539
 30
0.0
 10
87.39072554382246
 20
103.2053344080539
 30
0.0
  0
LINE
  5
9C
330
1F
100
AcDbEntity
  8
1
 62
     4
420
    65535
100
AcDbLine
 10
83.3864225942
 20
104.4467952703
 30
0.0
 11
83.311007917
 21
103.2053344081
 31
0.0
  0
SPLINE
  5
9D
330
1F
100
AcDbEntity
  8
1
 62
     4
420
    65535
100
AcDbSpline
210
0.0
220
0.0
230
1.0
 70
     8
 71
     3
 72
    20
 73
    16
 74
     0
 42
0.00000001
 43
0.00000001
 12
1.0
 22
0.0
 32
0.0
 13
1.0
 23
0.0
 33
0.0
 40
0.0
 40
0.0
 40
0.0
 40
0.0
 40
0.00003132636467
 40
0.00003132636467
 40
0.00003132636467
 40
0.000062592101667
 40
0.000062592101667
 40
0.000062592101667
 40
0.0000947782491273
 40
0.0000947782491273
 40
0.0000947782491273
 40
0.0001294465417447
 40
0.0001294465417447
 40
0.0001294465417447
 40
0.0001681306373145
 40
0.0001681306373145
 40
0.0001681306373145
 40
0.0001681306373145
 10
83.31100791704736
 20
103.2053344080538
 30
0.0
 10
83.3005657954907
 20
103.2053344080538
 30
0.0
 10
83.28997896820867
 20
103.2040679976795
 30
0.0
 10
83.28014055691072
 20
103.2016619519237
 30
0.0
 10
83.27031259293067
 20
103.1992584611257
 30
0.0
 10
83.26096739761701
 20
103.1956606019173
 30
0.0
 10
83.25278161055826
 20
103.1912047820479
 30
0.0
 10
83.24435032479985
 20
103.1866153283597
 30
0.0
 10
83.23692936597429
 20
103.1810066549671
 30
0.0
 10
83.23095384719983
 20
103.1748310601767
 30
0.0
 10
83.22452124321987
 20
103.1681830757714
 30
0.0
 10
83.21959698912302
 20
103.1607151401565
 30
0.0
 10
83.21642958997252
 20
103.152985494592
 30
0.0
 10
83.21290239765924
 20
103.1443778183491
 30
0.0
 10
83.2114589052034
 20
103.1352109438499
 30
0.0
 10
83.21216852602154
 20
103.1262241030456
 30
0.0
  0
SPLINE
  5
9E
330
1F
100
AcDbEntity
  8
1
 62
     4
420
    65535
100
AcDbSpline
210
0.0
220
0.0
230
1.0
 70
     8
 71
     3
 72
    13
 73
     9
 74
     0
 42
0.00000001
 43
0.00000001
 12
1.0
 22
0.0
 32
0.0
 13
1.0
 23
0.0
 33
0.0
 40
0.0
 40
0.0
 40
0.0
 40
0.0
 40
0.5086852783165736
 40
0.6615108062115025
 40
0.8150904650449633
 40
0.897770317682251
 40
0.9813160018005187
 40
1.0
 40
1.0
 40
1.0
 40
1.0
 10
83.28521910972661
 20
104.2869031765438
 30
0.0
 10
83.28848846306441
 20
104.3198522825189
 30
0.0
 10
83.29274003600051
 20
104.3627003667601
 30
0.0
 10
83.32155168069326
 20
104.4097127816657
 30
0.0
 10
83.34051424721441
 20
104.4299948361311
 30
0.0
 10
83.3615341194098
 20
104.4425002772096
 30
0.0
 10
83.37642862652004
 20
104.4465511160875
 30
0.0
 10
83.38487829189411
 20
104.4467575427512
 30
0.0
 10
83.38642259418536
 20
104.4467952703008
 30
0.0
  0
LINE
  5
9F
330
1F
100
AcDbEntity
  8
1
 62
     4
420
    65535
100
AcDbLine
 10
83.3864225942
 20
104.4467952703
 30
0.0
 11
83.4178667304
 21
104.4467952703
 31
0.0
  0
LINE
  5
A0
330
1F
100
AcDbEntity
  8
1
 62
     4
420
    65535
100
AcDbLine
 10
83.4178667304
 20
104.4467952703
 30
0.0
 11
87.2838667304
 21
104.4467952703
 31
0.0
  0
LINE
  5
A1
330
1F
100
AcDbEntity
  8
1
 62
     4
420
    65535
100
AcDbLine
 10
87.2838667304
 20
104.4467952703
 30
0.0
 11
87.3153108667
 21
104.4467952703
 31
0.0
  0
LINE
  5
A2
330
1F
100
AcDbEntity
  8
1
 62
     4
420
    65535
100
AcDbLine
 10
83.311007917
 20
103.2053344081
 30
0.0
 11
87.3907255438
 21
103.2053344081
 31
0.0
  0
LINE
  5
A3
330
1F
100
AcDbEntity
  8
1
 62
     4
420
    65535
100
AcDbLine
 10
87.2838667304
 20
101.6452365244
 30
0.0
 11
87.387530676
 21
101.6452365244
 31
0.0
  0
LINE
  5
A4
330
1F
100
AcDbEntity
  8
1
 62
     4
420
    65535
100
AcDbLine
 10
87.2838667304
 20
99.7412327929
 30
0.0
 11
87.2838667304
 21
101.6452365244
 31
0.0
  0
LINE
  5
A5
330
1F
100
AcDbEntity
  8
1
 62
     4
420
    65535
100
AcDbLine
 10
83.4178667304
 20
99.7412327929
 30
0.0
 11
87.2838667304
 21
99.7412327929
 31
0.0
  0
LINE
  5
A6
330
1F
100
AcDbEntity
  8
1
 62
     4
420
    65535
100
AcDbLine
 10
83.4178667304
 20
99.7412327929
 30
0.0
 11
83.4178667304
 21
101.6452365244
 31
0.0
  0
LINE
  5
A7
330
1F
100
AcDbEntity
  8
1
 62
     4
420
    65535
100
AcDbLine
 10
83.3142027848
 20
101.6452365244
 30
0.0
 11
83.4178667304
 21
101.6452365244
 31
0.0
  0
ELLIPSE
  5
A8
330
1F
100
AcDbEntity
  8
1
 62
     4
420
    65535
100
AcDbEllipse
 10
83.1934294629
 20
98.1191816342
 30
0.0
 11
-0.2569670054640056
 21
6.999991960581696
 31
0.0
210
0.0
220
0.0
230
1.0
 40
0.041285623
 41
5.238775479155803
 42
5.507914950266564
  0
ELLIPSE
  5
A9
330
1F
100
AcDbEntity
  8
1
 62
     4
420
    65535
100
AcDbEllipse
 10
87.508303998
 20
98.1191816342
 30
0.0
 11
0.2569670054640056
 21
6.999991960581696
 31
0.0
210
0.0
220
0.0
230
1.0
 40
0.041285623
 41
0.7752703569132279
 42
1.044409828023868
  0
LINE
  5
AA
330
1F
100
AcDbEntity
  8
1
 62
     4
420
    65535
100
AcDbLine
 10
87.2808208523
 20
90.7254194198
 30
0.0
 11
87.2838667304
 21
90.7254194198
 31
0.0
  0
LINE
  5
AB
330
1F
100
AcDbEntity
  8
1
 62
     4
420
    65535
100
AcDbLine
 10
87.2838667304
 20
90.6616135767
 30
0.0
 11
87.2808208523
 21
90.7254194198
 31
0.0
  0
LINE
  5
AC
330
1F
100
AcDbEntity
  8
1
 62
     4
420
    65535
100
AcDbLine
 10
83.4178667304
 20
87.800388909
 30
0.0
 11
87.2838667304
 21
87.800388909
 31
0.0
  0
LINE
  5
AD
330
1F
100
AcDbEntity
  8
1
 62
     4
420
    65535
100
AcDbLine
 10
83.4209126086
 20
90.7254194198
 30
0.0
 11
83.4178667304
 21
90.6616135767
 31
0.0
  0
LINE
  5
AE
330
1F
100
AcDbEntity
  8
1
 62
     4
420
    65535
100
AcDbLine
 10
83.4178667304
 20
90.7254194198
 30
0.0
 11
83.4209126086
 21
90.7254194198
 31
0.0
  0
LINE
  5
AF
330
1F
100
AcDbEntity
  8
1
 62
     4
420
    65535
100
AcDbLine
 10
83.4178667304
 20
90.7254194198
 30
0.0
 11
83.4178667304
 21
99.7412327929
 31
0.0
  0
LINE
  5
B0
330
1F
100
AcDbEntity
  8
1
 62
     4
420
    65535
100
AcDbLine
 10
83.4178667304
 20
87.800388909
 30
0.0
 11
83.4178667304
 21
90.6616135767
 31
0.0
  0
LINE
  5
B1
330
1F
100
AcDbEntity
  8
1
 62
     4
420
    65535
100
AcDbLine
 10
87.2838667304
 20
87.800388909
 30
0.0
 11
87.2838667304
 21
90.6616135767
 31
0.0
  0
LINE
  5
B2
330
1F
100
AcDbEntity
  8
1
 62
     4
420
    65535
100
AcDbLine
 10
87.2838667304
 20
90.7254194198
 30
0.0
 11
87.2838667304
 21
99.7412327929
 31
0.0
  0
LINE
  5
B3
330
1F
100
AcDbEntity
  8
1
 62
     4
420
    65535
100
AcDbLine
 10
87.2838667304
 20
90.7254194198
 30
0.0
 11
87.2838667304
 21
90.6616135767
 31
0.0
  0
LINE
  5
B4
330
1F
100
AcDbEntity
  8
1
 62
     4
420
    65535
100
AcDbLine
 10
83.4178667304
 20
90.7254194198
 30
0.0
 11
83.4178667304
 21
90.6616135767
 31
0.0
  0
LINE
  5
B5
330
1F
100
AcDbEntity
  8
1
 62
     4
420
    65535
100
AcDbLine
 10
83.3864225942
 20
87.800388909
 30
0.0
 11
83.311007917
 21
85.8882561325
 31
0.0
  0
SPLINE
  5
B6
330
1F
100
AcDbEntity
  8
1
 62
     4
420
    65535
100
AcDbSpline
210
0.0
220
0.0
230
1.0
 70
     8
 71
     3
 72
    20
 73
    16
 74
     0
 42
0.00000001
 43
0.00000001
 12
1.0
 22
0.0
 32
0.0
 13
1.0
 23
0.0
 33
0.0
 40
0.0
 40
0.0
 40
0.0
 40
0.0
 40
0.00003132636467
 40
0.00003132636467
 40
0.00003132636467
 40
0.000062592101667
 40
0.000062592101667
 40
0.000062592101667
 40
0.0000947782491273
 40
0.0000947782491273
 40
0.0000947782491273
 40
0.0001294465417447
 40
0.0001294465417447
 40
0.0001294465417447
 40
0.0001681306373145
 40
0.0001681306373145
 40
0.0001681306373145
 40
0.0001681306373145
 10
83.31100791704736
 20
85.88825613254781
 30
0.0
 10
83.3005657954907
 20
85.88825613254781
 30
0.0
 10
83.28997896820867
 20
85.8900499705861
 30
0.0
 10
83.28014055691072
 20
85.89345319394772
 30
0.0
 10
83.27031259293067
 20
85.89685280345797
 30
0.0
 10
83.26096739761701
 20
85.90193869520094
 30
0.0
 10
83.25278161055826
 20
85.90822354478256
 30
0.0
 10
83.24435032479985
 20
85.91469688233592
 30
0.0
 10
83.23692936597429
 20
85.92259534095552
 30
0.0
 10
83.23095384719983
 20
85.93126788894966
 30
0.0
 10
83.22452124321987
 20
85.94060382593676
 30
0.0
 10
83.21959698912302
 20
85.95106513389342
 30
0.0
 10
83.21642958997252
 20
85.96185737824544
 30
0.0
 10
83.21290239765924
 20
85.97387554189106
 30
0.0
 10
83.2114589052034
 20
85.98663110815018
 30
0.0
 10
83.21216852602154
 20
85.99909074146814
 30
0.0
  0
LINE
  5
B7
330
1F
100
AcDbEntity
  8
1
 62
     4
420
    65535
100
AcDbLine
 10
83.212168526
 20
85.9990907415
 30
0.0
 11
83.2817049553
 21
87.7621810406
 31
0.0
  0
SPLINE
  5
B8
330
1F
100
AcDbEntity
  8
1
 62
     4
420
    65535
100
AcDbSpline
210
0.0
220
0.0
230
1.0
 70
     8
 71
     3
 72
    12
 73
     8
 74
     0
 42
0.00000001
 43
0.00000001
 12
1.0
 22
0.0
 32
0.0
 13
1.0
 23
0.0
 33
0.0
 40
0.0
 40
0.0
 40
0.0
 40
0.0
 40
0.4999999999999909
 40
0.4999999999999909
 40
0.7499999999999954
 40
0.7499999999999954
 40
1.0
 40
1.0
 40
1.0
 40
1.0
 10
83.28170495534924
 20
87.76218104058933
 30
0.0
 10
83.28159330169699
 20
87.76923938779149
 30
0.0
 10
83.28746593811584
 20
87.77643604883774
 30
0.0
 10
83.30881324248381
 20
87.78727011821528
 30
0.0
 10
83.31816021448039
 20
87.79091948645102
 30
0.0
 10
83.34456080193425
 20
87.79731696887552
 30
0.0
 10
83.36344437186645
 20
87.80038890897707
 30
0.0
 10
83.38642259418536
 20
87.80038890897707
 30
0.0
  0
LINE
  5
B9
330
1F
100
AcDbEntity
  8
1
 62
     4
420
    65535
100
AcDbLine
 10
87.3907255438
 20
85.8882561325
 30
0.0
 11
87.3153108667
 21
87.800388909
 31
0.0
  0
SPLINE
  5
BA
330
1F
100
AcDbEntity
  8
1
 62
     4
420
    65535
100
AcDbSpline
210
0.0
220
0.0
230
1.0
 70
     8
 71
     3
 72
    12
 73
     8
 74
     0
 42
0.00000001
 43
0.00000001
 12
1.0
 22
0.0
 32
0.0
 13
1.0
 23
0.0
 33
0.0
 40
0.0
 40
0.0
 40
0.0
 40
0.0
 40
0.2500000000000061
 40
0.2500000000000061
 40
0.5000000000000121
 40
0.5000000000000121
 40
1.0
 40
1.0
 40
1.0
 40
1.0
 10
87.31531086668446
 20
87.80038890897707
 30
0.0
 10
87.3382927356331
 20
87.80038890897707
 30
0.0
 10
87.35709628348202
 20
87.79733454501954
 30
0.0
 10
87.3836250524122
 20
87.7909078631822
 30
0.0
 10
87.39275393823972
 20
87.78734053138957
 30
0.0
 10
87.41423272068727
 20
87.77648130827288
 30
0.0
 10
87.42014006771086
 20
87.76923360589106
 30
0.0
 10
87.42002850552056
 20
87.76218104058933
 30
0.0
  0
LINE
  5
BB
330
1F
100
AcDbEntity
  8
1
 62
     4
420
    65535
100
AcDbLine
 10
87.4200285055
 20
87.7621810406
 30
0.0
 11
87.4895649348
 21
85.9990907415
 31
0.0
  0
SPLINE
  5
BC
330
1F
100
AcDbEntity
  8
1
 62
     4
420
    65535
100
AcDbSpline
210
0.0
220
0.0
230
1.0
 70
     8
 71
     3
 72
    20
 73
    16
 74
     0
 42
0.00000001
 43
0.00000001
 12
1.0
 22
0.0
 32
0.0
 13
1.0
 23
0.0
 33
0.0
 40
0.0
 40
0.0
 40
0.0
 40
0.0
 40
0.0000389438295027
 40
0.0000389438295027
 40
0.0000389438295027
 40
0.0000779789956326
 40
0.0000779789956326
 40
0.0000779789956326
 40
0.0001153943165023
 40
0.0001153943165023
 40
0.0001153943165023
 40
0.000149659102564
 40
0.000149659102564
 40
0.000149659102564
 40
0.0001680096531262
 40
0.0001680096531262
 40
0.0001680096531262
 40
0.0001680096531262
 10
87.48956493484826
 20
85.99909074146814
 30
0.0
 10
87.49028016450306
 20
85.98653262731881
 30
0.0
 10
87.48880737531579
 20
85.9736724004215
 30
0.0
 10
87.48521864396162
 20
85.96156846359017
 30
0.0
 10
87.4816253106327
 20
85.94944900539315
 30
0.0
 10
87.47579255335056
 20
85.93773291182214
 30
0.0
 10
87.4680996474735
 20
85.9275553720571
 30
0.0
 10
87.4607299417922
 20
85.91780541881099
 30
0.0
 10
87.45140623690365
 20
85.90917432636653
 30
0.0
 10
87.44091062839917
 20
85.90265993977516
 30
0.0
 10
87.43128724467736
 20
85.89668692336036
 30
0.0
 10
87.4203774149909
 20
85.8923205353965
 30
0.0
 10
87.40919414297149
 20
85.89008466867104
 30
0.0
 10
87.40313284442024
 20
85.88887283588004
 30
0.0
 10
87.39691354873462
 20
85.88825613254775
 30
0.0
 10
87.39072554382246
 20
85.88825613254775
 30
0.0
  0
LINE
  5
BD
330
1F
100
AcDbEntity
  8
1
 62
     4
420
    65535
100
AcDbLine
 10
87.2838667304
 20
87.800388909
 30
0.0
 11
87.3153108667
 21
87.800388909
 31
0.0
  0
LINE
  5
BE
330
1F
100
AcDbEntity
  8
1
 62
     4
420
    65535
100
AcDbLine
 10
83.3864225942
 20
87.800388909
 30
0.0
 11
83.4178667304
 21
87.800388909
 31
0.0
  0
LINE
  5
BF
330
1F
100
AcDbEntity
  8
1
 62
     4
420
    65535
100
AcDbLine
 10
83.311007917
 20
85.8882561325
 30
0.0
 11
87.3907255438
 21
85.8882561325
 31
0.0
  0
SPLINE
  5
C0
330
1F
100
AcDbEntity
  8
1
 62
     4
420
    65535
100
AcDbSpline
210
0.0
220
0.0
230
1.0
 70
     8
 71
     3
 72
    20
 73
    16
 74
     0
 42
0.00000001
 43
0.00000001
 12
1.0
 22
0.0
 32
0.0
 13
1.0
 23
0.0
 33
0.0
 40
0.0
 40
0.0
 40
0.0
 40
0.0
 40
0.0000389438295027
 40
0.0000389438295027
 40
0.0000389438295027
 40
0.0000779789956326
 40
0.0000779789956326
 40
0.0000779789956326
 40
0.0001153943165023
 40
0.0001153943165023
 40
0.0001153943165023
 40
0.000149659102564
 40
0.000149659102564
 40
0.000149659102564
 40
0.0001680096531262
 40
0.0001680096531262
 40
0.0001680096531262
 40
0.0001680096531262
 10
87.48956493484826
 20
104.4150709663887
 30
0.0
 10
87.49028016450306
 20
104.4185712078236
 30
0.0
 10
87.48880737531579
 20
104.422189629632
 30
0.0
 10
87.48521864396162
 20
104.4256249312686
 30
0.0
 10
87.48162531063268
 20
104.4290646381308
 30
0.0
 10
87.47579255335056
 20
104.432421317248
 30
0.0
 10
87.4680996474735
 20
104.4353566799016
 30
0.0
 10
87.4607299417922
 20
104.4381687198733
 30
0.0
 10
87.45140623690365
 20
104.4406779898703
 30
0.0
 10
87.44091062839915
 20
104.4425786997274
 30
0.0
 10
87.43128724467736
 20
104.444321453403
 30
0.0
 10
87.4203774149909
 20
104.4456022952561
 30
0.0
 10
87.40919414297147
 20
104.4462584385787
 30
0.0
 10
87.40313284442023
 20
104.4466140662129
 30
0.0
 10
87.3969135487346
 20
104.4467952703008
 30
0.0
 10
87.39072554382246
 20
104.4467952703008
 30
0.0
  0
ELLIPSE
  5
C1
330
1F
100
AcDbEntity
  8
1
 62
     4
420
    65535
100
AcDbEllipse
 10
87.508303998
 20
111.1549992028
 30
0.0
 11
0.122689957637931
 21
6.999997048685116
 31
0.0
210
0.0
220
0.0
230
1.0
 40
0.0523917287
 41
3.248016411963356
 42
3.415953703138901
  0
ELLIPSE
  5
C2
330
1F
100
AcDbEntity
  8
1
 62
     4
420
    65535
100
AcDbEllipse
 10
83.1934294629
 20
111.1549992028
 30
0.0
 11
-0.1226899576379168
 21
6.999997048685132
 31
0.0
210
0.0
220
0.0
230
1.0
 40
0.0523917287
 41
2.867231604040942
 42
3.03516889521623
  0
SPLINE
  5
C3
330
1F
100
AcDbEntity
  8
1
 62
     4
420
    65535
100
AcDbSpline
210
0.0
220
0.0
230
1.0
 70
     8
 71
     3
 72
    20
 73
    16
 74
     0
 42
0.00000001
 43
0.00000001
 12
1.0
 22
0.0
 32
0.0
 13
1.0
 23
0.0
 33
0.0
 40
0.0
 40
0.0
 40
0.0
 40
0.0
 40
0.00003132636467
 40
0.00003132636467
 40
0.00003132636467
 40
0.000062592101667
 40
0.000062592101667
 40
0.000062592101667
 40
0.0000947782491273
 40
0.0000947782491273
 40
0.0000947782491273
 40
0.0001294465417447
 40
0.0001294465417447
 40
0.0001294465417447
 40
0.0001681306373145
 40
0.0001681306373145
 40
0.0001681306373145
 40
0.0001681306373145
 10
83.31100791704736
 20
104.4467952703008
 30
0.0
 10
83.3005657954907
 20
104.4467952703008
 30
0.0
 10
83.28997896820867
 20
104.4462678426369
 30
0.0
 10
83.28014055691072
 20
104.445270665031
 30
0.0
 10
83.27031259293067
 20
104.4442745463188
 30
0.0
 10
83.26096739761701
 20
104.4427865137842
 30
0.0
 10
83.25278161055826
 20
104.440957484072
 30
0.0
 10
83.24435032479985
 20
104.4390736002069
 30
0.0
 10
83.23692936597429
 20
104.4367838149799
 30
0.0
 10
83.23095384719983
 20
104.434286861776
 30
0.0
 10
83.22452124321987
 20
104.4315989091943
 30
0.0
 10
83.21959698912302
 20
104.4286055368526
 30
0.0
 10
83.21642958997252
 20
104.425542938065
 30
0.0
 10
83.21290239765924
 20
104.4221324506622
 30
0.0
 10
83.2114589052034
 20
104.4185437589023
 30
0.0
 10
83.21216852602154
 20
104.4150709663887
 30
0.0
  0
LINE
  5
C4
330
1F
100
AcDbEntity
  8
1
 62
     4
420
    65535
100
AcDbLine
 10
83.311007917
 20
104.4467952703
 30
0.0
 11
83.3864225942
 21
104.4467952703
 31
0.0
  0
LINE
  5
C5
330
1F
100
AcDbEntity
  8
1
 62
     4
420
    65535
100
AcDbLine
 10
87.3153108667
 20
104.4467952703
 30
0.0
 11
87.3907255438
 21
104.4467952703
 31
0.0
  0
ELLIPSE
  5
C6
330
1F
100
AcDbEntity
  8
1
 62
     4
420
    65535
100
AcDbEllipse
 10
86.8565311878
 20
97.8467952703
 30
0.0
 11
0.1789531240071369
 21
10.21005601452535
 31
0.0
210
0.0
220
0.0
230
1.0
 40
0.0523917287
 41
5.079987197526935
 42
5.144730680406324
  0
SPLINE
  5
C7
330
1F
100
AcDbEntity
  8
1
 62
     4
420
    65535
100
AcDbSpline
210
0.0
220
0.0
230
1.0
 70
     8
 71
     3
 72
    12
 73
     8
 74
     0
 42
0.00000001
 43
0.00000001
 12
1.0
 22
0.0
 32
0.0
 13
1.0
 23
0.0
 33
0.0
 40
0.0
 40
0.0
 40
0.0
 40
0.0
 40
0.2500000000000011
 40
0.2500000000000011
 40
0.5000000000000021
 40
0.5000000000000021
 40
1.0
 40
1.0
 40
1.0
 40
1.0
 10
87.31531086668446
 20
101.2932016316245
 30
0.0
 10
87.33829273563312
 20
101.2932016316245
 30
0.0
 10
87.35709628348202
 20
101.3093136486705
 30
0.0
 10
87.3836250524122
 20
101.343857437933
 30
0.0
 10
87.39275393823972
 20
101.3632908876154
 30
0.0
 10
87.41423272068727
 20
101.4235433824879
 30
0.0
 10
87.42014006771086
 20
101.4651573481106
 30
0.0
 10
87.42002850552056
 20
101.5072863082002
 30
0.0
  0
LINE
  5
C8
330
1F
100
AcDbEntity
  8
1
 62
     4
420
    65535
100
AcDbLine
 10
87.2838667304
 20
101.2932016316
 30
0.0
 11
87.3153108667
 21
101.2932016316
 31
0.0
  0
LINE
  5
C9
330
1F
100
AcDbEntity
  8
1
 62
     4
420
    65535
100
AcDbLine
 10
83.3864225942
 20
101.2932016316
 30
0.0
 11
83.4178667304
 21
101.2932016316
 31
0.0
  0
SPLINE
  5
CA
330
1F
100
AcDbEntity
  8
1
 62
     4
420
    65535
100
AcDbSpline
210
0.0
220
0.0
230
1.0
 70
     8
 71
     3
 72
    12
 73
     8
 74
     0
 42
0.00000001
 43
0.00000001
 12
1.0
 22
0.0
 32
0.0
 13
1.0
 23
0.0
 33
0.0
 40
0.0
 40
0.0
 40
0.0
 40
0.0
 40
0.5000000000000017
 40
0.5000000000000017
 40
0.7500000000000008
 40
0.7500000000000008
 40
1.0
 40
1.0
 40
1.0
 40
1.0
 10
83.28170495534924
 20
101.5072863082003
 30
0.0
 10
83.28159330169699
 20
101.4651228095502
 30
0.0
 10
83.28746593811584
 20
101.4238024040429
 30
0.0
 10
83.30881324248381
 20
101.3636776767967
 30
0.0
 10
83.31816021448039
 20
101.3437951131839
 30
0.0
 10
83.34456080193425
 20
101.309407970609
 30
0.0
 10
83.36344437186645
 20
101.2932016316245
 30
0.0
 10
83.38642259418536
 20
101.2932016316245
 30
0.0
  0
ELLIPSE
  5
CB
330
1F
100
AcDbEntity
  8
1
 62
     4
420
    65535
100
AcDbEllipse
 10
83.8452022731
 20
97.8467952703
 30
0.0
 11
-0.1789531240071227
 21
10.21005601452535
 31
0.0
210
0.0
220
0.0
230
1.0
 40
0.0523917287
 41
1.138454626773515
 42
1.203198109652689
  0
LINE
  5
CC
330
1F
100
AcDbEntity
  8
1
 62
     4
420
    65535
100
AcDbLine
 10
87.4200285055
 20
101.5072863082
 30
0.0
 11
87.4440963753
 21
102.513725423
 31
0.0
  0
LINE
  5
CD
330
1F
100
AcDbEntity
  8
1
 62
     4
420
    65535
100
AcDbLine
 10
87.4676074938
 20
103.496883034
 30
0.0
 11
87.4895649348
 21
104.4150709664
 31
0.0
  0
LINE
  5
CE
330
1F
100
AcDbEntity
  8
1
 62
     4
420
    65535
100
AcDbLine
 10
83.212168526
 20
104.4150709664
 30
0.0
 11
83.2341259671
 21
103.496883034
 31
0.0
  0
LINE
  5
CF
330
1F
100
AcDbEntity
  8
1
 62
     4
420
    65535
100
AcDbLine
 10
83.2576370856
 20
102.513725423
 30
0.0
 11
83.2817049553
 21
101.5072863082
 31
0.0
  0
LINE
  5
D0
330
1F
100
AcDbEntity
  8
1
  6
SLD-Gestrichelt
 62
   131
420
  8454143
370
     0
100
AcDbLine
 10
87.4169474207
 20
104.2873616575
 30
0.0
 11
87.4200285055
 21
104.2709184621
 31
0.0
  0
LINE
  5
D1
330
1F
100
AcDbEntity
  8
1
  6
SLD-Gestrichelt
 62
   131
420
  8454143
370
     0
100
AcDbLine
 10
87.4200285055
 20
104.2709184621
 30
0.0
 11
87.4895649348
 21
103.126224103
 31
0.0
  0
LINE
  5
D2
330
1F
100
AcDbEntity
  8
1
  6
SLD-Gestrichelt
 62
   131
420
  8454143
370
     0
100
AcDbLine
 10
83.212168526
 20
103.126224103
 30
0.0
 11
83.2817049553
 21
104.2709184621
 31
0.0
  0
LINE
  5
D3
330
1F
100
AcDbEntity
  8
1
  6
SLD-Gestrichelt
 62
   131
420
  8454143
370
     0
100
AcDbLine
 10
83.2817049553
 20
104.2709184621
 30
0.0
 11
83.2852191097
 21
104.2869031765
 31
0.0
  0
LINE
  5
D4
330
1F
100
AcDbEntity
  8
1
  6
SLD-Gestrichelt
 62
   131
420
  8454143
370
     0
100
AcDbLine
 10
87.2838667304
 20
104.4467952703
 30
0.0
 11
87.2838667304
 21
101.6452365244
 31
0.0
  0
ELLIPSE
  5
D5
330
1F
100
AcDbEntity
  8
1
  6
SLD-Gestrichelt
 62
   131
420
  8454143
370
     0
100
AcDbEllipse
 10
86.8565311878
 20
97.8467952703
 30
0.0
 11
0.3748069465493558
 21
10.21004859311921
 31
0.0
210
0.0
220
0.0
230
1.0
 40
0.041285623
 41
5.09509881323371
 42
5.394422169704648
  0
LINE
  5
D6
330
1F
100
AcDbEntity
  8
1
  6
SLD-Gestrichelt
 62
   131
420
  8454143
370
     0
100
AcDbLine
 10
83.4178667304
 20
104.4467952703
 30
0.0
 11
83.4178667304
 21
101.6452365244
 31
0.0
  0
ELLIPSE
  5
D7
330
1F
100
AcDbEntity
  8
1
  6
SLD-Gestrichelt
 62
   131
420
  8454143
370
     0
100
AcDbEllipse
 10
83.8452022731
 20
97.8467952703
 30
0.0
 11
-0.3748069465493558
 21
10.21004859311921
 31
0.0
210
0.0
220
0.0
230
1.0
 40
0.041285623
 41
0.8887631374750586
 42
1.188086493945913
  0
LINE
  5
D8
330
1F
100
AcDbEntity
  8
1
  6
SLD-Gestrichelt
 62
   131
420
  8454143
370
     0
100
AcDbLine
 10
87.2808208523
 20
104.4467952703
 30
0.0
 11
87.2838667304
 21
104.3665021322
 31
0.0
  0
LINE
  5
D9
330
1F
100
AcDbEntity
  8
1
  6
SLD-Gestrichelt
 62
   131
420
  8454143
370
     0
100
AcDbLine
 10
83.4209126086
 20
104.4467952703
 30
0.0
 11
83.4178667304
 21
104.3665021322
 31
0.0
  0
LINE
  5
DA
330
1F
100
AcDbEntity
  8
1
  6
SLD-Gestrichelt
 62
   131
420
  8454143
370
     0
100
AcDbLine
 10
87.2808208523
 20
90.7254194198
 30
0.0
 11
87.2838667304
 21
90.6401199093
 31
0.0
  0
LINE
  5
DB
330
1F
100
AcDbEntity
  8
1
  6
SLD-Gestrichelt
 62
   131
420
  8454143
370
     0
100
AcDbLine
 10
83.4209126086
 20
90.7254194198
 30
0.0
 11
83.4178667304
 21
90.6401199093
 31
0.0
  0
LINE
  5
DC
330
1F
100
AcDbEntity
  8
1
  6
SLD-Gestrichelt
 62
   131
420
  8454143
370
     0
100
AcDbLine
 10
87.2838667304
 20
87.7400852694
 30
0.0
 11
87.387530676
 21
87.7400852694
 31
0.0
  0
ELLIPSE
  5
DD
330
1F
100
AcDbEntity
  8
1
  6
SLD-Gestrichelt
 62
   131
420
  8454143
370
     0
100
AcDbEllipse
 10
86.8565311878
 20
97.8467952703
 30
0.0
 11
-0.5526968913627854
 21
10.21005849785931
 31
0.0
210
0.0
220
0.0
230
1.0
 40
0.0110342847
 41
2.998590818384873
 42
3.29791417485698
  0
LINE
  5
DE
330
1F
100
AcDbEntity
  8
1
  6
SLD-Gestrichelt
 62
   131
420
  8454143
370
     0
100
AcDbLine
 10
87.2838667304
 20
87.800388909
 30
0.0
 11
87.2838667304
 21
87.636734951
 31
0.0
  0
LINE
  5
DF
330
1F
100
AcDbEntity
  8
1
  6
SLD-Gestrichelt
 62
   131
420
  8454143
370
     0
100
AcDbLine
 10
83.3142027848
 20
87.7400852694
 30
0.0
 11
83.4178667304
 21
87.7400852694
 31
0.0
  0
ELLIPSE
  5
E0
330
1F
100
AcDbEntity
  8
1
  6
SLD-Gestrichelt
 62
   131
420
  8454143
370
     0
100
AcDbEllipse
 10
83.8452022731
 20
97.8467952703
 30
0.0
 11
0.5526968913627854
 21
10.21005849785931
 31
0.0
210
0.0
220
0.0
230
1.0
 40
0.0110342847
 41
2.985271132323843
 42
3.284594488795952
  0
LINE
  5
E1
330
1F
100
AcDbEntity
  8
1
  6
SLD-Gestrichelt
 62
   131
420
  8454143
370
     0
100
AcDbLine
 10
83.4178667304
 20
87.800388909
 30
0.0
 11
83.4178667304
 21
87.636734951
 31
0.0
  0
ELLIPSE
  5
E2
330
1F
100
AcDbEntity
  8
1
  6
SLD-Gestrichelt
 62
   131
420
  8454143
370
     0
100
AcDbEllipse
 10
83.1934294629
 20
84.2662049739
 30
0.0
 11
0.3789280492538722
 21
6.999998751254637
 31
0.0
210
0.0
220
0.0
230
1.0
 40
0.0110342847
 41
1.052098166824857
 42
1.321237637935478
  0
ELLIPSE
  5
E3
330
1F
100
AcDbEntity
  8
1
  6
SLD-Gestrichelt
 62
   131
420
  8454143
370
     0
100
AcDbEllipse
 10
87.508303998
 20
84.2662049739
 30
0.0
 11
-0.378928049253858
 21
6.999998751254652
 31
0.0
210
0.0
220
0.0
230
1.0
 40
0.0110342847
 41
4.961947669244235
 42
5.231087140355156
  0
LINE
  5
E4
330
1F
100
AcDbEntity
  8
1
  6
SLD-Gestrichelt
 62
   131
420
  8454143
370
     0
100
AcDbLine
 10
83.4178667304
 20
89.3523577477
 30
0.0
 11
87.2838667304
 21
89.3523577477
 31
0.0
  0
ELLIPSE
  5
E5
330
1F
100
AcDbEntity
  8
1
  6
SLD-Gestrichelt
 62
   131
420
  8454143
370
     0
100
AcDbEllipse
 10
87.508303998
 20
111.1549992028
 30
0.0
 11
0.122689957637931
 21
6.999997048685116
 31
0.0
210
0.0
220
0.0
230
1.0
 40
0.0523917287
 41
3.146814232028274
 42
3.248016411963356
  0
LINE
  5
E6
330
1F
100
AcDbEntity
  8
1
  6
SLD-Gestrichelt
 62
   131
420
  8454143
370
     0
100
AcDbLine
 10
87.2838667304
 20
104.1550640171
 30
0.0
 11
87.387530676
 21
104.1550640171
 31
0.0
  0
LINE
  5
E7
330
1F
100
AcDbEntity
  8
1
  6
SLD-Gestrichelt
 62
   131
420
  8454143
370
     0
100
AcDbLine
 10
83.3142027848
 20
104.1550640171
 30
0.0
 11
83.4178667304
 21
104.1550640171
 31
0.0
  0
ELLIPSE
  5
E8
330
1F
100
AcDbEntity
  8
1
  6
SLD-Gestrichelt
 62
   131
420
  8454143
370
     0
100
AcDbEllipse
 10
83.1934294629
 20
111.1549992028
 30
0.0
 11
-0.1226899576379168
 21
6.999997048685132
 31
0.0
210
0.0
220
0.0
230
1.0
 40
0.0523917287
 41
3.03516889521623
 42
3.136371075151621
  0
LINE
  5
E9
330
1F
100
AcDbEntity
  8
1
  6
SLD-Gestrichelt
 62
   131
420
  8454143
370
     0
100
AcDbLine
 10
87.2808208523
 20
98.3681711208
 30
0.0
 11
87.2838667304
 21
98.3681711208
 31
0.0
  0
LINE
  5
EA
330
1F
100
AcDbEntity
  8
1
  6
SLD-Gestrichelt
 62
   131
420
  8454143
370
     0
100
AcDbLine
 10
87.2808208523
 20
98.3681711208
 30
0.0
 11
87.2838667304
 21
98.5337637693
 31
0.0
  0
LINE
  5
EB
330
1F
100
AcDbEntity
  8
1
  6
SLD-Gestrichelt
 62
   131
420
  8454143
370
     0
100
AcDbLine
 10
87.2838667304
 20
98.4319769639
 30
0.0
 11
87.2808208523
 21
98.3681711208
 31
0.0
  0
LINE
  5
EC
330
1F
100
AcDbEntity
  8
1
  6
SLD-Gestrichelt
 62
   131
420
  8454143
370
     0
100
AcDbLine
 10
83.4178667304
 20
98.3681711208
 30
0.0
 11
83.4209126086
 21
98.3681711208
 31
0.0
  0
LINE
  5
ED
330
1F
100
AcDbEntity
  8
1
  6
SLD-Gestrichelt
 62
   131
420
  8454143
370
     0
100
AcDbLine
 10
83.4209126086
 20
98.3681711208
 30
0.0
 11
83.4178667304
 21
98.5337637693
 31
0.0
  0
LINE
  5
EE
330
1F
100
AcDbEntity
  8
1
  6
SLD-Gestrichelt
 62
   131
420
  8454143
370
     0
100
AcDbLine
 10
83.4209126086
 20
98.3681711208
 30
0.0
 11
83.4178667304
 21
98.4319769639
 31
0.0
  0
ELLIPSE
  5
EF
330
1F
100
AcDbEntity
  8
1
  6
SLD-Gestrichelt
 62
   131
420
  8454143
370
     0
100
AcDbEllipse
 10
86.8565311878
 20
97.8467952703
 30
0.0
 11
0.1789531240071369
 21
10.21005601452535
 31
0.0
210
0.0
220
0.0
230
1.0
 40
0.0523917287
 41
5.144730680406324
 42
5.379310553997864
  0
ELLIPSE
  5
F0
330
1F
100
AcDbEntity
  8
1
  6
SLD-Gestrichelt
 62
   131
420
  8454143
370
     0
100
AcDbEllipse
 10
83.8452022731
 20
97.8467952703
 30
0.0
 11
-0.1789531240071227
 21
10.21005601452535
 31
0.0
210
0.0
220
0.0
230
1.0
 40
0.0523917287
 41
0.903874753181837
 42
1.138454626773515
  0
LINE
  5
F1
330
1F
100
AcDbEntity
  8
1
  6
SLD-Gestrichelt
 62
   131
420
  8454143
370
     0
100
AcDbLine
 10
83.3864225942
 20
101.2932016316
 30
0.0
 11
83.311007917
 21
104.4467952703
 31
0.0
  0
LINE
  5
F2
330
1F
100
AcDbEntity
  8
1
  6
SLD-Gestrichelt
 62
   131
420
  8454143
370
     0
100
AcDbLine
 10
87.3907255438
 20
104.4467952703
 30
0.0
 11
87.3153108667
 21
101.2932016316
 31
0.0
  0
LINE
  5
F3
330
1F
100
AcDbEntity
  8
1
  6
SLD-Gestrichelt
 62
   131
420
  8454143
370
     0
100
AcDbLine
 10
83.4178667304
 20
101.2932016316
 30
0.0
 11
87.2838667304
 21
101.2932016316
 31
0.0
  0
LINE
  5
F4
330
1F
100
AcDbEntity
  8
1
  6
SLD-Gestrichelt
 62
   131
420
  8454143
370
     0
100
AcDbLine
 10
87.2838667304
 20
100.3967952703
 30
0.0
 11
83.4178667304
 21
100.3967952703
 31
0.0
  0
LINE
  5
F5
330
1F
100
AcDbEntity
  8
1
  6
SLD-Gestrichelt
 62
   131
420
  8454143
370
     0
100
AcDbLine
 10
83.4178667304
 20
95.2967952703
 30
0.0
 11
87.2838667304
 21
95.2967952703
 31
0.0
  0
LINE
  5
F6
330
1F
100
AcDbEntity
  8
1
  6
SLD-Gestrichelt
 62
   131
420
  8454143
370
     0
100
AcDbLine
 10
87.2838667304
 20
87.636734951
 30
0.0
 11
87.4091606867
 21
87.636734951
 31
0.0
  0
LINE
  5
F7
330
1F
100
AcDbEntity
  8
1
  6
SLD-Gestrichelt
 62
   131
420
  8454143
370
     0
100
AcDbLine
 10
83.2925727742
 20
87.636734951
 30
0.0
 11
83.4178667304
 21
87.636734951
 31
0.0
  0
LINE
  5
F8
330
1F
100
AcDbEntity
  8
1
  6
SLD-Gestrichelt
 62
   131
420
  8454143
370
     0
100
AcDbLine
 10
83.4178667304
 20
104.1549992028
 30
0.0
 11
87.2838667304
 21
104.1549992028
 31
0.0
  0
LINE
  5
F9
330
1F
100
AcDbEntity
  8
1
  6
SLD-Gestrichelt
 62
   131
420
  8454143
370
     0
100
AcDbLine
 10
83.234026151
 20
103.4952398818
 30
0.0
 11
83.2574258057
 21
102.5167433205
 31
0.0
  0
LINE
  5
FA
330
1F
100
AcDbEntity
  8
1
  6
SLD-Gestrichelt
 62
   131
420
  8454143
370
     0
100
AcDbLine
 10
87.4443076552
 20
102.5167433205
 30
0.0
 11
87.4677073099
 21
103.4952398818
 31
0.0
  0
LINE
  5
FB
330
1F
100
AcDbEntity
  8
1
  6
SLD-Gestrichelt
 62
   131
420
  8454143
370
     0
100
AcDbLine
 10
87.4440963753
 20
102.513725423
 30
0.0
 11
87.4676074938
 21
103.496883034
 31
0.0
  0
LINE
  5
FC
330
1F
100
AcDbEntity
  8
1
  6
SLD-Gestrichelt
 62
   131
420
  8454143
370
     0
100
AcDbLine
 10
83.2341259671
 20
103.496883034
 30
0.0
 11
83.2576370856
 21
102.513725423
 31
0.0
  0
DIMENSION
  5
FD
330
1F
100
AcDbEntity
  8
2
 62
     7
420
 16777215
100
AcDbDimension
  2
_D_2
 10
87.4896577323
 20
79.8812939422
 30
0.0
 11
72.393325485
 21
79.8812939422
 31
0.0
 70
   160
  1
<>
 71
     2
 42
-1.0
 73
     0
 74
     0
 75
     0
  3
SLDDIMSTYLE1
100
AcDbAlignedDimension
 13
83.2120757286
 23
85.9971651936
 33
0.0
 14
87.4896577323
 24
85.9971651936
 34
0.0
100
AcDbRotatedDimension
  0
ENDSEC
  0
SECTION
  2
OBJECTS
  0
DICTIONARY
  5
C
330
0
100
AcDbDictionary
281
     1
  3
ACAD_GROUP
350
D
  3
ACAD_LAYOUT
350
1A
  3
ACAD_MATERIAL
350
3B
  3
ACAD_MLEADERSTYLE
350
10A
  3
ACAD_MLINESTYLE
350
17
  3
ACAD_PLOTSETTINGS
350
19
  3
ACAD_PLOTSTYLENAME
350
E
  3
ACAD_TABLESTYLE
350
109
  3
ACAD_VISUALSTYLE
350
2A
  0
DICTIONARY
  5
D
102
{ACAD_REACTORS
330
C
102
}
330
C
100
AcDbDictionary
281
     1
  0
DICTIONARY
  5
1A
102
{ACAD_REACTORS
330
C
102
}
330
C
100
AcDbDictionary
281
     1
  3
Layout1
350
1E
  3
Layout2
350
26
  3
Model
350
22
  0
DICTIONARY
  5
3B
102
{ACAD_REACTORS
330
C
102
}
330
C
100
AcDbDictionary
281
     1
  3
ByBlock
350
3D
  3
ByLayer
350
3C
  3
Global
350
3E
  0
DICTIONARY
  5
10A
102
{ACAD_REACTORS
330
C
102
}
330
C
100
AcDbDictionary
281
     1
  0
DICTIONARY
  5
17
102
{ACAD_REACTORS
330
C
102
}
330
C
100
AcDbDictionary
281
     1
  3
Standard
350
18
  0
DICTIONARY
  5
19
102
{ACAD_REACTORS
330
C
102
}
330
C
100
AcDbDictionary
281
     1
  0
ACDBDICTIONARYWDFLT
  5
E
102
{ACAD_REACTORS
330
C
102
}
330
C
100
AcDbDictionary
281
     1
  3
Normal
350
F
100
AcDbDictionaryWithDefault
340
F
  0
DICTIONARY
  5
109
102
{ACAD_REACTORS
330
C
102
}
330
C
100
AcDbDictionary
281
     1
  0
DICTIONARY
  5
2A
102
{ACAD_REACTORS
330
C
102
}
330
C
100
AcDbDictionary
281
     1
  3
2dWireframe
350
2F
  3
3D Hidden
350
31
  3
3dWireframe
350
30
  3
Basic
350
32
  3
Brighten
350
36
  3
ColorChange
350
3A
  3
Conceptual
350
34
  3
Dim
350
35
  3
Facepattern
350
39
  3
Flat
350
2B
  3
FlatWithEdges
350
2C
  3
Gouraud
350
2D
  3
GouraudWithEdges
350
2E
  3
Linepattern
350
38
  3
Realistic
350
33
  3
Thicken
350
37
  0
LAYOUT
  5
1E
102
{ACAD_REACTORS
330
1A
102
}
330
1A
100
AcDbPlotSettings
  1

  2
none_device
  4

  6

 40
0.0
 41
0.0
 42
0.0
 43
0.0
 44
0.0
 45
0.0
 46
0.0
 47
0.0
 48
0.0
 49
0.0
140
0.0
141
0.0
142
1.0
143
1.0
 70
   688
 72
     0
 73
     0
 74
     5
  7

 75
    16
 76
     0
 77
     2
 78
   300
147
1.0
148
0.0
149
0.0
100
AcDbLayout
  1
Layout1
 70
     1
 71
     1
 10
0.0
 20
0.0
 11
420.0
 21
297.0
 12
0.0
 22
0.0
 32
0.0
 14
1.0000000000E+20
 24
1.0000000000E+20
 34
1.0000000000E+20
 15
-1.0000000000E+20
 25
-1.0000000000E+20
 35
-1.0000000000E+20
146
0.0
 13
0.0
 23
0.0
 33
0.0
 16
1.0
 26
0.0
 36
0.0
 17
0.0
 27
1.0
 37
0.0
 76
     0
330
1B
  0
LAYOUT
  5
26
102
{ACAD_REACTORS
330
1A
102
}
330
1A
100
AcDbPlotSettings
  1

  2
none_device
  4

  6

 40
0.0
 41
0.0
 42
0.0
 43
0.0
 44
0.0
 45
0.0
 46
0.0
 47
0.0
 48
0.0
 49
0.0
140
0.0
141
0.0
142
1.0
143
1.0
 70
   688
 72
     0
 73
     0
 74
     5
  7

 75
    16
 76
     0
 77
     2
 78
   300
147
1.0
148
0.0
149
0.0
100
AcDbLayout
  1
Layout2
 70
     1
 71
     2
 10
0.0
 20
0.0
 11
0.0
 21
0.0
 12
0.0
 22
0.0
 32
0.0
 14
0.0
 24
0.0
 34
0.0
 15
0.0
 25
0.0
 35
0.0
146
0.0
 13
0.0
 23
0.0
 33
0.0
 16
1.0
 26
0.0
 36
0.0
 17
0.0
 27
1.0
 37
0.0
 76
     0
330
23
  0
LAYOUT
  5
22
102
{ACAD_REACTORS
330
1A
102
}
330
1A
100
AcDbPlotSettings
  1

  2
none_device
  4

  6

 40
0.0
 41
0.0
 42
0.0
 43
0.0
 44
0.0
 45
0.0
 46
0.0
 47
0.0
 48
0.0
 49
0.0
140
0.0
141
0.0
142
1.0
143
1.0
 70
  1712
 72
     0
 73
     0
 74
     0
  7

 75
     0
 76
     0
 77
     2
 78
   300
147
1.0
148
0.0
149
0.0
100
AcDbLayout
  1
Model
 70
     1
 71
     0
 10
0.0
 20
0.0
 11
297.0
 21
210.0
 12
0.0
 22
0.0
 32
0.0
 14
0.0
 24
0.0
 34
0.0
 15
297.0
 25
210.0
 35
0.0
146
0.0
 13
0.0
 23
0.0
 33
0.0
 16
1.0
 26
0.0
 36
0.0
 17
0.0
 27
1.0
 37
0.0
 76
     0
330
1F
331
29
  0
MATERIAL
  5
3D
102
{ACAD_REACTORS
330
3B
102
}
330
3B
100
AcDbMaterial
  1
ByBlock
 72
     1
 94
      127
  0
MATERIAL
  5
3C
102
{ACAD_REACTORS
330
3B
102
}
330
3B
100
AcDbMaterial
  1
ByLayer
 72
     1
 94
      127
  0
MATERIAL
  5
3E
102
{ACAD_REACTORS
330
3B
102
}
330
3B
100
AcDbMaterial
  1
Global
 72
     1
 94
      127
  0
MLINESTYLE
  5
18
102
{ACAD_REACTORS
330
17
102
}
330
17
100
AcDbMlineStyle
  2
Standard
 70
     0
  3

 62
   256
 51
90.0
 52
90.0
 71
     2
 49
0.5
 62
   256
  6
BYLAYER
 49
-0.5
 62
   256
  6
BYLAYER
  0
ACDBPLACEHOLDER
  5
F
102
{ACAD_REACTORS
330
E
102
}
330
E
  0
VISUALSTYLE
  5
2F
102
{ACAD_REACTORS
330
2A
102
}
330
2A
100
AcDbVisualStyle
  2
2dWireframe
 70
     4
 71
     0
 72
     2
 73
     0
 90
        0
 40
-0.6
 41
-30.0
 62
     5
 63
     7
421
 16777215
 74
     1
 91
        4
 64
     7
 65
   257
 75
     1
175
     1
 42
1.0
 92
        0
 66
   257
 43
1.0
 76
     1
 77
     6
 78
     2
 67
     7
 79
     5
170
     0
171
     0
290
     0
174
     0
 93
        1
 44
0.0
173
     0
291
     0
 45
0.0
  0
VISUALSTYLE
  5
31
102
{ACAD_REACTORS
330
2A
102
}
330
2A
100
AcDbVisualStyle
  2
3D Hidden
 70
     6
 71
     1
 72
     2
 73
     2
 90
        0
 40
-0.6
 41
-30.0
 62
     5
 63
     7
421
 16777215
 74
     2
 91
        2
 64
     7
 65
   257
 75
     2
175
     1
 42
40.0
 92
        0
 66
   257
 43
1.0
 76
     1
 77
     6
 78
     2
 67
     7
 79
     3
170
     0
171
     0
290
     0
174
     0
 93
        1
 44
0.0
173
     0
291
     0
 45
0.0
  0
VISUALSTYLE
  5
30
102
{ACAD_REACTORS
330
2A
102
}
330
2A
100
AcDbVisualStyle
  2
3dWireframe
 70
     5
 71
     0
 72
     2
 73
     0
 90
        0
 40
-0.6
 41
-30.0
 62
     5
 63
     7
421
 16777215
 74
     1
 91
        4
 64
     7
 65
   257
 75
     1
175
     1
 42
1.0
 92
        0
 66
   257
 43
1.0
 76
     1
 77
     6
 78
     2
 67
     7
 79
     5
170
     0
171
     0
290
     0
174
     0
 93
        1
 44
0.0
173
     0
291
     0
 45
0.0
  0
VISUALSTYLE
  5
32
102
{ACAD_REACTORS
330
2A
102
}
330
2A
100
AcDbVisualStyle
  2
Basic
 70
     7
 71
     1
 72
     0
 73
     1
 90
        0
 40
-0.6
 41
-30.0
 62
     5
 63
     7
421
 16777215
 74
     0
 91
        4
 64
     7
 65
   257
 75
     1
175
     1
 42
1.0
 92
        8
 66
     7
 43
1.0
 76
     1
 77
     6
 78
     2
 67
     7
 79
     5
170
     0
171
     0
290
     0
174
     0
 93
        1
 44
0.0
173
     0
291
     1
 45
0.0
  0
VISUALSTYLE
  5
36
102
{ACAD_REACTORS
330
2A
102
}
330
2A
100
AcDbVisualStyle
  2
Brighten
 70
    12
 71
     2
 72
     2
 73
     0
 90
        0
 40
-0.6
 41
-30.0
 62
     5
 63
     7
421
 16777215
 74
     1
 91
        4
 64
     7
 65
   257
 75
     1
175
     1
 42
1.0
 92
        8
 66
     7
 43
1.0
 76
     1
 77
     6
 78
     2
 67
     7
 79
     5
170
     0
171
     0
290
     0
174
     0
 93
        1
 44
50.0
173
     0
291
     1
 45
0.0
  0
VISUALSTYLE
  5
3A
102
{ACAD_REACTORS
330
2A
102
}
330
2A
100
AcDbVisualStyle
  2
ColorChange
 70
    16
 71
     2
 72
     2
 73
     3
 90
        0
 40
-0.6
 41
-30.0
 62
     5
 63
     8
421
  8421504
 74
     1
 91
        4
 64
     7
 65
   257
 75
     1
175
     1
 42
1.0
 92
        8
 66
     8
424
  8421504
 43
1.0
 76
     1
 77
     6
 78
     2
 67
     7
 79
     5
170
     0
171
     0
290
     0
174
     0
 93
        1
 44
0.0
173
     0
291
     1
 45
0.0
  0
VISUALSTYLE
  5
34
102
{ACAD_REACTORS
330
2A
102
}
330
2A
100
AcDbVisualStyle
  2
Conceptual
 70
     9
 71
     3
 72
     2
 73
     0
 90
        0
 40
-0.6
 41
-30.0
 62
     5
 63
     7
421
 16777215
 74
     2
 91
        2
 64
     7
 65
   257
 75
     1
175
     1
 42
40.0
 92
        8
 66
     7
 43
1.0
 76
     1
 77
     6
 78
     2
 67
     7
 79
     3
170
     0
171
     0
290
     0
174
     0
 93
        1
 44
0.0
173
     0
291
     0
 45
0.0
  0
VISUALSTYLE
  5
35
102
{ACAD_REACTORS
330
2A
102
}
330
2A
100
AcDbVisualStyle
  2
Dim
 70
    11
 71
     2
 72
     2
 73
     0
 90
        0
 40
-0.6
 41
-30.0
 62
     5
 63
     7
421
 16777215
 74
     1
 91
        4
 64
     7
 65
   257
 75
     1
175
     1
 42
1.0
 92
        8
 66
     7
 43
1.0
 76
     1
 77
     6
 78
     2
 67
     7
 79
     5
170
     0
171
     0
290
     0
174
     0
 93
        1
 44
-50.0
173
     0
291
     1
 45
0.0
  0
VISUALSTYLE
  5
39
102
{ACAD_REACTORS
330
2A
102
}
330
2A
100
AcDbVisualStyle
  2
Facepattern
 70
    15
 71
     2
 72
     2
 73
     0
 90
        0
 40
-0.6
 41
-30.0
 62
     5
 63
     7
421
 16777215
 74
     1
 91
        4
 64
     7
 65
   257
 75
     1
175
     1
 42
1.0
 92
        8
 66
     7
 43
1.0
 76
     1
 77
     6
 78
     2
 67
     7
 79
     5
170
     0
171
     0
290
     0
174
     0
 93
        1
 44
0.0
173
     0
291
     1
 45
0.0
  0
VISUALSTYLE
  5
2B
102
{ACAD_REACTORS
330
2A
102
}
330
2A
100
AcDbVisualStyle
  2
Flat
 70
     0
 71
     2
 72
     1
 73
     1
 90
        2
 40
-0.6
 41
30.0
 62
     5
 63
     7
421
 16777215
 74
     0
 91
        4
 64
     7
 65
   257
 75
     1
175
     1
 42
1.0
 92
        8
 66
     7
 43
1.0
 76
     1
 77
     6
 78
     2
 67
     7
 79
     5
170
     0
171
     0
290
     0
174
     0
 93
       13
 44
0.0
173
     0
291
     1
 45
0.0
  0
VISUALSTYLE
  5
2C
102
{ACAD_REACTORS
330
2A
102
}
330
2A
100
AcDbVisualStyle
  2
FlatWithEdges
 70
     1
 71
     2
 72
     1
 73
     1
 90
        2
 40
-0.6
 41
30.0
 62
     5
 63
     7
421
 16777215
 74
     1
 91
        4
 64
     7
 65
   257
 75
     1
175
     1
 42
1.0
 92
        0
 66
   257
 43
1.0
 76
     1
 77
     6
 78
     2
 67
     7
 79
     5
170
     0
171
     0
290
     0
174
     0
 93
       13
 44
0.0
173
     0
291
     1
 45
0.0
  0
VISUALSTYLE
  5
2D
102
{ACAD_REACTORS
330
2A
102
}
330
2A
100
AcDbVisualStyle
  2
Gouraud
 70
     2
 71
     2
 72
     2
 73
     1
 90
        2
 40
-0.6
 41
30.0
 62
     5
 63
     7
421
 16777215
 74
     0
 91
        4
 64
     7
 65
   257
 75
     1
175
     1
 42
1.0
 92
        0
 66
     7
 43
1.0
 76
     1
 77
     6
 78
     2
 67
     7
 79
     5
170
     0
171
     0
290
     0
174
     0
 93
       13
 44
0.0
173
     0
291
     1
 45
0.0
  0
VISUALSTYLE
  5
2E
102
{ACAD_REACTORS
330
2A
102
}
330
2A
100
AcDbVisualStyle
  2
GouraudWithEdges
 70
     3
 71
     2
 72
     2
 73
     1
 90
        2
 40
-0.6
 41
30.0
 62
     5
 63
     7
421
 16777215
 74
     1
 91
        4
 64
     7
 65
   257
 75
     1
175
     1
 42
1.0
 92
        0
 66
   257
 43
1.0
 76
     1
 77
     6
 78
     2
 67
     7
 79
     5
170
     0
171
     0
290
     0
174
     0
 93
       13
 44
0.0
173
     0
291
     1
 45
0.0
  0
VISUALSTYLE
  5
38
102
{ACAD_REACTORS
330
2A
102
}
330
2A
100
AcDbVisualStyle
  2
Linepattern
 70
    14
 71
     2
 72
     2
 73
     0
 90
        0
 40
-0.6
 41
-30.0
 62
     5
 63
     7
421
 16777215
 74
     1
 91
        4
 64
     7
 65
   257
 75
     7
175
     7
 42
1.0
 92
        8
 66
     7
 43
1.0
 76
     1
 77
     6
 78
     2
 67
     7
 79
     5
170
     0
171
     0
290
     0
174
     0
 93
        1
 44
0.0
173
     0
291
     1
 45
0.0
  0
VISUALSTYLE
  5
33
102
{ACAD_REACTORS
330
2A
102
}
330
2A
100
AcDbVisualStyle
  2
Realistic
 70
     8
 71
     2
 72
     2
 73
     0
 90
        0
 40
-0.6
 41
-30.0
 62
     5
 63
     7
421
 16777215
 74
     1
 91
        0
 64
     7
 65
   257
 75
     1
175
     1
 42
1.0
 92
        8
 66
     8
424
  7895160
 43
1.0
 76
     1
 77
     6
 78
     2
 67
     7
 79
     5
170
     0
171
     0
290
     0
174
     0
 93
       13
 44
0.0
173
     0
291
     0
 45
0.0
  0
VISUALSTYLE
  5
37
102
{ACAD_REACTORS
330
2A
102
}
330
2A
100
AcDbVisualStyle
  2
Thicken
 70
    13
 71
     2
 72
     2
 73
     0
 90
        0
 40
-0.6
 41
-30.0
 62
     5
 63
     7
421
 16777215
 74
     1
 91
        4
 64
     7
 65
   257
 75
     1
175
     1
 42
1.0
 92
       12
 66
     7
 43
1.0
 76
     1
 77
     6
 78
     2
 67
     7
 79
     5
170
     0
171
     0
290
     0
174
     0
 93
        1
 44
0.0
173
     0
291
     1
 45
0.0
  0
ENDSEC
  0
EOF
