  0
SECTION
  2
HEADER
  9
$ACADVER
  1
AC1021
  9
$ACADMAINTVER
 70
    25
  9
$DWGCODEPAGE
  3
ANSI_1252
  9
$INSBASE
 10
0.0
 20
0.0
 30
0.0
  9
$EXTMIN
 10
0.0
 20
0.0
 30
0.0
  9
$EXTMAX
 10
297.0
 20
210.0
 30
0.0
  9
$LIMMIN
 10
0.0
 20
0.0
  9
$LIMMAX
 10
297.0
 20
210.0
  9
$ORTHOMODE
 70
     0
  9
$REGENMODE
 70
     1
  9
$FILLMODE
 70
     1
  9
$QTEXTMODE
 70
     0
  9
$MIRRTEXT
 70
     1
  9
$LTSCALE
 40
1.0
  9
$ATTMODE
 70
     1
  9
$TEXTSIZE
 40
3.5
  9
$TRACEWID
 40
1.0
  9
$TEXTSTYLE
  7
Standard
  9
$CLAYER
  8
0
  9
$CELTYPE
  6
ByLayer
  9
$CECOLOR
 62
   256
  9
$CELTSCALE
 40
1.0
  9
$DISPSILH
 70
     0
  9
$DIMSCALE
 40
1.0
  9
$DIMASZ
 40
3.302
  9
$DIMEXO
 40
1.0
  9
$DIMDLI
 40
3.75
  9
$DIMRND
 40
0.0
  9
$DIMDLE
 40
0.0
  9
$DIMEXE
 40
1.0
  9
$DIMTP
 40
0.0
  9
$DIMTM
 40
0.0
  9
$DIMTXT
 40
3.5
  9
$DIMCEN
 40
2.5
  9
$DIMTSZ
 40
0.0
  9
$DIMTOL
 70
     0
  9
$DIMLIM
 70
     0
  9
$DIMTIH
 70
     1
  9
$DIMTOH
 70
     1
  9
$DIMSE1
 70
     0
  9
$DIMSE2
 70
     0
  9
$DIMTAD
 70
     1
  9
$DIMZIN
 70
     0
  9
$DIMBLK
  1

  9
$DIMASO
 70
     1
  9
$DIMSHO
 70
     1
  9
$DIMPOST
  1

  9
$DIMAPOST
  1

  9
$DIMALT
 70
     0
  9
$DIMALTD
 70
     3
  9
$DIMALTF
 40
0.0393700787
  9
$DIMLFAC
 40
1.0
  9
$DIMTOFL
 70
     1
  9
$DIMTVP
 40
0.0
  9
$DIMTIX
 70
     0
  9
$DIMSOXD
 70
     0
  9
$DIMSAH
 70
     0
  9
$DIMBLK1
  1

  9
$DIMBLK2
  1

  9
$DIMSTYLE
  2
ISO-25
  9
$DIMCLRD
 70
     0
  9
$DIMCLRE
 70
     0
  9
$DIMCLRT
 70
     0
  9
$DIMTFAC
 40
1.0
  9
$DIMGAP
 40
1.524
  9
$DIMJUST
 70
     0
  9
$DIMSD1
 70
     0
  9
$DIMSD2
 70
     0
  9
$DIMTOLJ
 70
     0
  9
$DIMTZIN
 70
     0
  9
$DIMALTZ
 70
     0
  9
$DIMALTTZ
 70
     0
  9
$DIMUPT
 70
     0
  9
$DIMDEC
 70
     2
  9
$DIMTDEC
 70
     2
  9
$DIMALTU
 70
     2
  9
$DIMALTTD
 70
     3
  9
$DIMTXSTY
  7
Standard
  9
$DIMAUNIT
 70
     0
  9
$DIMADEC
 70
     2
  9
$DIMALTRND
 40
0.0
  9
$DIMAZIN
 70
     0
  9
$DIMDSEP
 70
    44
  9
$DIMATFIT
 70
     3
  9
$DIMFRAC
 70
     0
  9
$DIMLDRBLK
  1

  9
$DIMLUNIT
 70
     2
  9
$DIMLWD
 70
    -2
  9
$DIMLWE
 70
    -2
  9
$DIMTMOVE
 70
     0
  9
$DIMFXL
 40
1.0
  9
$DIMFXLON
 70
     0
  9
$DIMJOGANG
 40
0.7853981634
  9
$DIMTFILL
 70
     0
  9
$DIMTFILLCLR
 70
     0
  9
$DIMARCSYM
 70
     0
  9
$DIMLTYPE
  6

  9
$DIMLTEX1
  6

  9
$DIMLTEX2
  6

  9
$LUNITS
 70
     2
  9
$LUPREC
 70
     2
  9
$SKETCHINC
 40
1.0
  9
$FILLETRAD
 40
10.0
  9
$AUNITS
 70
     0
  9
$AUPREC
 70
     2
  9
$MENU
  1
.
  9
$ELEVATION
 40
0.0
  9
$PELEVATION
 40
0.0
  9
$THICKNESS
 40
0.0
  9
$LIMCHECK
 70
     0
  9
$CHAMFERA
 40
10.0
  9
$CHAMFERB
 40
10.0
  9
$CHAMFERC
 40
20.0
  9
$CHAMFERD
 40
0.0
  9
$SKPOLY
 70
     0
  9
$TDCREATE
 40
2456608.578182049
  9
$TDUCREATE
 40
2456608.536515382
  9
$TDUPDATE
 40
2456608.578182373
  9
$TDUUPDATE
 40
2456608.536515706
  9
$TDINDWG
 40
0.0000000116
  9
$TDUSRTIMER
 40
0.0000000116
  9
$USRTIMER
 70
     1
  9
$ANGBASE
 50
0.0
  9
$ANGDIR
 70
     0
  9
$PDMODE
 70
     0
  9
$PDSIZE
 40
-1.0
  9
$PLINEWID
 40
0.0
  9
$SPLFRAME
 70
     0
  9
$SPLINETYPE
 70
     6
  9
$SPLINESEGS
 70
     8
  9
$HANDSEED
  5
FF
  9
$SURFTAB1
 70
     6
  9
$SURFTAB2
 70
     6
  9
$SURFTYPE
 70
     6
  9
$SURFU
 70
     6
  9
$SURFV
 70
     6
  9
$UCSBASE
  2

  9
$UCSNAME
  2

  9
$UCSORG
 10
0.0
 20
0.0
 30
0.0
  9
$UCSXDIR
 10
1.0
 20
0.0
 30
0.0
  9
$UCSYDIR
 10
0.0
 20
1.0
 30
0.0
  9
$UCSORTHOREF
  2

  9
$UCSORTHOVIEW
 70
     0
  9
$UCSORGTOP
 10
0.0
 20
0.0
 30
0.0
  9
$UCSORGBOTTOM
 10
0.0
 20
0.0
 30
0.0
  9
$UCSORGLEFT
 10
0.0
 20
0.0
 30
0.0
  9
$UCSORGRIGHT
 10
0.0
 20
0.0
 30
0.0
  9
$UCSORGFRONT
 10
0.0
 20
0.0
 30
0.0
  9
$UCSORGBACK
 10
0.0
 20
0.0
 30
0.0
  9
$PUCSBASE
  2

  9
$PUCSNAME
  2

  9
$PUCSORG
 10
0.0
 20
0.0
 30
0.0
  9
$PUCSXDIR
 10
1.0
 20
0.0
 30
0.0
  9
$PUCSYDIR
 10
0.0
 20
1.0
 30
0.0
  9
$PUCSORTHOREF
  2

  9
$PUCSORTHOVIEW
 70
     0
  9
$PUCSORGTOP
 10
0.0
 20
0.0
 30
0.0
  9
$PUCSORGBOTTOM
 10
0.0
 20
0.0
 30
0.0
  9
$PUCSORGLEFT
 10
0.0
 20
0.0
 30
0.0
  9
$PUCSORGRIGHT
 10
0.0
 20
0.0
 30
0.0
  9
$PUCSORGFRONT
 10
0.0
 20
0.0
 30
0.0
  9
$PUCSORGBACK
 10
0.0
 20
0.0
 30
0.0
  9
$USERI1
 70
     0
  9
$USERI2
 70
     0
  9
$USERI3
 70
     0
  9
$USERI4
 70
     0
  9
$USERI5
 70
     0
  9
$USERR1
 40
0.0
  9
$USERR2
 40
0.0
  9
$USERR3
 40
0.0
  9
$USERR4
 40
0.0
  9
$USERR5
 40
0.0
  9
$WORLDVIEW
 70
     1
  9
$SHADEDGE
 70
     3
  9
$SHADEDIF
 70
    70
  9
$TILEMODE
 70
     1
  9
$MAXACTVP
 70
    64
  9
$PINSBASE
 10
0.0
 20
0.0
 30
0.0
  9
$PLIMCHECK
 70
     0
  9
$PEXTMIN
 10
1.0000000000E+20
 20
1.0000000000E+20
 30
1.0000000000E+20
  9
$PEXTMAX
 10
-1.0000000000E+20
 20
-1.0000000000E+20
 30
-1.0000000000E+20
  9
$PLIMMIN
 10
0.0
 20
0.0
  9
$PLIMMAX
 10
420.0
 20
297.0
  9
$UNITMODE
 70
     0
  9
$VISRETAIN
 70
     1
  9
$PLINEGEN
 70
     0
  9
$PSLTSCALE
 70
     1
  9
$TREEDEPTH
 70
  3020
  9
$CMLSTYLE
  2
Standard
  9
$CMLJUST
 70
     0
  9
$CMLSCALE
 40
20.0
  9
$PROXYGRAPHICS
 70
     1
  9
$MEASUREMENT
 70
     1
  9
$CELWEIGHT
370
    -1
  9
$ENDCAPS
280
     0
  9
$JOINSTYLE
280
     0
  9
$LWDISPLAY
290
     1
  9
$INSUNITS
 70
     4
  9
$HYPERLINKBASE
  1

  9
$STYLESHEET
  1

  9
$XEDIT
290
     1
  9
$CEPSNTYPE
380
     0
  9
$PSTYLEMODE
290
     1
  9
$FINGERPRINTGUID
  2
{0BBDDC72-FAD4-4FF2-AE05-42CD80DC02FA}
  9
$VERSIONGUID
  2
{FAEB1C32-E019-11D5-929B-00C0DF256EC4}
  9
$EXTNAMES
290
     1
  9
$PSVPSCALE
 40
0.0
  9
$OLESTARTUP
290
     0
  9
$SORTENTS
280
   127
  9
$INDEXCTL
280
     0
  9
$HIDETEXT
280
     1
  9
$XCLIPFRAME
290
     0
  9
$HALOGAP
280
     0
  9
$OBSCOLOR
 70
   257
  9
$OBSLTYPE
280
     0
  9
$INTERSECTIONDISPLAY
280
     0
  9
$INTERSECTIONCOLOR
 70
   257
  9
$DIMASSOC
280
     2
  9
$PROJECTNAME
  1

  9
$CAMERADISPLAY
290
     0
  9
$LENSLENGTH
 40
50.0
  9
$CAMERAHEIGHT
 40
0.0
  9
$STEPSPERSEC
 40
2.0
  9
$STEPSIZE
 40
6.0
  9
$3DDWFPREC
 40
2.0
  9
$PSOLWIDTH
 40
5.0
  9
$PSOLHEIGHT
 40
80.0
  9
$LOFTANG1
 40
1.5707963268
  9
$LOFTANG2
 40
1.5707963268
  9
$LOFTMAG1
 40
0.0
  9
$LOFTMAG2
 40
0.0
  9
$LOFTPARAM
 70
     7
  9
$LOFTNORMALS
280
     1
  9
$LATITUDE
 40
37.795
  9
$LONGITUDE
 40
-122.394
  9
$NORTHDIRECTION
 40
0.0
  9
$TIMEZONE
 70
 -8000
  9
$LIGHTGLYPHDISPLAY
280
     1
  9
$TILEMODELIGHTSYNCH
280
     1
  9
$SOLIDHIST
280
     1
  9
$SHOWHIST
280
     1
  9
$DWFFRAME
280
     2
  9
$DGNFRAME
280
     2
  9
$REALWORLDSCALE
290
     1
  9
$INTERFERECOLOR
 62
   256
  9
$CSHADOW
280
     0
  9
$SHADOWPLANELOCATION
 40
0.0
  0
ENDSEC
  0
SECTION
  2
CLASSES
  0
CLASS
  1
ACDBDICTIONARYWDFLT
  2
AcDbDictionaryWithDefault
  3
ObjectDBX Classes
 90
        0
 91
        4
280
     0
281
     0
  0
CLASS
  1
VISUALSTYLE
  2
AcDbVisualStyle
  3
ObjectDBX Classes
 90
     4095
 91
        4
280
     0
281
     0
  0
CLASS
  1
MATERIAL
  2
AcDbMaterial
  3
ObjectDBX Classes
 90
     1153
 91
        4
280
     0
281
     0
  0
ENDSEC
  0
SECTION
  2
TABLES
  0
TABLE
  2
VPORT
  5
8
330
0
100
AcDbSymbolTable
 70
     1
  0
VPORT
  5
29
330
8
100
AcDbSymbolTableRecord
100
AcDbViewportTableRecord
  2
*Active
 70
     0
 10
0.0
 20
0.0
 11
1.0
 21
1.0
 12
148.5
 22
105.0
 13
0.0
 23
0.0
 14
10.0
 24
10.0
 15
10.0
 25
10.0
 16
0.0
 26
0.0
 36
1.0
 17
0.0
 27
0.0
 37
0.0
 40
210.0
 41
1.4142857143
 42
50.0
 43
0.0
 44
0.0
 50
0.0
 51
0.0
 71
     0
 72
  2000
 73
     1
 74
     3
 75
     0
 76
     0
 77
     0
 78
     0
281
     0
 65
     1
110
0.0
120
0.0
130
0.0
111
1.0
121
0.0
131
0.0
112
0.0
122
1.0
132
0.0
 79
     0
146
0.0
 60
     3
 61
     5
292
     1
282
     1
141
0.0
142
0.0
 63
   250
  0
ENDTAB
  0
TABLE
  2
LTYPE
  5
5
330
0
100
AcDbSymbolTable
 70
     8
  0
LTYPE
  5
14
330
5
100
AcDbSymbolTableRecord
100
AcDbLinetypeTableRecord
  2
ByBlock
 70
     0
  3

 72
    65
 73
     0
 40
0.0
  0
LTYPE
  5
15
330
5
100
AcDbSymbolTableRecord
100
AcDbLinetypeTableRecord
  2
ByLayer
 70
     0
  3

 72
    65
 73
     0
 40
0.0
  0
LTYPE
  5
16
330
5
100
AcDbSymbolTableRecord
100
AcDbLinetypeTableRecord
  2
Continuous
 70
     0
  3
Solid line
 72
    65
 73
     0
 40
0.0
  0
LTYPE
  5
3F
330
5
100
AcDbSymbolTableRecord
100
AcDbLinetypeTableRecord
  2
SLD-Durchgehend
 70
     0
  3
SolidWorks Line Style
 72
    65
 73
     0
 40
0.0
  0
LTYPE
  5
40
330
5
100
AcDbSymbolTableRecord
100
AcDbLinetypeTableRecord
  2
SLD-Gestrichelt
 70
     0
  3
SolidWorks Line Style
 72
    65
 73
     2
 40
1.905
 49
1.27
 74
     0
 49
-0.635
 74
     0
  0
LTYPE
  5
41
330
5
100
AcDbSymbolTableRecord
100
AcDbLinetypeTableRecord
  2
SLD-Phantom
 70
     0
  3
SolidWorks Line Style
 72
    65
 73
     6
 40
12.7
 49
6.35
 74
     0
 49
-1.27
 74
     0
 49
1.27
 74
     0
 49
-1.27
 74
     0
 49
1.27
 74
     0
 49
-1.27
 74
     0
  0
LTYPE
  5
42
330
5
100
AcDbSymbolTableRecord
100
AcDbLinetypeTableRecord
  2
SLD-Kette
 70
     0
  3
SolidWorks Line Style
 72
    65
 73
     4
 40
10.16
 49
6.35
 74
     0
 49
-1.27
 74
     0
 49
1.27
 74
     0
 49
-1.27
 74
     0
  0
LTYPE
  5
43
330
5
100
AcDbSymbolTableRecord
100
AcDbLinetypeTableRecord
  2
SLD-Punktstrich
 70
     0
  3
SolidWorks Line Style
 72
    65
 73
     4
 40
19.05
 49
15.24
 74
     0
 49
-1.27
 74
     0
 49
1.27
 74
     0
 49
-1.27
 74
     0
  0
LTYPE
  5
44
330
5
100
AcDbSymbolTableRecord
100
AcDbLinetypeTableRecord
  2
SLD-Naht
 70
     0
  3
SolidWorks Line Style
 72
    65
 73
     2
 40
0.635
 49
0.0
 74
     0
 49
-0.635
 74
     0
  0
LTYPE
  5
45
330
5
100
AcDbSymbolTableRecord
100
AcDbLinetypeTableRecord
  2
SLD-Dicke-Dünne-Kette
 70
     0
  3
SolidWorks Line Style
 72
    65
 73
     4
 40
10.16
 49
6.35
 74
     0
 49
-1.27
 74
     0
 49
1.27
 74
     0
 49
-1.27
 74
     0
  0
ENDTAB
  0
TABLE
  2
LAYER
  5
2
330
0
100
AcDbSymbolTable
 70
     3
  0
LAYER
  5
10
330
2
100
AcDbSymbolTableRecord
100
AcDbLayerTableRecord
  2
0
 70
     0
 62
     7
  6
Continuous
370
    -3
390
F
347
3E
  0
LAYER
  5
46
330
2
100
AcDbSymbolTableRecord
100
AcDbLayerTableRecord
  2
1
 70
     0
 62
     4
  6
Continuous
370
    -1
390
F
347
3E
  0
LAYER
  5
47
330
2
100
AcDbSymbolTableRecord
100
AcDbLayerTableRecord
  2
2
 70
     0
 62
     7
  6
SLD-Durchgehend
370
    -3
390
F
347
3E
  0
ENDTAB
  0
TABLE
  2
STYLE
  5
3
330
0
100
AcDbSymbolTable
 70
     2
  0
STYLE
  5
11
330
3
100
AcDbSymbolTableRecord
100
AcDbTextStyleTableRecord
  2
Standard
 70
     0
 40
0.0
 41
1.0
 50
0.0
 71
     0
 42
3.5
  3
txt
  4

  0
STYLE
  5
7F
330
3
100
AcDbSymbolTableRecord
100
AcDbTextStyleTableRecord
  2
SLDTEXTSTYLE0
 70
     0
 40
0.0
 41
0.75
 50
0.0
 71
     0
 42
0.2
  3
TXT
  4

  0
ENDTAB
  0
TABLE
  2
VIEW
  5
6
330
0
100
AcDbSymbolTable
 70
     0
  0
ENDTAB
  0
TABLE
  2
UCS
  5
7
330
0
100
AcDbSymbolTable
 70
     0
  0
ENDTAB
  0
TABLE
  2
APPID
  5
9
330
0
100
AcDbSymbolTable
 70
     1
  0
APPID
  5
12
330
9
100
AcDbSymbolTableRecord
100
AcDbRegAppTableRecord
  2
ACAD
 70
     0
  0
ENDTAB
  0
TABLE
  2
DIMSTYLE
  5
A
330
0
100
AcDbSymbolTable
 70
     3
100
AcDbDimStyleTable
  0
DIMSTYLE
105
27
330
A
100
AcDbSymbolTableRecord
100
AcDbDimStyleTableRecord
  2
ISO-25
 70
     0
 41
2.5
 42
0.625
 43
3.75
 44
1.25
 73
     0
 74
     0
 77
     1
 78
     8
140
2.5
141
2.5
143
0.0393700787
147
0.625
171
     3
172
     1
178
     0
271
     2
272
     2
274
     3
278
    44
283
     0
284
     8
340
11
  0
DIMSTYLE
105
80
102
{ACAD_REACTORS
330
7E
102
}
330
A
100
AcDbSymbolTableRecord
100
AcDbDimStyleTableRecord
  2
SLDDIMSTYLE0
 70
     0
 41
3.302
 44
0.0
 45
0.000000001
 73
     0
 74
     0
 77
     1
 78
    12
 79
     3
140
3.5
147
0.875
173
     1
178
     0
271
     2
272
     2
276
     2
284
    12
340
7F
  0
DIMSTYLE
105
8C
102
{ACAD_REACTORS
330
8B
330
F1
102
}
330
A
100
AcDbSymbolTableRecord
100
AcDbDimStyleTableRecord
  2
SLDDIMSTYLE1
 70
     0
 41
3.302
 44
0.0
 45
0.000000001
 73
     0
 74
     0
 77
     1
 78
    12
 79
     3
140
3.5
147
0.875
172
     1
173
     1
178
     0
271
     2
272
     2
276
     2
284
    12
289
     0
340
7F
  0
ENDTAB
  0
TABLE
  2
BLOCK_RECORD
  5
1
330
0
100
AcDbSymbolTable
 70
     5
  0
BLOCK_RECORD
  5
1F
330
1
100
AcDbSymbolTableRecord
100
AcDbBlockTableRecord
  2
*Model_Space
340
22
 70
     0
280
     1
281
     0
  0
BLOCK_RECORD
  5
1B
330
1
100
AcDbSymbolTableRecord
100
AcDbBlockTableRecord
  2
*Paper_Space
340
1E
 70
     0
280
     1
281
     0
  0
BLOCK_RECORD
  5
23
330
1
100
AcDbSymbolTableRecord
100
AcDbBlockTableRecord
  2
*Paper_Space0
340
26
 70
     0
280
     1
281
     0
  0
BLOCK_RECORD
  5
81
330
1
100
AcDbSymbolTableRecord
100
AcDbBlockTableRecord
  2
_D
340
0
 70
     0
280
     1
281
     0
  0
BLOCK_RECORD
  5
8D
330
1
100
AcDbSymbolTableRecord
100
AcDbBlockTableRecord
  2
_D_1
340
0
 70
     0
280
     1
281
     0
  0
BLOCK_RECORD
  5
99
330
1
100
AcDbSymbolTableRecord
100
AcDbBlockTableRecord
  2
SW_CENTERMARKSYMBOL_0
340
0
102
{BLKREFS
331
A4
102
}
 70
     0
280
     1
281
     0
  0
BLOCK_RECORD
  5
F2
330
1
100
AcDbSymbolTableRecord
100
AcDbBlockTableRecord
  2
_D_2
340
0
 70
     0
280
     1
281
     0
  0
ENDTAB
  0
ENDSEC
  0
SECTION
  2
BLOCKS
  0
BLOCK
  5
20
330
1F
100
AcDbEntity
  8
0
100
AcDbBlockBegin
  2
*Model_Space
 70
     0
 10
0.0
 20
0.0
 30
0.0
  3
*Model_Space
  1

  0
ENDBLK
  5
21
330
1F
100
AcDbEntity
  8
0
100
AcDbBlockEnd
  0
BLOCK
  5
1C
330
1B
100
AcDbEntity
 67
     1
  8
0
100
AcDbBlockBegin
  2
*Paper_Space
 70
     0
 10
0.0
 20
0.0
 30
0.0
  3
*Paper_Space
  1

  0
ENDBLK
  5
1D
330
1B
100
AcDbEntity
 67
     1
  8
0
100
AcDbBlockEnd
  0
BLOCK
  5
24
330
23
100
AcDbEntity
  8
0
100
AcDbBlockBegin
  2
*Paper_Space0
 70
     0
 10
0.0
 20
0.0
 30
0.0
  3
*Paper_Space0
  1

  0
ENDBLK
  5
25
330
23
100
AcDbEntity
  8
0
100
AcDbBlockEnd
  0
BLOCK
  5
82
330
81
100
AcDbEntity
  8
0
100
AcDbBlockBegin
  2
_D
 70
     0
 10
0.0
 20
0.0
 30
0.0
  3
_D
  1

  0
SOLID
  5
84
330
81
100
AcDbEntity
  8
2
 62
     7
420
 16777215
100
AcDbTrace
 10
148.0033802679
 20
110.1184858034
 30
0.0
 11
144.7013802679
 21
110.6264858034
 31
0.0
 12
144.7013802679
 22
109.6104858034
 32
0.0
 13
144.7013802679
 23
109.6104858034
 33
0.0
  0
SOLID
  5
85
330
81
100
AcDbEntity
  8
2
 62
     7
420
 16777215
100
AcDbTrace
 10
138.0153453965
 20
110.1184858034
 30
0.0
 11
141.3173453965
 21
109.6104858034
 31
0.0
 12
141.3173453965
 22
110.6264858034
 32
0.0
 13
141.3173453965
 23
110.6264858034
 33
0.0
  0
LINE
  5
86
330
81
100
AcDbEntity
  8
2
 62
     7
420
 16777215
100
AcDbLine
 10
148.0033802679
 20
105.1110443298
 30
0.0
 11
148.0033802679
 21
111.1184858034
 31
0.0
  0
LINE
  5
87
330
81
100
AcDbEntity
  8
2
 62
     7
420
 16777215
100
AcDbLine
 10
138.0153453965
 20
103.5640131735
 30
0.0
 11
138.0153453965
 21
111.1184858034
 31
0.0
  0
LINE
  5
88
330
81
100
AcDbEntity
  8
2
 62
     7
420
 16777215
100
AcDbLine
 10
148.0033802679
 20
110.1184858034
 30
0.0
 11
164.7696998967
 21
110.1184858034
 31
0.0
  0
LINE
  5
89
330
81
100
AcDbEntity
  8
2
 62
     7
420
 16777215
100
AcDbLine
 10
148.0033802679
 20
110.1184858034
 30
0.0
 11
138.0153453965
 21
110.1184858034
 31
0.0
  0
MTEXT
  5
8A
330
81
100
AcDbEntity
  8
2
 62
     7
420
 16777215
100
AcDbMText
 10
152.8745611263
 20
114.630222718
 30
-46.5161989144
 40
3.5
 41
0.0
 46
0.0
 71
     1
 72
     1
  1
9,99
  7
SLDTEXTSTYLE0
 73
     1
 44
1.0
  0
ENDBLK
  5
83
330
81
100
AcDbEntity
  8
0
100
AcDbBlockEnd
  0
BLOCK
  5
8E
330
8D
100
AcDbEntity
  8
0
100
AcDbBlockBegin
  2
_D_1
 70
     0
 10
0.0
 20
0.0
 30
0.0
  3
_D_1
  1

  0
SOLID
  5
90
330
8D
100
AcDbEntity
  8
2
 62
     7
420
 16777215
100
AcDbTrace
 10
131.4153453965
 20
79.5597410633
 30
0.0
 11
128.1133453965
 21
80.0677410633
 31
0.0
 12
128.1133453965
 22
79.0517410633
 32
0.0
 13
128.1133453965
 23
79.0517410633
 33
0.0
  0
SOLID
  5
91
330
8D
100
AcDbEntity
  8
2
 62
     7
420
 16777215
100
AcDbTrace
 10
144.6153453965
 20
79.5597410633
 30
0.0
 11
147.9173453965
 21
79.0517410633
 31
0.0
 12
147.9173453965
 22
80.0677410633
 32
0.0
 13
147.9173453965
 23
80.0677410633
 33
0.0
  0
LINE
  5
92
330
8D
100
AcDbEntity
  8
2
 62
     7
420
 16777215
100
AcDbLine
 10
131.4153453965
 20
96.5140131735
 30
0.0
 11
131.4153453965
 21
78.5597410633
 31
0.0
  0
LINE
  5
93
330
8D
100
AcDbEntity
  8
2
 62
     7
420
 16777215
100
AcDbLine
 10
144.6153453965
 20
96.5140131735
 30
0.0
 11
144.6153453965
 21
78.5597410633
 31
0.0
  0
LINE
  5
94
330
8D
100
AcDbEntity
  8
2
 62
     7
420
 16777215
100
AcDbLine
 10
131.4153453965
 20
79.5597410633
 30
0.0
 11
126.4153453965
 21
79.5597410633
 31
0.0
  0
LINE
  5
95
330
8D
100
AcDbEntity
  8
2
 62
     7
420
 16777215
100
AcDbLine
 10
131.4153453965
 20
79.5597410633
 30
0.0
 11
144.6153453965
 21
79.5597410633
 31
0.0
  0
LINE
  5
96
330
8D
100
AcDbEntity
  8
2
 62
     7
420
 16777215
100
AcDbLine
 10
144.6153453965
 20
79.5597410633
 30
0.0
 11
169.2462143157
 21
79.5597410633
 31
0.0
  0
MTEXT
  5
97
330
8D
100
AcDbEntity
  8
2
 62
     7
420
 16777215
100
AcDbMText
 10
149.4865257893
 20
84.0714781525
 30
-46.5161989144
 40
3.5
 41
0.0
 46
0.0
 71
     1
 72
     1
  1
%%c
  7
SLDTEXTSTYLE0
 73
     1
 44
1.0
  0
MTEXT
  5
98
330
8D
100
AcDbEntity
  8
2
 62
     7
420
 16777215
100
AcDbMText
 10
154.7649631877
 20
84.1249503291
 30
-46.5161989144
 40
3.5
 41
0.0
 46
0.0
 71
     1
 72
     1
  1
13,20
  7
SLDTEXTSTYLE0
 73
     1
 44
1.0
  0
ENDBLK
  5
8F
330
8D
100
AcDbEntity
  8
0
100
AcDbBlockEnd
  0
BLOCK
  5
9A
330
99
100
AcDbEntity
  8
0
100
AcDbBlockBegin
  2
SW_CENTERMARKSYMBOL_0
 70
     0
 10
0.0
 20
0.0
 30
0.0
  3
SW_CENTERMARKSYMBOL_0
  1

  0
LINE
  5
9C
330
99
100
AcDbEntity
  8
2
  6
SLD-Durchgehend
 62
     0
370
    15
100
AcDbLine
 10
0.0
 20
0.0
 30
0.0
 11
0.0
 21
2.5
 31
0.0
  0
LINE
  5
9D
330
99
100
AcDbEntity
  8
2
  6
SLD-Durchgehend
 62
     0
370
    15
100
AcDbLine
 10
0.0
 20
0.0
 30
0.0
 11
-2.5
 21
0.0
 31
0.0
  0
LINE
  5
9E
330
99
100
AcDbEntity
  8
2
  6
SLD-Durchgehend
 62
     0
370
    15
100
AcDbLine
 10
0.0
 20
0.0
 30
0.0
 11
0.0
 21
-2.5
 31
0.0
  0
LINE
  5
9F
330
99
100
AcDbEntity
  8
2
  6
SLD-Durchgehend
 62
     0
370
    15
100
AcDbLine
 10
0.0
 20
0.0
 30
0.0
 11
2.5
 21
0.0
 31
0.0
  0
LINE
  5
A0
330
99
100
AcDbEntity
  8
2
  6
SLD-Durchgehend
 62
     0
370
    15
100
AcDbLine
 10
0.0
 20
5.0
 30
0.0
 11
0.0
 21
5.05
 31
0.0
  0
LINE
  5
A1
330
99
100
AcDbEntity
  8
2
  6
SLD-Durchgehend
 62
     0
370
    15
100
AcDbLine
 10
-5.0
 20
0.0
 30
0.0
 11
-5.05
 21
0.0
 31
0.0
  0
LINE
  5
A2
330
99
100
AcDbEntity
  8
2
  6
SLD-Durchgehend
 62
     0
370
    15
100
AcDbLine
 10
0.0
 20
-5.0
 30
0.0
 11
0.0
 21
-5.05
 31
0.0
  0
LINE
  5
A3
330
99
100
AcDbEntity
  8
2
  6
SLD-Durchgehend
 62
     0
370
    15
100
AcDbLine
 10
5.0
 20
0.0
 30
0.0
 11
5.05
 21
0.0
 31
0.0
  0
ENDBLK
  5
9B
330
99
100
AcDbEntity
  8
0
100
AcDbBlockEnd
  0
BLOCK
  5
F3
330
F2
100
AcDbEntity
  8
0
100
AcDbBlockBegin
  2
_D_2
 70
     0
 10
0.0
 20
0.0
 30
0.0
  3
_D_2
  1

  0
SOLID
  5
F5
330
F2
100
AcDbEntity
  8
2
 62
     7
420
 16777215
100
AcDbTrace
 10
93.0426906108
 20
79.5597410633
 30
0.0
 11
96.3446906108
 21
79.0517410633
 31
0.0
 12
96.3446906108
 22
80.0677410633
 32
0.0
 13
96.3446906108
 23
80.0677410633
 33
0.0
  0
SOLID
  5
F6
330
F2
100
AcDbEntity
  8
2
 62
     7
420
 16777215
100
AcDbTrace
 10
91.0557159944
 20
79.5597410633
 30
0.0
 11
87.7537159944
 21
80.0677410633
 31
0.0
 12
87.7537159944
 22
79.0517410633
 32
0.0
 13
87.7537159944
 23
79.0517410633
 33
0.0
  0
LINE
  5
F7
330
F2
100
AcDbEntity
  8
2
 62
     7
420
 16777215
100
AcDbLine
 10
93.0426906108
 20
84.6710934128
 30
0.0
 11
93.0426906108
 21
78.5597410633
 31
0.0
  0
LINE
  5
F8
330
F2
100
AcDbEntity
  8
2
 62
     7
420
 16777215
100
AcDbLine
 10
91.0557159944
 20
84.738455384
 30
0.0
 11
91.0557159944
 21
78.5597410633
 31
0.0
  0
LINE
  5
F9
330
F2
100
AcDbEntity
  8
2
 62
     7
420
 16777215
100
AcDbLine
 10
93.0426906108
 20
79.5597410633
 30
0.0
 11
98.0426906108
 21
79.5597410633
 31
0.0
  0
LINE
  5
FA
330
F2
100
AcDbEntity
  8
2
 62
     7
420
 16777215
100
AcDbLine
 10
93.0426906108
 20
79.5597410633
 30
0.0
 11
91.0557159944
 21
79.5597410633
 31
0.0
  0
LINE
  5
FB
330
F2
100
AcDbEntity
  8
2
 62
     7
420
 16777215
100
AcDbLine
 10
91.0557159944
 20
79.5597410633
 30
0.0
 11
74.2893963656
 21
79.5597410633
 31
0.0
  0
MTEXT
  5
FC
330
F2
100
AcDbEntity
  8
2
 62
     7
420
 16777215
100
AcDbMText
 10
74.2893963656
 20
84.0714779779
 30
4.755
 40
3.5
 41
0.0
 46
0.0
 71
     1
 72
     1
  1
1,99
  7
SLDTEXTSTYLE0
 73
     1
 44
1.0
  0
ENDBLK
  5
F4
330
F2
100
AcDbEntity
  8
0
100
AcDbBlockEnd
  0
ENDSEC
  0
SECTION
  2
ENTITIES
  0
CIRCLE
  5
48
330
1F
100
AcDbEntity
  8
0
  6
SLD-Punktstrich
 62
     7
100
AcDbCircle
 10
138.0153453965
 20
97.5140131735
 30
0.0
 40
6.599999999999957
  0
CIRCLE
  5
49
330
1F
100
AcDbEntity
  8
0
  6
SLD-Punktstrich
 62
     7
100
AcDbCircle
 10
138.0153453965
 20
97.5140131735
 30
0.0
 40
11.97999999999997
  0
POINT
  5
4A
330
1F
100
AcDbEntity
  8
1
 62
     4
420
    65535
100
AcDbPoint
 10
138.0153453965
 20
97.5140131735
 30
0.0
  0
POINT
  5
4B
330
1F
100
AcDbEntity
  8
1
 62
     4
420
    65535
100
AcDbPoint
 10
138.0153453965
 20
97.5140131735
 30
0.0
  0
POINT
  5
4C
330
1F
100
AcDbEntity
  8
1
 62
     4
420
    65535
100
AcDbPoint
 10
138.0153453965
 20
97.5140131735
 30
0.0
  0
LINE
  5
4D
330
1F
100
AcDbEntity
  8
1
 62
     4
420
    65535
100
AcDbLine
 10
136.2254352919
 20
87.4620542192
 30
0.0
 11
138.7340859372
 21
85.5654600544
 31
0.0
  0
LINE
  5
4E
330
1F
100
AcDbEntity
  8
1
 62
     4
420
    65535
100
AcDbLine
 10
147.615552261
 20
100.9898850295
 30
0.0
 11
148.0037256658
 21
104.1107373
 31
0.0
  0
LINE
  5
4F
330
1F
100
AcDbEntity
  8
1
 62
     4
420
    65535
100
AcDbLine
 10
130.2050486366
 20
104.0901002717
 30
0.0
 11
127.3082245865
 21
102.865842166
 31
0.0
  0
LINE
  5
50
330
1F
100
AcDbEntity
  8
1
 62
     4
420
    65535
100
AcDbLine
 10
138.7783054763
 20
85.738455384
 30
0.0
 11
136.5540714363
 21
87.4090633895
 31
0.0
  0
ARC
  5
51
330
1F
100
AcDbEntity
  8
1
 62
     4
420
    65535
100
AcDbCircle
 10
138.0153453965
 20
97.5140131735
 30
0.0
 40
10.21006031925435
100
AcDbArc
 50
261.7715149063
 51
278.1591780305
  0
ARC
  5
52
330
1F
100
AcDbEntity
  8
1
 62
     4
420
    65535
100
AcDbCircle
 10
145.5415781788
 20
83.933422877
 30
0.0
 40
6.999999999999998
100
AcDbArc
 50
150.2465610032
 51
165.0567741258
  0
LINE
  5
53
330
1F
100
AcDbEntity
  8
1
 62
     4
420
    65535
100
AcDbLine
 10
147.831797546
 20
104.0625348794
 30
0.0
 11
147.4971255935
 21
101.300987694
 31
0.0
  0
ARC
  5
54
330
1F
100
AcDbEntity
  8
1
 62
     4
420
    65535
100
AcDbCircle
 10
138.0153453965
 20
97.5140131735
 30
0.0
 40
10.21006031925434
100
AcDbArc
 50
21.7715149063
 51
38.1591780305
  0
ARC
  5
55
330
1F
100
AcDbEntity
  8
1
 62
     4
420
    65535
100
AcDbCircle
 10
146.0133652004
 20
110.822217106
 30
0.0
 40
6.999999999999991
100
AcDbArc
 50
270.2465610032
 51
285.0567741258
  0
ARC
  5
56
330
1F
100
AcDbEntity
  8
1
 62
     4
420
    65535
100
AcDbCircle
 10
122.4910928102
 20
97.7863995374
 30
0.0
 40
7.000000000000009
100
AcDbArc
 50
30.2465610032
 51
45.0567741258
  0
LINE
  5
57
330
1F
100
AcDbEntity
  8
1
 62
     4
420
    65535
100
AcDbLine
 10
127.4359331672
 20
102.741049257
 30
0.0
 11
129.9948391597
 21
103.8319884369
 31
0.0
  0
ARC
  5
58
330
1F
100
AcDbEntity
  8
1
 62
     4
420
    65535
100
AcDbCircle
 10
138.0153453965
 20
97.5140131735
 30
0.0
 40
10.21006031925433
100
AcDbArc
 50
141.7715149063
 51
158.1591780305
  0
LINE
  5
59
330
1F
100
AcDbEntity
  8
1
 62
     4
420
    65535
100
AcDbLine
 10
136.2327684362
 20
87.4607673741
 30
0.0
 11
136.1722262458
 21
87.5063891869
 31
0.0
  0
LINE
  5
5A
330
1F
100
AcDbEntity
  8
1
 62
     4
420
    65535
100
AcDbLine
 10
136.1722262458
 20
87.5063891869
 30
0.0
 11
135.9942176808
 21
87.8147090657
 31
0.0
  0
LINE
  5
5B
330
1F
100
AcDbEntity
  8
1
 62
     4
420
    65535
100
AcDbLine
 10
136.5273523005
 20
87.4129633137
 30
0.0
 11
135.9942176808
 21
87.8147090657
 31
0.0
  0
ARC
  5
5C
330
1F
100
AcDbEntity
  8
1
 62
     4
420
    65535
100
AcDbCircle
 10
138.0153453965
 20
97.5140131735
 30
0.0
 40
10.21006031925434
100
AcDbArc
 50
261.6199863657
 51
261.7715149063
  0
LINE
  5
5D
330
1F
100
AcDbEntity
  8
1
 62
     4
420
    65535
100
AcDbLine
 10
136.2262329016
 20
87.4619284045
 30
0.0
 11
138.7345245318
 21
85.5656056628
 31
0.0
  0
LINE
  5
5E
330
1F
100
AcDbEntity
  8
1
 62
     4
420
    65535
100
AcDbLine
 10
136.2262329016
 20
87.4619284045
 30
0.0
 11
136.2327684362
 21
87.4607673741
 31
0.0
  0
ARC
  5
5F
330
1F
100
AcDbEntity
  8
1
 62
     4
420
    65535
100
AcDbCircle
 10
145.5415781788
 20
83.933422877
 30
0.0
 40
6.999999999999999
100
AcDbArc
 50
165.0567741258
 51
166.5162856703
  0
LINE
  5
60
330
1F
100
AcDbEntity
  8
1
 62
     4
420
    65535
100
AcDbLine
 10
130.2002676238
 20
104.084393005
 30
0.0
 11
130.2700483679
 21
104.1140131735
 31
0.0
  0
LINE
  5
61
330
1F
100
AcDbEntity
  8
1
 62
     4
420
    65535
100
AcDbLine
 10
130.2700483679
 20
104.1140131735
 30
0.0
 11
130.626065498
 21
104.1140131735
 31
0.0
  0
LINE
  5
62
330
1F
100
AcDbEntity
  8
1
 62
     4
420
    65535
100
AcDbLine
 10
130.011576161
 20
103.8531779251
 30
0.0
 11
130.626065498
 21
104.1140131735
 31
0.0
  0
ARC
  5
63
330
1F
100
AcDbEntity
  8
1
 62
     4
420
    65535
100
AcDbCircle
 10
138.0153453965
 20
97.5140131735
 30
0.0
 40
10.21006031925434
100
AcDbArc
 50
141.6199863657
 51
141.7715149063
  0
LINE
  5
64
330
1F
100
AcDbEntity
  8
1
 62
     4
420
    65535
100
AcDbLine
 10
130.204540873
 20
104.0894724288
 30
0.0
 11
127.3081313899
 21
102.8653895278
 31
0.0
  0
LINE
  5
65
330
1F
100
AcDbEntity
  8
1
 62
     4
420
    65535
100
AcDbLine
 10
130.204540873
 20
104.0894724288
 30
0.0
 11
130.2002676238
 21
104.084393005
 31
0.0
  0
ARC
  5
66
330
1F
100
AcDbEntity
  8
1
 62
     4
420
    65535
100
AcDbCircle
 10
122.4910928102
 20
97.7863995374
 30
0.0
 40
7.000000000000009
100
AcDbArc
 50
45.0567741258
 51
46.5162856703
  0
LINE
  5
67
330
1F
100
AcDbEntity
  8
1
 62
     4
420
    65535
100
AcDbLine
 10
147.6130001294
 20
100.9968791414
 30
0.0
 11
147.6037615758
 21
100.9216371601
 31
0.0
  0
LINE
  5
68
330
1F
100
AcDbEntity
  8
1
 62
     4
420
    65535
100
AcDbLine
 10
147.6037615758
 20
100.9216371601
 30
0.0
 11
147.4257530107
 21
100.6133172813
 31
0.0
  0
LINE
  5
69
330
1F
100
AcDbEntity
  8
1
 62
     4
420
    65535
100
AcDbLine
 10
147.5071077279
 20
101.2758982816
 30
0.0
 11
147.4257530107
 21
100.6133172813
 31
0.0
  0
ARC
  5
6A
330
1F
100
AcDbEntity
  8
1
 62
     4
420
    65535
100
AcDbCircle
 10
138.0153453965
 20
97.5140131735
 30
0.0
 40
10.21006031925434
100
AcDbArc
 50
21.6199863657
 51
21.7715149063
  0
LINE
  5
6B
330
1F
100
AcDbEntity
  8
1
 62
     4
420
    65535
100
AcDbLine
 10
147.6152624149
 20
100.9906386871
 30
0.0
 11
148.0033802679
 21
104.1110443298
 31
0.0
  0
LINE
  5
6C
330
1F
100
AcDbEntity
  8
1
 62
     4
420
    65535
100
AcDbLine
 10
147.6152624149
 20
100.9906386871
 30
0.0
 11
147.6130001294
 21
100.9968791414
 31
0.0
  0
ARC
  5
6D
330
1F
100
AcDbEntity
  8
1
 62
     4
420
    65535
100
AcDbCircle
 10
146.0133652004
 20
110.822217106
 30
0.0
 40
6.999999999999995
100
AcDbArc
 50
285.0567741258
 51
286.5162856703
  0
LINE
  5
6E
330
1F
100
AcDbEntity
  8
1
 62
     4
420
    65535
100
AcDbLine
 10
147.4257530107
 20
100.6133172813
 30
0.0
 11
140.7321031595
 21
89.0195756509
 31
0.0
  0
LINE
  5
6F
330
1F
100
AcDbEntity
  8
1
 62
     4
420
    65535
100
AcDbLine
 10
135.9942176808
 20
87.8147090657
 30
0.0
 11
129.3005678295
 21
99.4084506961
 31
0.0
  0
LINE
  5
70
330
1F
100
AcDbEntity
  8
1
 62
     4
420
    65535
100
AcDbLine
 10
130.626065498
 20
104.1140131735
 30
0.0
 11
144.0133652004
 21
104.1140131735
 31
0.0
  0
CIRCLE
  5
71
330
1F
100
AcDbEntity
  8
1
 62
     4
420
    65535
100
AcDbCircle
 10
138.0153453965
 20
97.5140131735
 30
0.0
 40
2.549999999999983
  0
ARC
  5
72
330
1F
100
AcDbEntity
  8
1
 62
     4
420
    65535
100
AcDbCircle
 10
122.4910928102
 20
97.7863995374
 30
0.0
 40
7.000000000000073
100
AcDbArc
 50
13.398450401
 51
30.2465610032
  0
ARC
  5
73
330
1F
100
AcDbEntity
  8
1
 62
     4
420
    65535
100
AcDbCircle
 10
146.0133652004
 20
110.822217106
 30
0.0
 40
6.99999999999999
100
AcDbArc
 50
253.398450401
 51
270.2465610032
  0
ARC
  5
74
330
1F
100
AcDbEntity
  8
1
 62
     4
420
    65535
100
AcDbCircle
 10
145.5415781788
 20
83.933422877
 30
0.0
 40
7.000000000000019
100
AcDbArc
 50
133.398450401
 51
150.2465610032
  0
LINE
  5
75
330
1F
100
AcDbEntity
  8
1
 62
     4
420
    65535
100
AcDbLine
 10
138.7345245318
 20
85.5656056628
 30
0.0
 11
138.7346765723
 21
85.5662392845
 31
0.0
  0
LINE
  5
76
330
1F
100
AcDbEntity
  8
1
 62
     4
420
    65535
100
AcDbLine
 10
148.0033802679
 20
104.1110443298
 30
0.0
 11
148.0027555151
 21
104.11085919
 31
0.0
  0
LINE
  5
77
330
1F
100
AcDbEntity
  8
1
 62
     4
420
    65535
100
AcDbLine
 10
127.3081313899
 20
102.8653895278
 30
0.0
 11
127.3086041021
 21
102.8649410459
 31
0.0
  0
LINE
  5
78
330
1F
100
AcDbEntity
  8
1
  6
SLD-Gestrichelt
 62
   131
420
  8454143
370
     0
100
AcDbLine
 10
136.2327684362
 20
87.4607673741
 30
0.0
 11
136.5273523005
 21
87.4129633137
 31
0.0
  0
LINE
  5
79
330
1F
100
AcDbEntity
  8
1
  6
SLD-Gestrichelt
 62
   131
420
  8454143
370
     0
100
AcDbLine
 10
130.2002676238
 20
104.084393005
 30
0.0
 11
130.011576161
 21
103.8531779251
 31
0.0
  0
LINE
  5
7A
330
1F
100
AcDbEntity
  8
1
  6
SLD-Gestrichelt
 62
   131
420
  8454143
370
     0
100
AcDbLine
 10
147.6130001294
 20
100.9968791414
 30
0.0
 11
147.5071077279
 21
101.2758982816
 31
0.0
  0
LINE
  5
7B
330
1F
100
AcDbEntity
  8
1
  6
SLD-Gestrichelt
 62
   131
420
  8454143
370
     0
100
AcDbLine
 10
138.7606858254
 20
85.6710934128
 30
0.0
 11
136.4389404229
 21
87.4263831703
 31
0.0
  0
LINE
  5
7C
330
1F
100
AcDbEntity
  8
1
  6
SLD-Gestrichelt
 62
   131
420
  8454143
370
     0
100
AcDbLine
 10
147.8989445497
 20
104.0809567997
 30
0.0
 11
147.5396917301
 21
101.1926214213
 31
0.0
  0
LINE
  5
7D
330
1F
100
AcDbEntity
  8
1
  6
SLD-Gestrichelt
 62
   131
420
  8454143
370
     0
100
AcDbLine
 10
127.3864058144
 20
102.7899893079
 30
0.0
 11
130.0674040365
 21
103.9230349289
 31
0.0
  0
DIMENSION
  5
7E
330
1F
100
AcDbEntity
  8
2
 62
     7
420
 16777215
100
AcDbDimension
  2
_D
 10
138.0153453965
 20
110.1184858034
 30
0.0
 11
158.8221305115
 21
110.1184858034
 31
0.0
 70
   160
  1
<>
 71
     2
 42
-1.0
 73
     0
 74
     0
 75
     0
  3
SLDDIMSTYLE0
100
AcDbAlignedDimension
 13
148.0033802679
 23
104.1110443298
 33
0.0
 14
138.0153453965
 24
102.5640131735
 34
0.0
100
AcDbRotatedDimension
  0
DIMENSION
  5
8B
330
1F
100
AcDbEntity
  8
2
 62
     7
420
 16777215
100
AcDbDimension
  2
_D_1
 10
144.6153453965
 20
79.5597410633
 30
0.0
 11
159.3663700525
 21
79.5597410633
 31
0.0
 70
   160
  1
%%c<>
 71
     2
 42
-1.0
 73
     0
 74
     0
 75
     0
  3
SLDDIMSTYLE1
100
AcDbAlignedDimension
 13
131.4153453965
 23
97.5140131735
 33
0.0
 14
144.6153453965
 24
97.5140131735
 34
0.0
100
AcDbRotatedDimension
  0
INSERT
  5
A4
330
1F
100
AcDbEntity
  8
2
  6
SLD-Durchgehend
 62
   208
420
  4194368
370
    15
100
AcDbBlockReference
  2
SW_CENTERMARKSYMBOL_0
 10
138.0153453965
 20
97.5140131735
 30
0.0
  0
LINE
  5
A5
330
1F
100
AcDbEntity
  8
1
 62
     4
420
    65535
100
AcDbLine
 10
93.0426350887
 20
102.7934392464
 30
0.0
 11
93.0259308739
 21
103.1553402328
 31
0.0
  0
LINE
  5
A6
330
1F
100
AcDbEntity
  8
1
 62
     4
420
    65535
100
AcDbLine
 10
92.8782248143
 20
100.9906386871
 30
0.0
 11
92.9347246429
 21
104.1110443298
 31
0.0
  0
SPLINE
  5
A7
330
1F
100
AcDbEntity
  8
1
 62
     4
420
    65535
100
AcDbSpline
210
0.0
220
0.0
230
1.0
 70
     8
 71
     3
 72
    23
 73
    19
 74
     0
 42
0.00000001
 43
0.00000001
 12
1.0
 22
0.0
 32
0.0
 13
1.0
 23
0.0
 33
0.0
 40
0.0
 40
0.0
 40
0.0
 40
0.0
 40
0.0000311168115517
 40
0.0000311168115517
 40
0.0000311168115517
 40
0.0000621922774787
 40
0.0000621922774787
 40
0.0000621922774787
 40
0.0000939204486582
 40
0.0000939204486582
 40
0.0000939204486582
 40
0.0001279104421662
 40
0.0001279104421662
 40
0.0001279104421662
 40
0.0001646701885851
 40
0.0001646701885851
 40
0.0001646701885851
 40
0.0001718138778412
 40
0.0001718138778412
 40
0.0001718138778412
 40
0.0001718138778412
 10
92.93472464289734
 20
104.1110443298192
 30
0.0
 10
92.9450500206026
 20
104.1113244032837
 30
0.0
 10
92.95569160047104
 20
104.1110950904373
 30
0.0
 10
92.96575346246273
 20
104.1103799132215
 30
0.0
 10
92.97580837505974
 20
104.1096652299548
 30
0.0
 10
92.98555297684919
 20
104.1084488513496
 30
0.0
 10
92.99425245270729
 20
104.1068582643506
 30
0.0
 10
93.00314059819502
 20
104.1052331815424
 30
0.0
 10
93.0111690870365
 20
104.1031798374322
 30
0.0
 10
93.01784305061389
 20
104.1008830075118
 30
0.0
 10
93.02498988622165
 20
104.0984234397198
 30
0.0
 10
93.03076773646781
 20
104.0956255863424
 30
0.0
 10
93.03487215202314
 20
104.0927152437936
 30
0.0
 10
93.03930657454754
 20
104.0895709012244
 30
0.0
 10
93.04190445605714
 20
104.0862155595336
 30
0.0
 10
93.04253866857147
 20
104.0829075110688
 30
0.0
 10
93.04266342050772
 20
104.082256805758
 30
0.0
 10
93.04271409383828
 20
104.0816059513611
 30
0.0
 10
93.0426906107732
 20
104.0809567996651
 30
0.0
  0
LINE
  5
A8
330
1F
100
AcDbEntity
  8
1
 62
     4
420
    65535
100
AcDbLine
 10
93.0426906108
 20
104.0809567997
 30
0.0
 11
92.9903927776
 21
101.1926214213
 31
0.0
  0
SPLINE
  5
A9
330
1F
100
AcDbEntity
  8
1
 62
     4
420
    65535
100
AcDbSpline
210
0.0
220
0.0
230
1.0
 70
     8
 71
     3
 72
    12
 73
     8
 74
     0
 42
0.00000001
 43
0.00000001
 12
1.0
 22
0.0
 32
0.0
 13
1.0
 23
0.0
 33
0.0
 40
0.0
 40
0.0
 40
0.0
 40
0.0
 40
0.4999999999999999
 40
0.4999999999999999
 40
0.7499999999999999
 40
0.7499999999999999
 40
1.0
 40
1.0
 40
1.0
 40
1.0
 10
92.99039277755296
 20
101.1926214212699
 30
0.0
 10
92.98975124654694
 20
101.1510525836571
 30
0.0
 10
92.98333935974914
 20
101.1103819188303
 30
0.0
 10
92.96041456725872
 20
101.0515606171635
 30
0.0
 10
92.95039917339213
 20
101.0321745802072
 30
0.0
 10
92.92208689815769
 20
101.0001738009725
 30
0.0
 10
92.90056730527007
 20
100.986577546077
 30
0.0
 10
92.87822481427598
 20
100.99063868714
 30
0.0
  0
LINE
  5
AA
330
1F
100
AcDbEntity
  8
1
 62
     4
420
    65535
100
AcDbLine
 10
91.2538667304
 20
104.1140131735
 30
0.0
 11
91.2538667304
 21
104.0674207607
 31
0.0
  0
LINE
  5
AB
330
1F
100
AcDbEntity
  8
1
 62
     4
420
    65535
100
AcDbLine
 10
91.2538667304
 20
104.1140131735
 30
0.0
 11
92.8438667304
 21
104.1140131735
 31
0.0
  0
LINE
  5
AC
330
1F
100
AcDbEntity
  8
1
 62
     4
420
    65535
100
AcDbLine
 10
92.8438667304
 20
104.1140131735
 30
0.0
 11
92.8438667304
 21
104.1085856376
 31
0.0
  0
ELLIPSE
  5
AD
330
1F
100
AcDbEntity
  8
1
 62
     4
420
    65535
100
AcDbEllipse
 10
61.0098111281
 20
110.822217106
 30
0.0
 11
80.0103313106431
 21
-0.8595659193899365
 31
0.0
210
0.0
220
0.0
230
1.0
 40
0.0868265907
 41
5.098285105244021
 42
5.123758387166007
  0
LINE
  5
AE
330
1F
100
AcDbEntity
  8
1
 62
     4
420
    65535
100
AcDbLine
 10
92.8438667304
 20
100.9968791414
 30
0.0
 11
92.8438667304
 21
100.9216371601
 31
0.0
  0
LINE
  5
AF
330
1F
100
AcDbEntity
  8
1
 62
     4
420
    65535
100
AcDbLine
 10
92.8438667304
 20
100.9216371601
 30
0.0
 11
91.2538667304
 21
100.6133172813
 31
0.0
  0
LINE
  5
B0
330
1F
100
AcDbEntity
  8
1
 62
     4
420
    65535
100
AcDbLine
 10
91.2538667304
 20
101.2758982816
 30
0.0
 11
91.2538667304
 21
100.6133172813
 31
0.0
  0
ELLIPSE
  5
B1
330
1F
100
AcDbEntity
  8
1
 62
     4
420
    65535
100
AcDbEllipse
 10
-11.1885908983
 20
97.5140131735
 30
0.0
 11
116.70147269217
 21
-1.253745697906652
 31
0.0
210
0.0
220
0.0
230
1.0
 40
0.0868265907
 41
0.5004457879530336
 42
0.5030904598973316
  0
LINE
  5
B2
330
1F
100
AcDbEntity
  8
1
 62
     4
420
    65535
100
AcDbLine
 10
91.0557159944
 20
104.0625348794
 30
0.0
 11
91.1056719949
 21
101.300987694
 31
0.0
  0
ELLIPSE
  5
B3
330
1F
100
AcDbEntity
  8
1
 62
     4
420
    65535
100
AcDbEllipse
 10
-11.1885908983
 20
97.5140131735
 30
0.0
 11
116.70147269217
 21
-1.253745697906652
 31
0.0
210
0.0
220
0.0
230
1.0
 40
0.0868265907
 41
0.4705648786872168
 42
0.4712150082065523
  0
LINE
  5
B4
330
1F
100
AcDbEntity
  8
1
 62
     4
420
    65535
100
AcDbLine
 10
91.2538667304
 20
89.0195756509
 30
0.0
 11
92.8438667304
 21
89.0195756509
 31
0.0
  0
LINE
  5
B5
330
1F
100
AcDbEntity
  8
1
 62
     4
420
    65535
100
AcDbLine
 10
91.2538667304
 20
100.6133172813
 30
0.0
 11
91.2538667304
 21
89.0195756509
 31
0.0
  0
LINE
  5
B6
330
1F
100
AcDbEntity
  8
1
 62
     4
420
    65535
100
AcDbLine
 10
92.8438667304
 20
100.9216371601
 30
0.0
 11
92.8438667304
 21
89.0195756509
 31
0.0
  0
ELLIPSE
  5
B7
330
1F
100
AcDbEntity
  8
1
 62
     4
420
    65535
100
AcDbEllipse
 10
90.9472450614
 20
83.933422877
 30
0.0
 11
0.09284984464031254
 21
6.999999903835985
 31
0.0
210
0.0
220
0.0
230
1.0
 40
0.0124965208
 41
4.973363229903687
 42
5.23185021181569
  0
LINE
  5
B8
330
1F
100
AcDbEntity
  8
1
 62
     4
420
    65535
100
AcDbLine
 10
91.2538667304
 20
87.4073031726
 30
0.0
 11
91.0692733342
 21
87.4073031726
 31
0.0
  0
LINE
  5
B9
330
1F
100
AcDbEntity
  8
1
 62
     4
420
    65535
100
AcDbLine
 10
93.0284601266
 20
87.4073031726
 30
0.0
 11
92.8438667304
 21
87.4073031726
 31
0.0
  0
ELLIPSE
  5
BA
330
1F
100
AcDbEntity
  8
1
 62
     4
420
    65535
100
AcDbEllipse
 10
93.1504883995
 20
83.933422877
 30
0.0
 11
-0.09284984464031254
 21
6.999999903835985
 31
0.0
210
0.0
220
0.0
230
1.0
 40
0.0124965208
 41
1.0513350953641
 42
1.319769005049996
  0
SPLINE
  5
BB
330
1F
100
AcDbEntity
  8
1
 62
     4
420
    65535
100
AcDbSpline
210
0.0
220
0.0
230
1.0
 70
     8
 71
     3
 72
    23
 73
    19
 74
     0
 42
0.00000001
 43
0.00000001
 12
1.0
 22
0.0
 32
0.0
 13
1.0
 23
0.0
 33
0.0
 40
0.0
 40
0.0
 40
0.0
 40
0.0
 40
0.0000311168115517
 40
0.0000311168115517
 40
0.0000311168115517
 40
0.0000621922774787
 40
0.0000621922774787
 40
0.0000621922774787
 40
0.0000939204486582
 40
0.0000939204486582
 40
0.0000939204486582
 40
0.0001279104421662
 40
0.0001279104421662
 40
0.0001279104421662
 40
0.0001646701885851
 40
0.0001646701885851
 40
0.0001646701885851
 40
0.0001718138778412
 40
0.0001718138778412
 40
0.0001718138778412
 40
0.0001718138778412
 10
92.93472464289734
 20
85.56560566281462
 30
0.0
 10
92.9450500206026
 20
85.56464764238112
 30
0.0
 10
92.95569160047104
 20
85.56543065771847
 30
0.0
 10
92.96575346246273
 20
85.5678795588017
 30
0.0
 10
92.97580837505974
 20
85.57032676851011
 30
0.0
 10
92.98555297684918
 20
85.57449504399733
 30
0.0
 10
92.99425245270729
 20
85.5799720511569
 30
0.0
 10
93.00314059819502
 20
85.58556784074995
 30
0.0
 10
93.0111690870365
 20
85.59266084592672
 30
0.0
 10
93.01784305061389
 20
85.60064640710144
 30
0.0
 10
93.02498988622165
 20
85.60919777126303
 30
0.0
 10
93.03076773646781
 20
85.61897947002659
 30
0.0
 10
93.03487215202314
 20
85.62923596771691
 30
0.0
 10
93.03930657454754
 20
85.6403171177044
 30
0.0
 10
93.04190445605714
 20
85.65223455952595
 30
0.0
 10
93.04253866857147
 20
85.6640902926025
 30
0.0
 10
93.04266342050772
 20
85.66642235894248
 30
0.0
 10
93.04271409383828
 20
85.66875894318292
 30
0.0
 10
93.0426906107732
 20
85.6710934128374
 30
0.0
  0
ELLIPSE
  5
BC
330
1F
100
AcDbEntity
  8
1
 62
     4
420
    65535
100
AcDbEllipse
 10
61.0098111281
 20
83.933422877
 30
0.0
 11
80.00982698131703
 21
-5.605875980294885
 31
0.0
210
0.0
220
0.0
230
1.0
 40
0.0523954879
 41
1.164030779159501
 42
1.189504061081488
  0
LINE
  5
BD
330
1F
100
AcDbEntity
  8
1
 62
     4
420
    65535
100
AcDbLine
 10
91.2538667304
 20
89.0195756509
 30
0.0
 11
91.2538667304
 21
87.4073031726
 31
0.0
  0
LINE
  5
BE
330
1F
100
AcDbEntity
  8
1
 62
     4
420
    65535
100
AcDbLine
 10
92.8438667304
 20
89.0195756509
 30
0.0
 11
92.8438667304
 21
87.4073031726
 31
0.0
  0
ELLIPSE
  5
BF
330
1F
100
AcDbEntity
  8
1
 62
     4
420
    65535
100
AcDbEllipse
 10
-11.1885908983
 20
97.5140131735
 30
0.0
 11
116.7007370874786
 21
-8.176618843009962
 31
0.0
210
0.0
220
0.0
230
1.0
 40
0.0523954879
 41
5.81657415811914
 42
5.817224287638484
  0
SPLINE
  5
C0
330
1F
100
AcDbEntity
  8
1
 62
     4
420
    65535
100
AcDbSpline
210
0.0
220
0.0
230
1.0
 70
     8
 71
     3
 72
    12
 73
     8
 74
     0
 42
0.00000001
 43
0.00000001
 12
1.0
 22
0.0
 32
0.0
 13
1.0
 23
0.0
 33
0.0
 40
0.0
 40
0.0
 40
0.0
 40
0.0
 40
0.5000000000000031
 40
0.5000000000000031
 40
0.7500000000000016
 40
0.7500000000000016
 40
1.0
 40
1.0
 40
1.0
 40
1.0
 10
92.99039277755296
 20
87.42638317025289
 30
0.0
 10
92.98975124654694
 20
87.43326336129864
 30
0.0
 10
92.98333935974914
 20
87.44026777315223
 30
0.0
 10
92.96041456725872
 20
87.45074455947562
 30
0.0
 10
92.95039917339214
 20
87.45426251870528
 30
0.0
 10
92.9220868981577
 20
87.46014291746054
 30
0.0
 10
92.90056730527007
 20
87.46268526915941
 30
0.0
 10
92.87822481427598
 20
87.46192840446925
 30
0.0
  0
ELLIPSE
  5
C1
330
1F
100
AcDbEntity
  8
1
 62
     4
420
    65535
100
AcDbEllipse
 10
92.876311735
 20
97.5140131735
 30
0.0
 11
-0.1354289306301411
 21
10.21006017899143
 31
0.0
210
0.0
220
0.0
230
1.0
 40
0.0124965208
 41
2.98640956357843
 42
2.999022375555088
  0
ELLIPSE
  5
C2
330
1F
100
AcDbEntity
  8
1
 62
     4
420
    65535
100
AcDbEllipse
 10
-11.1885908983
 20
97.5140131735
 30
0.0
 11
116.7007370874786
 21
-8.176618843009962
 31
0.0
210
0.0
220
0.0
230
1.0
 40
0.0523954879
 41
5.784698706428362
 42
5.787343378372654
  0
ELLIPSE
  5
C3
330
1F
100
AcDbEntity
  8
1
 62
     4
420
    65535
100
AcDbEllipse
 10
91.2214217258
 20
97.5140131735
 30
0.0
 11
0.1354289306301411
 21
10.21006017899143
 31
0.0
210
0.0
220
0.0
230
1.0
 40
0.0124965208
 41
3.284162931625592
 42
3.285372568071891
  0
LINE
  5
C4
330
1F
100
AcDbEntity
  8
1
 62
     4
420
    65535
100
AcDbLine
 10
93.0284601266
 20
101.3124544275
 30
0.0
 11
92.9925625417
 21
101.3124544275
 31
0.0
  0
ELLIPSE
  5
C5
330
1F
100
AcDbEntity
  8
1
 62
     4
420
    65535
100
AcDbEllipse
 10
92.876311735
 20
97.5140131735
 30
0.0
 11
-0.04282539816176724
 21
10.21006029100687
 31
0.0
210
0.0
220
0.0
230
1.0
 40
0.0177344428
 41
5.093508849189043
 42
5.220250875899378
  0
ELLIPSE
  5
C6
330
1F
100
AcDbEntity
  8
1
 62
     4
420
    65535
100
AcDbEllipse
 10
93.1504883995
 20
97.7863995374
 30
0.0
 11
-0.02936102018584563
 21
6.999999980633576
 31
0.0
210
0.0
220
0.0
230
1.0
 40
0.0177344428
 41
0.7743859542933837
 42
1.042819863979153
  0
LINE
  5
C7
330
1F
100
AcDbEntity
  8
1
 62
     4
420
    65535
100
AcDbLine
 10
91.1054645633
 20
101.3124544275
 30
0.0
 11
91.0692733342
 21
101.3124544275
 31
0.0
  0
ELLIPSE
  5
C8
330
1F
100
AcDbEntity
  8
1
 62
     4
420
    65535
100
AcDbEllipse
 10
91.2214217258
 20
97.5140131735
 30
0.0
 11
0.04282539816178144
 21
10.21006029100687
 31
0.0
210
0.0
220
0.0
230
1.0
 40
0.0177344428
 41
1.061842877140418
 42
1.189676457990637
  0
ELLIPSE
  5
C9
330
1F
100
AcDbEntity
  8
1
 62
     4
420
    65535
100
AcDbEllipse
 10
90.9472450614
 20
97.7863995374
 30
0.0
 11
0.02936102018585984
 21
6.999999980633576
 31
0.0
210
0.0
220
0.0
230
1.0
 40
0.0177344428
 41
5.240365443200605
 42
5.498852425112707
  0
LINE
  5
CA
330
1F
100
AcDbEntity
  8
1
 62
     4
420
    65535
100
AcDbLine
 10
91.0557159944
 20
102.741049257
 30
0.0
 11
91.0728519762
 21
103.1152648426
 31
0.0
  0
LINE
  5
CB
330
1F
100
AcDbEntity
  8
1
 62
     4
420
    65535
100
AcDbLine
 10
93.0426906108
 20
102.7899893079
 30
0.0
 11
93.0259016513
 21
103.1537263086
 31
0.0
  0
ELLIPSE
  5
CC
330
1F
100
AcDbEntity
  8
1
  6
SLD-Gestrichelt
 62
   131
420
  8454143
370
     0
100
AcDbEllipse
 10
90.9472450614
 20
110.822217106
 30
0.0
 11
-0.1221904778605563
 21
6.999999970779514
 31
0.0
210
0.0
220
0.0
230
1.0
 40
0.0052344407
 41
2.878710999106151
 42
3.137197981018299
  0
LINE
  5
CD
330
1F
100
AcDbEntity
  8
1
  6
SLD-Gestrichelt
 62
   131
420
  8454143
370
     0
100
AcDbLine
 10
91.2538667304
 20
103.8222819203
 30
0.0
 11
91.0692733342
 21
103.8222819203
 31
0.0
  0
LINE
  5
CE
330
1F
100
AcDbEntity
  8
1
  6
SLD-Gestrichelt
 62
   131
420
  8454143
370
     0
100
AcDbLine
 10
91.2538667304
 20
104.0674207607
 30
0.0
 11
91.2538667304
 21
103.8222819203
 31
0.0
  0
LINE
  5
CF
330
1F
100
AcDbEntity
  8
1
  6
SLD-Gestrichelt
 62
   131
420
  8454143
370
     0
100
AcDbLine
 10
92.8438667304
 20
104.1085856376
 30
0.0
 11
92.8438667304
 21
103.8222819203
 31
0.0
  0
LINE
  5
D0
330
1F
100
AcDbEntity
  8
1
  6
SLD-Gestrichelt
 62
   131
420
  8454143
370
     0
100
AcDbLine
 10
93.0284601266
 20
103.8222819203
 30
0.0
 11
92.8438667304
 21
103.8222819203
 31
0.0
  0
ELLIPSE
  5
D1
330
1F
100
AcDbEntity
  8
1
  6
SLD-Gestrichelt
 62
   131
420
  8454143
370
     0
100
AcDbEllipse
 10
93.1504883995
 20
110.822217106
 30
0.0
 11
0.1221904778605421
 21
6.999999970779514
 31
0.0
210
0.0
220
0.0
230
1.0
 40
0.0052344407
 41
3.145987326163954
 42
3.414421235849233
  0
ELLIPSE
  5
D2
330
1F
100
AcDbEntity
  8
1
  6
SLD-Gestrichelt
 62
   131
420
  8454143
370
     0
100
AcDbEllipse
 10
92.876311735
 20
97.5140131735
 30
0.0
 11
0.1782245927706754
 21
10.21006027663393
 31
0.0
210
0.0
220
0.0
230
1.0
 40
0.0052344407
 41
5.081061794375869
 42
5.378483648131918
  0
LINE
  5
D3
330
1F
100
AcDbEntity
  8
1
  6
SLD-Gestrichelt
 62
   131
420
  8454143
370
     0
100
AcDbLine
 10
92.8438667304
 20
100.9968791414
 30
0.0
 11
92.8438667304
 21
103.8222819203
 31
0.0
  0
LINE
  5
D4
330
1F
100
AcDbEntity
  8
1
  6
SLD-Gestrichelt
 62
   131
420
  8454143
370
     0
100
AcDbLine
 10
91.2538667304
 20
101.2758982816
 30
0.0
 11
91.2538667304
 21
103.8222819203
 31
0.0
  0
ELLIPSE
  5
D5
330
1F
100
AcDbEntity
  8
1
  6
SLD-Gestrichelt
 62
   131
420
  8454143
370
     0
100
AcDbEllipse
 10
91.2214217258
 20
97.5140131735
 30
0.0
 11
-0.1782245927706754
 21
10.21006027663393
 31
0.0
210
0.0
220
0.0
230
1.0
 40
0.0052344407
 41
0.9047016590483852
 42
1.190720337273446
  0
ELLIPSE
  5
D6
330
1F
100
AcDbEntity
  8
1
  6
SLD-Gestrichelt
 62
   131
420
  8454143
370
     0
100
AcDbEllipse
 10
92.876311735
 20
97.5140131735
 30
0.0
 11
-0.1354289306301411
 21
10.21006017899143
 31
0.0
210
0.0
220
0.0
230
1.0
 40
0.0124965208
 41
2.999022375555088
 42
3.283831417335086
  0
LINE
  5
D7
330
1F
100
AcDbEntity
  8
1
  6
SLD-Gestrichelt
 62
   131
420
  8454143
370
     0
100
AcDbLine
 10
92.8438667304
 20
87.3039528542
 30
0.0
 11
92.8438667304
 21
87.4073031726
 31
0.0
  0
ELLIPSE
  5
D8
330
1F
100
AcDbEntity
  8
1
  6
SLD-Gestrichelt
 62
   131
420
  8454143
370
     0
100
AcDbEllipse
 10
91.2214217258
 20
97.5140131735
 30
0.0
 11
0.1354289306301411
 21
10.21006017899143
 31
0.0
210
0.0
220
0.0
230
1.0
 40
0.0124965208
 41
2.999353889845735
 42
3.284162931625592
  0
LINE
  5
D9
330
1F
100
AcDbEntity
  8
1
  6
SLD-Gestrichelt
 62
   131
420
  8454143
370
     0
100
AcDbLine
 10
91.2538667304
 20
87.3039528542
 30
0.0
 11
91.2538667304
 21
87.4073031726
 31
0.0
  0
LINE
  5
DA
330
1F
100
AcDbEntity
  8
1
  6
SLD-Gestrichelt
 62
   131
420
  8454143
370
     0
100
AcDbLine
 10
91.0557159944
 20
85.738455384
 30
0.0
 11
91.1056719949
 21
87.4090633895
 31
0.0
  0
LINE
  5
DB
330
1F
100
AcDbEntity
  8
1
  6
SLD-Gestrichelt
 62
   131
420
  8454143
370
     0
100
AcDbLine
 10
92.8782248143
 20
87.4619284045
 30
0.0
 11
92.9347246429
 21
85.5656056628
 31
0.0
  0
LINE
  5
DC
330
1F
100
AcDbEntity
  8
1
  6
SLD-Gestrichelt
 62
   131
420
  8454143
370
     0
100
AcDbLine
 10
93.0426906108
 20
85.6710934128
 30
0.0
 11
92.9903927776
 21
87.4263831703
 31
0.0
  0
LINE
  5
DD
330
1F
100
AcDbEntity
  8
1
  6
SLD-Gestrichelt
 62
   131
420
  8454143
370
     0
100
AcDbLine
 10
92.8438667304
 20
87.5063891869
 30
0.0
 11
91.2538667304
 21
87.8147090657
 31
0.0
  0
SPLINE
  5
DE
330
1F
100
AcDbEntity
  8
1
  6
SLD-Gestrichelt
 62
   131
420
  8454143
370
     0
100
AcDbSpline
210
0.0
220
0.0
230
1.0
 70
     8
 71
     3
 72
    23
 73
    19
 74
     0
 42
0.00000001
 43
0.00000001
 12
1.0
 22
0.0
 32
0.0
 13
1.0
 23
0.0
 33
0.0
 40
0.0
 40
0.0
 40
0.0
 40
0.0
 40
0.0000311168115517
 40
0.0000311168115517
 40
0.0000311168115517
 40
0.0000621922774787
 40
0.0000621922774787
 40
0.0000621922774787
 40
0.0000939204486582
 40
0.0000939204486582
 40
0.0000939204486582
 40
0.0001279104421662
 40
0.0001279104421662
 40
0.0001279104421662
 40
0.0001646701885851
 40
0.0001646701885851
 40
0.0001646701885851
 40
0.0001718138778412
 40
0.0001718138778412
 40
0.0001718138778412
 40
0.0001718138778412
 10
92.93472464289734
 20
102.8653895277933
 30
0.0
 10
92.9450500206026
 20
102.8660674747624
 30
0.0
 10
92.95569160047104
 20
102.8655137722714
 30
0.0
 10
92.96575346246273
 20
102.863780048404
 30
0.0
 10
92.97580837505974
 20
102.8620475219623
 30
0.0
 10
92.98555297684919
 20
102.8590956250803
 30
0.0
 10
92.99425245270729
 20
102.8552092049197
 30
0.0
 10
93.00314059819503
 20
102.8512384981349
 30
0.0
 10
93.0111690870365
 20
102.8461988370683
 30
0.0
 10
93.01784305061389
 20
102.840510105814
 30
0.0
 10
93.02498988622165
 20
102.8344183094444
 30
0.0
 10
93.03076773646781
 20
102.8274344640582
 30
0.0
 10
93.03487215202314
 20
102.8200883089167
 30
0.0
 10
93.03930657454754
 20
102.8121515014984
 30
0.0
 10
93.04190445605714
 20
102.8035894013677
 30
0.0
 10
93.04253866857147
 20
102.7950417167559
 30
0.0
 10
93.04266342050772
 20
102.7933603557267
 30
0.0
 10
93.04271409383828
 20
102.7916746258831
 30
0.0
 10
93.0426906107732
 20
102.7899893079247
 30
0.0
  0
SPLINE
  5
DF
330
1F
100
AcDbEntity
  8
1
  6
SLD-Gestrichelt
 62
   131
420
  8454143
370
     0
100
AcDbSpline
210
0.0
220
0.0
230
1.0
 70
     8
 71
     3
 72
    12
 73
     8
 74
     0
 42
0.00000001
 43
0.00000001
 12
1.0
 22
0.0
 32
0.0
 13
1.0
 23
0.0
 33
0.0
 40
0.0
 40
0.0
 40
0.0
 40
0.0
 40
0.5
 40
0.5
 40
0.75
 40
0.75
 40
1.0
 40
1.0
 40
1.0
 40
1.0
 10
92.99039277755296
 20
103.9230349289044
 30
0.0
 10
92.98975124654694
 20
103.9577235754715
 30
0.0
 10
92.98333935974914
 20
103.9913898284447
 30
0.0
 10
92.96041456725872
 20
104.039734343788
 30
0.0
 10
92.95039917339214
 20
104.0556024215146
 30
0.0
 10
92.9220868981577
 20
104.0817228019941
 30
0.0
 10
92.90056730527007
 20
104.0927767051908
 30
0.0
 10
92.87822481427598
 20
104.0894724288179
 30
0.0
  0
LINE
  5
E0
330
1F
100
AcDbEntity
  8
1
  6
SLD-Gestrichelt
 62
   131
420
  8454143
370
     0
100
AcDbLine
 10
92.8782248143
 20
104.0894724288
 30
0.0
 11
92.9347246429
 21
102.8653895278
 31
0.0
  0
LINE
  5
E1
330
1F
100
AcDbEntity
  8
1
  6
SLD-Gestrichelt
 62
   131
420
  8454143
370
     0
100
AcDbLine
 10
92.9925625417
 20
101.3124544275
 30
0.0
 11
92.8438667304
 21
101.3124544275
 31
0.0
  0
ELLIPSE
  5
E2
330
1F
100
AcDbEntity
  8
1
  6
SLD-Gestrichelt
 62
   131
420
  8454143
370
     0
100
AcDbEllipse
 10
92.876311735
 20
97.5140131735
 30
0.0
 11
-0.04282539816176724
 21
10.21006029100687
 31
0.0
210
0.0
220
0.0
230
1.0
 40
0.0177344428
 41
5.220250875899378
 42
5.390930702944752
  0
ELLIPSE
  5
E3
330
1F
100
AcDbEntity
  8
1
  6
SLD-Gestrichelt
 62
   131
420
  8454143
370
     0
100
AcDbEllipse
 10
-11.1885908983
 20
97.5140131735
 30
0.0
 11
116.7010858942274
 21
9.409299450882999
 31
0.0
210
0.0
220
0.0
230
1.0
 40
0.0339640084
 41
5.810164671777954
 42
5.810814801297284
  0
LINE
  5
E4
330
1F
100
AcDbEntity
  8
1
  6
SLD-Gestrichelt
 62
   131
420
  8454143
370
     0
100
AcDbLine
 10
91.2538667304
 20
101.3124544275
 30
0.0
 11
91.1054645633
 21
101.3124544275
 31
0.0
  0
ELLIPSE
  5
E5
330
1F
100
AcDbEntity
  8
1
  6
SLD-Gestrichelt
 62
   131
420
  8454143
370
     0
100
AcDbEllipse
 10
91.2214217258
 20
97.5140131735
 30
0.0
 11
0.04282539816178144
 21
10.21006029100687
 31
0.0
210
0.0
220
0.0
230
1.0
 40
0.0177344428
 41
0.9036577797655871
 42
1.061842877140418
  0
ELLIPSE
  5
E6
330
1F
100
AcDbEntity
  8
1
  6
SLD-Gestrichelt
 62
   131
420
  8454143
370
     0
100
AcDbEllipse
 10
-11.1885908983
 20
97.5140131735
 30
0.0
 11
116.7010858942274
 21
9.409299450882999
 31
0.0
210
0.0
220
0.0
230
1.0
 40
0.0339640084
 41
5.77828922008716
 42
5.780933892031448
  0
LINE
  5
E7
330
1F
100
AcDbEntity
  8
1
  6
SLD-Gestrichelt
 62
   131
420
  8454143
370
     0
100
AcDbLine
 10
91.0728519762
 20
103.1152648426
 30
0.0
 11
91.1056719949
 21
103.8319884369
 31
0.0
  0
ELLIPSE
  5
E8
330
1F
100
AcDbEntity
  8
1
  6
SLD-Gestrichelt
 62
   131
420
  8454143
370
     0
100
AcDbEllipse
 10
61.0098111281
 20
97.7863995374
 30
0.0
 11
80.01006612263109
 21
6.450999709763835
 31
0.0
210
0.0
220
0.0
230
1.0
 40
0.0339640084
 41
1.15762129281819
 42
1.183094574740172
  0
LINE
  5
E9
330
1F
100
AcDbEntity
  8
1
  6
SLD-Gestrichelt
 62
   131
420
  8454143
370
     0
100
AcDbLine
 10
91.2538667304
 20
99.4084506961
 30
0.0
 11
92.8438667304
 21
99.4084506961
 31
0.0
  0
LINE
  5
EA
330
1F
100
AcDbEntity
  8
1
  6
SLD-Gestrichelt
 62
   131
420
  8454143
370
     0
100
AcDbLine
 10
91.2538667304
 20
103.822217106
 30
0.0
 11
92.8438667304
 21
103.822217106
 31
0.0
  0
LINE
  5
EB
330
1F
100
AcDbEntity
  8
1
  6
SLD-Gestrichelt
 62
   131
420
  8454143
370
     0
100
AcDbLine
 10
92.8438667304
 20
100.0640131735
 30
0.0
 11
91.2538667304
 21
100.0640131735
 31
0.0
  0
LINE
  5
EC
330
1F
100
AcDbEntity
  8
1
  6
SLD-Gestrichelt
 62
   131
420
  8454143
370
     0
100
AcDbLine
 10
91.2538667304
 20
94.9640131735
 30
0.0
 11
92.8438667304
 21
94.9640131735
 31
0.0
  0
LINE
  5
ED
330
1F
100
AcDbEntity
  8
1
  6
SLD-Gestrichelt
 62
   131
420
  8454143
370
     0
100
AcDbLine
 10
92.8438667304
 20
87.3039528542
 30
0.0
 11
93.0117195148
 21
87.3039528542
 31
0.0
  0
LINE
  5
EE
330
1F
100
AcDbEntity
  8
1
  6
SLD-Gestrichelt
 62
   131
420
  8454143
370
     0
100
AcDbLine
 10
91.0860139461
 20
87.3039528542
 30
0.0
 11
91.2538667304
 21
87.3039528542
 31
0.0
  0
LINE
  5
EF
330
1F
100
AcDbEntity
  8
1
  6
SLD-Gestrichelt
 62
   131
420
  8454143
370
     0
100
AcDbLine
 10
93.0259308739
 20
103.1553402328
 30
0.0
 11
92.9901647874
 21
103.9302214323
 31
0.0
  0
LINE
  5
F0
330
1F
100
AcDbEntity
  8
1
  6
SLD-Gestrichelt
 62
   131
420
  8454143
370
     0
100
AcDbLine
 10
93.0259016513
 20
103.1537263086
 30
0.0
 11
92.9903927776
 21
103.9230349289
 31
0.0
  0
DIMENSION
  5
F1
330
1F
100
AcDbEntity
  8
2
 62
     7
420
 16777215
100
AcDbDimension
  2
_D_2
 10
91.0557159944
 20
79.5597410633
 30
0.0
 11
80.2369657508
 21
79.5597410633
 31
0.0
 70
   160
  1
<>
 71
     2
 42
-1.0
 73
     0
 74
     0
 75
     0
  3
SLDDIMSTYLE1
100
AcDbAlignedDimension
 13
93.0426906108
 23
85.6710934128
 33
0.0
 14
91.0557159944
 24
85.738455384
 34
0.0
100
AcDbRotatedDimension
  0
ENDSEC
  0
SECTION
  2
OBJECTS
  0
DICTIONARY
  5
C
330
0
100
AcDbDictionary
281
     1
  3
ACAD_GROUP
350
D
  3
ACAD_LAYOUT
350
1A
  3
ACAD_MATERIAL
350
3B
  3
ACAD_MLEADERSTYLE
350
FE
  3
ACAD_MLINESTYLE
350
17
  3
ACAD_PLOTSETTINGS
350
19
  3
ACAD_PLOTSTYLENAME
350
E
  3
ACAD_TABLESTYLE
350
FD
  3
ACAD_VISUALSTYLE
350
2A
  0
DICTIONARY
  5
D
102
{ACAD_REACTORS
330
C
102
}
330
C
100
AcDbDictionary
281
     1
  0
DICTIONARY
  5
1A
102
{ACAD_REACTORS
330
C
102
}
330
C
100
AcDbDictionary
281
     1
  3
Layout1
350
1E
  3
Layout2
350
26
  3
Model
350
22
  0
DICTIONARY
  5
3B
102
{ACAD_REACTORS
330
C
102
}
330
C
100
AcDbDictionary
281
     1
  3
ByBlock
350
3D
  3
ByLayer
350
3C
  3
Global
350
3E
  0
DICTIONARY
  5
FE
102
{ACAD_REACTORS
330
C
102
}
330
C
100
AcDbDictionary
281
     1
  0
DICTIONARY
  5
17
102
{ACAD_REACTORS
330
C
102
}
330
C
100
AcDbDictionary
281
     1
  3
Standard
350
18
  0
DICTIONARY
  5
19
102
{ACAD_REACTORS
330
C
102
}
330
C
100
AcDbDictionary
281
     1
  0
ACDBDICTIONARYWDFLT
  5
E
102
{ACAD_REACTORS
330
C
102
}
330
C
100
AcDbDictionary
281
     1
  3
Normal
350
F
100
AcDbDictionaryWithDefault
340
F
  0
DICTIONARY
  5
FD
102
{ACAD_REACTORS
330
C
102
}
330
C
100
AcDbDictionary
281
     1
  0
DICTIONARY
  5
2A
102
{ACAD_REACTORS
330
C
102
}
330
C
100
AcDbDictionary
281
     1
  3
2dWireframe
350
2F
  3
3D Hidden
350
31
  3
3dWireframe
350
30
  3
Basic
350
32
  3
Brighten
350
36
  3
ColorChange
350
3A
  3
Conceptual
350
34
  3
Dim
350
35
  3
Facepattern
350
39
  3
Flat
350
2B
  3
FlatWithEdges
350
2C
  3
Gouraud
350
2D
  3
GouraudWithEdges
350
2E
  3
Linepattern
350
38
  3
Realistic
350
33
  3
Thicken
350
37
  0
LAYOUT
  5
1E
102
{ACAD_REACTORS
330
1A
102
}
330
1A
100
AcDbPlotSettings
  1

  2
none_device
  4

  6

 40
0.0
 41
0.0
 42
0.0
 43
0.0
 44
0.0
 45
0.0
 46
0.0
 47
0.0
 48
0.0
 49
0.0
140
0.0
141
0.0
142
1.0
143
1.0
 70
   688
 72
     0
 73
     0
 74
     5
  7

 75
    16
 76
     0
 77
     2
 78
   300
147
1.0
148
0.0
149
0.0
100
AcDbLayout
  1
Layout1
 70
     1
 71
     1
 10
0.0
 20
0.0
 11
420.0
 21
297.0
 12
0.0
 22
0.0
 32
0.0
 14
1.0000000000E+20
 24
1.0000000000E+20
 34
1.0000000000E+20
 15
-1.0000000000E+20
 25
-1.0000000000E+20
 35
-1.0000000000E+20
146
0.0
 13
0.0
 23
0.0
 33
0.0
 16
1.0
 26
0.0
 36
0.0
 17
0.0
 27
1.0
 37
0.0
 76
     0
330
1B
  0
LAYOUT
  5
26
102
{ACAD_REACTORS
330
1A
102
}
330
1A
100
AcDbPlotSettings
  1

  2
none_device
  4

  6

 40
0.0
 41
0.0
 42
0.0
 43
0.0
 44
0.0
 45
0.0
 46
0.0
 47
0.0
 48
0.0
 49
0.0
140
0.0
141
0.0
142
1.0
143
1.0
 70
   688
 72
     0
 73
     0
 74
     5
  7

 75
    16
 76
     0
 77
     2
 78
   300
147
1.0
148
0.0
149
0.0
100
AcDbLayout
  1
Layout2
 70
     1
 71
     2
 10
0.0
 20
0.0
 11
0.0
 21
0.0
 12
0.0
 22
0.0
 32
0.0
 14
0.0
 24
0.0
 34
0.0
 15
0.0
 25
0.0
 35
0.0
146
0.0
 13
0.0
 23
0.0
 33
0.0
 16
1.0
 26
0.0
 36
0.0
 17
0.0
 27
1.0
 37
0.0
 76
     0
330
23
  0
LAYOUT
  5
22
102
{ACAD_REACTORS
330
1A
102
}
330
1A
100
AcDbPlotSettings
  1

  2
none_device
  4

  6

 40
0.0
 41
0.0
 42
0.0
 43
0.0
 44
0.0
 45
0.0
 46
0.0
 47
0.0
 48
0.0
 49
0.0
140
0.0
141
0.0
142
1.0
143
1.0
 70
  1712
 72
     0
 73
     0
 74
     0
  7

 75
     0
 76
     0
 77
     2
 78
   300
147
1.0
148
0.0
149
0.0
100
AcDbLayout
  1
Model
 70
     1
 71
     0
 10
0.0
 20
0.0
 11
297.0
 21
210.0
 12
0.0
 22
0.0
 32
0.0
 14
0.0
 24
0.0
 34
0.0
 15
297.0
 25
210.0
 35
0.0
146
0.0
 13
0.0
 23
0.0
 33
0.0
 16
1.0
 26
0.0
 36
0.0
 17
0.0
 27
1.0
 37
0.0
 76
     0
330
1F
331
29
  0
MATERIAL
  5
3D
102
{ACAD_REACTORS
330
3B
102
}
330
3B
100
AcDbMaterial
  1
ByBlock
 72
     1
 94
      127
  0
MATERIAL
  5
3C
102
{ACAD_REACTORS
330
3B
102
}
330
3B
100
AcDbMaterial
  1
ByLayer
 72
     1
 94
      127
  0
MATERIAL
  5
3E
102
{ACAD_REACTORS
330
3B
102
}
330
3B
100
AcDbMaterial
  1
Global
 72
     1
 94
      127
  0
MLINESTYLE
  5
18
102
{ACAD_REACTORS
330
17
102
}
330
17
100
AcDbMlineStyle
  2
Standard
 70
     0
  3

 62
   256
 51
90.0
 52
90.0
 71
     2
 49
0.5
 62
   256
  6
BYLAYER
 49
-0.5
 62
   256
  6
BYLAYER
  0
ACDBPLACEHOLDER
  5
F
102
{ACAD_REACTORS
330
E
102
}
330
E
  0
VISUALSTYLE
  5
2F
102
{ACAD_REACTORS
330
2A
102
}
330
2A
100
AcDbVisualStyle
  2
2dWireframe
 70
     4
 71
     0
 72
     2
 73
     0
 90
        0
 40
-0.6
 41
-30.0
 62
     5
 63
     7
421
 16777215
 74
     1
 91
        4
 64
     7
 65
   257
 75
     1
175
     1
 42
1.0
 92
        0
 66
   257
 43
1.0
 76
     1
 77
     6
 78
     2
 67
     7
 79
     5
170
     0
171
     0
290
     0
174
     0
 93
        1
 44
0.0
173
     0
291
     0
 45
0.0
  0
VISUALSTYLE
  5
31
102
{ACAD_REACTORS
330
2A
102
}
330
2A
100
AcDbVisualStyle
  2
3D Hidden
 70
     6
 71
     1
 72
     2
 73
     2
 90
        0
 40
-0.6
 41
-30.0
 62
     5
 63
     7
421
 16777215
 74
     2
 91
        2
 64
     7
 65
   257
 75
     2
175
     1
 42
40.0
 92
        0
 66
   257
 43
1.0
 76
     1
 77
     6
 78
     2
 67
     7
 79
     3
170
     0
171
     0
290
     0
174
     0
 93
        1
 44
0.0
173
     0
291
     0
 45
0.0
  0
VISUALSTYLE
  5
30
102
{ACAD_REACTORS
330
2A
102
}
330
2A
100
AcDbVisualStyle
  2
3dWireframe
 70
     5
 71
     0
 72
     2
 73
     0
 90
        0
 40
-0.6
 41
-30.0
 62
     5
 63
     7
421
 16777215
 74
     1
 91
        4
 64
     7
 65
   257
 75
     1
175
     1
 42
1.0
 92
        0
 66
   257
 43
1.0
 76
     1
 77
     6
 78
     2
 67
     7
 79
     5
170
     0
171
     0
290
     0
174
     0
 93
        1
 44
0.0
173
     0
291
     0
 45
0.0
  0
VISUALSTYLE
  5
32
102
{ACAD_REACTORS
330
2A
102
}
330
2A
100
AcDbVisualStyle
  2
Basic
 70
     7
 71
     1
 72
     0
 73
     1
 90
        0
 40
-0.6
 41
-30.0
 62
     5
 63
     7
421
 16777215
 74
     0
 91
        4
 64
     7
 65
   257
 75
     1
175
     1
 42
1.0
 92
        8
 66
     7
 43
1.0
 76
     1
 77
     6
 78
     2
 67
     7
 79
     5
170
     0
171
     0
290
     0
174
     0
 93
        1
 44
0.0
173
     0
291
     1
 45
0.0
  0
VISUALSTYLE
  5
36
102
{ACAD_REACTORS
330
2A
102
}
330
2A
100
AcDbVisualStyle
  2
Brighten
 70
    12
 71
     2
 72
     2
 73
     0
 90
        0
 40
-0.6
 41
-30.0
 62
     5
 63
     7
421
 16777215
 74
     1
 91
        4
 64
     7
 65
   257
 75
     1
175
     1
 42
1.0
 92
        8
 66
     7
 43
1.0
 76
     1
 77
     6
 78
     2
 67
     7
 79
     5
170
     0
171
     0
290
     0
174
     0
 93
        1
 44
50.0
173
     0
291
     1
 45
0.0
  0
VISUALSTYLE
  5
3A
102
{ACAD_REACTORS
330
2A
102
}
330
2A
100
AcDbVisualStyle
  2
ColorChange
 70
    16
 71
     2
 72
     2
 73
     3
 90
        0
 40
-0.6
 41
-30.0
 62
     5
 63
     8
421
  8421504
 74
     1
 91
        4
 64
     7
 65
   257
 75
     1
175
     1
 42
1.0
 92
        8
 66
     8
424
  8421504
 43
1.0
 76
     1
 77
     6
 78
     2
 67
     7
 79
     5
170
     0
171
     0
290
     0
174
     0
 93
        1
 44
0.0
173
     0
291
     1
 45
0.0
  0
VISUALSTYLE
  5
34
102
{ACAD_REACTORS
330
2A
102
}
330
2A
100
AcDbVisualStyle
  2
Conceptual
 70
     9
 71
     3
 72
     2
 73
     0
 90
        0
 40
-0.6
 41
-30.0
 62
     5
 63
     7
421
 16777215
 74
     2
 91
        2
 64
     7
 65
   257
 75
     1
175
     1
 42
40.0
 92
        8
 66
     7
 43
1.0
 76
     1
 77
     6
 78
     2
 67
     7
 79
     3
170
     0
171
     0
290
     0
174
     0
 93
        1
 44
0.0
173
     0
291
     0
 45
0.0
  0
VISUALSTYLE
  5
35
102
{ACAD_REACTORS
330
2A
102
}
330
2A
100
AcDbVisualStyle
  2
Dim
 70
    11
 71
     2
 72
     2
 73
     0
 90
        0
 40
-0.6
 41
-30.0
 62
     5
 63
     7
421
 16777215
 74
     1
 91
        4
 64
     7
 65
   257
 75
     1
175
     1
 42
1.0
 92
        8
 66
     7
 43
1.0
 76
     1
 77
     6
 78
     2
 67
     7
 79
     5
170
     0
171
     0
290
     0
174
     0
 93
        1
 44
-50.0
173
     0
291
     1
 45
0.0
  0
VISUALSTYLE
  5
39
102
{ACAD_REACTORS
330
2A
102
}
330
2A
100
AcDbVisualStyle
  2
Facepattern
 70
    15
 71
     2
 72
     2
 73
     0
 90
        0
 40
-0.6
 41
-30.0
 62
     5
 63
     7
421
 16777215
 74
     1
 91
        4
 64
     7
 65
   257
 75
     1
175
     1
 42
1.0
 92
        8
 66
     7
 43
1.0
 76
     1
 77
     6
 78
     2
 67
     7
 79
     5
170
     0
171
     0
290
     0
174
     0
 93
        1
 44
0.0
173
     0
291
     1
 45
0.0
  0
VISUALSTYLE
  5
2B
102
{ACAD_REACTORS
330
2A
102
}
330
2A
100
AcDbVisualStyle
  2
Flat
 70
     0
 71
     2
 72
     1
 73
     1
 90
        2
 40
-0.6
 41
30.0
 62
     5
 63
     7
421
 16777215
 74
     0
 91
        4
 64
     7
 65
   257
 75
     1
175
     1
 42
1.0
 92
        8
 66
     7
 43
1.0
 76
     1
 77
     6
 78
     2
 67
     7
 79
     5
170
     0
171
     0
290
     0
174
     0
 93
       13
 44
0.0
173
     0
291
     1
 45
0.0
  0
VISUALSTYLE
  5
2C
102
{ACAD_REACTORS
330
2A
102
}
330
2A
100
AcDbVisualStyle
  2
FlatWithEdges
 70
     1
 71
     2
 72
     1
 73
     1
 90
        2
 40
-0.6
 41
30.0
 62
     5
 63
     7
421
 16777215
 74
     1
 91
        4
 64
     7
 65
   257
 75
     1
175
     1
 42
1.0
 92
        0
 66
   257
 43
1.0
 76
     1
 77
     6
 78
     2
 67
     7
 79
     5
170
     0
171
     0
290
     0
174
     0
 93
       13
 44
0.0
173
     0
291
     1
 45
0.0
  0
VISUALSTYLE
  5
2D
102
{ACAD_REACTORS
330
2A
102
}
330
2A
100
AcDbVisualStyle
  2
Gouraud
 70
     2
 71
     2
 72
     2
 73
     1
 90
        2
 40
-0.6
 41
30.0
 62
     5
 63
     7
421
 16777215
 74
     0
 91
        4
 64
     7
 65
   257
 75
     1
175
     1
 42
1.0
 92
        0
 66
     7
 43
1.0
 76
     1
 77
     6
 78
     2
 67
     7
 79
     5
170
     0
171
     0
290
     0
174
     0
 93
       13
 44
0.0
173
     0
291
     1
 45
0.0
  0
VISUALSTYLE
  5
2E
102
{ACAD_REACTORS
330
2A
102
}
330
2A
100
AcDbVisualStyle
  2
GouraudWithEdges
 70
     3
 71
     2
 72
     2
 73
     1
 90
        2
 40
-0.6
 41
30.0
 62
     5
 63
     7
421
 16777215
 74
     1
 91
        4
 64
     7
 65
   257
 75
     1
175
     1
 42
1.0
 92
        0
 66
   257
 43
1.0
 76
     1
 77
     6
 78
     2
 67
     7
 79
     5
170
     0
171
     0
290
     0
174
     0
 93
       13
 44
0.0
173
     0
291
     1
 45
0.0
  0
VISUALSTYLE
  5
38
102
{ACAD_REACTORS
330
2A
102
}
330
2A
100
AcDbVisualStyle
  2
Linepattern
 70
    14
 71
     2
 72
     2
 73
     0
 90
        0
 40
-0.6
 41
-30.0
 62
     5
 63
     7
421
 16777215
 74
     1
 91
        4
 64
     7
 65
   257
 75
     7
175
     7
 42
1.0
 92
        8
 66
     7
 43
1.0
 76
     1
 77
     6
 78
     2
 67
     7
 79
     5
170
     0
171
     0
290
     0
174
     0
 93
        1
 44
0.0
173
     0
291
     1
 45
0.0
  0
VISUALSTYLE
  5
33
102
{ACAD_REACTORS
330
2A
102
}
330
2A
100
AcDbVisualStyle
  2
Realistic
 70
     8
 71
     2
 72
     2
 73
     0
 90
        0
 40
-0.6
 41
-30.0
 62
     5
 63
     7
421
 16777215
 74
     1
 91
        0
 64
     7
 65
   257
 75
     1
175
     1
 42
1.0
 92
        8
 66
     8
424
  7895160
 43
1.0
 76
     1
 77
     6
 78
     2
 67
     7
 79
     5
170
     0
171
     0
290
     0
174
     0
 93
       13
 44
0.0
173
     0
291
     0
 45
0.0
  0
VISUALSTYLE
  5
37
102
{ACAD_REACTORS
330
2A
102
}
330
2A
100
AcDbVisualStyle
  2
Thicken
 70
    13
 71
     2
 72
     2
 73
     0
 90
        0
 40
-0.6
 41
-30.0
 62
     5
 63
     7
421
 16777215
 74
     1
 91
        4
 64
     7
 65
   257
 75
     1
175
     1
 42
1.0
 92
       12
 66
     7
 43
1.0
 76
     1
 77
     6
 78
     2
 67
     7
 79
     5
170
     0
171
     0
290
     0
174
     0
 93
        1
 44
0.0
173
     0
291
     1
 45
0.0
  0
ENDSEC
  0
EOF
