  0
SECTION
  2
HEADER
  9
$ACADVER
  1
AC1021
  9
$ACADMAINTVER
 70
    25
  9
$DWGCODEPAGE
  3
ANSI_1252
  9
$INSBASE
 10
0.0
 20
0.0
 30
0.0
  9
$EXTMIN
 10
0.0
 20
0.0
 30
0.0
  9
$EXTMAX
 10
297.0
 20
210.0
 30
0.0
  9
$LIMMIN
 10
0.0
 20
0.0
  9
$LIMMAX
 10
297.0
 20
210.0
  9
$ORTHOMODE
 70
     0
  9
$REGENMODE
 70
     1
  9
$FILLMODE
 70
     1
  9
$QTEXTMODE
 70
     0
  9
$MIRRTEXT
 70
     1
  9
$LTSCALE
 40
1.0
  9
$ATTMODE
 70
     1
  9
$TEXTSIZE
 40
3.5
  9
$TRACEWID
 40
1.0
  9
$TEXTSTYLE
  7
Standard
  9
$CLAYER
  8
0
  9
$CELTYPE
  6
ByLayer
  9
$CECOLOR
 62
   256
  9
$CELTSCALE
 40
1.0
  9
$DISPSILH
 70
     0
  9
$DIMSCALE
 40
1.0
  9
$DIMASZ
 40
3.302
  9
$DIMEXO
 40
1.0
  9
$DIMDLI
 40
3.75
  9
$DIMRND
 40
0.0
  9
$DIMDLE
 40
0.0
  9
$DIMEXE
 40
1.0
  9
$DIMTP
 40
0.0
  9
$DIMTM
 40
0.0
  9
$DIMTXT
 40
3.5
  9
$DIMCEN
 40
2.5
  9
$DIMTSZ
 40
0.0
  9
$DIMTOL
 70
     0
  9
$DIMLIM
 70
     0
  9
$DIMTIH
 70
     1
  9
$DIMTOH
 70
     1
  9
$DIMSE1
 70
     0
  9
$DIMSE2
 70
     0
  9
$DIMTAD
 70
     1
  9
$DIMZIN
 70
     0
  9
$DIMBLK
  1

  9
$DIMASO
 70
     1
  9
$DIMSHO
 70
     1
  9
$DIMPOST
  1

  9
$DIMAPOST
  1

  9
$DIMALT
 70
     0
  9
$DIMALTD
 70
     3
  9
$DIMALTF
 40
0.0393700787
  9
$DIMLFAC
 40
1.0
  9
$DIMTOFL
 70
     1
  9
$DIMTVP
 40
0.0
  9
$DIMTIX
 70
     0
  9
$DIMSOXD
 70
     0
  9
$DIMSAH
 70
     0
  9
$DIMBLK1
  1

  9
$DIMBLK2
  1

  9
$DIMSTYLE
  2
ISO-25
  9
$DIMCLRD
 70
     0
  9
$DIMCLRE
 70
     0
  9
$DIMCLRT
 70
     0
  9
$DIMTFAC
 40
1.0
  9
$DIMGAP
 40
1.524
  9
$DIMJUST
 70
     0
  9
$DIMSD1
 70
     0
  9
$DIMSD2
 70
     0
  9
$DIMTOLJ
 70
     0
  9
$DIMTZIN
 70
     0
  9
$DIMALTZ
 70
     0
  9
$DIMALTTZ
 70
     0
  9
$DIMUPT
 70
     0
  9
$DIMDEC
 70
     2
  9
$DIMTDEC
 70
     2
  9
$DIMALTU
 70
     2
  9
$DIMALTTD
 70
     3
  9
$DIMTXSTY
  7
Standard
  9
$DIMAUNIT
 70
     0
  9
$DIMADEC
 70
     2
  9
$DIMALTRND
 40
0.0
  9
$DIMAZIN
 70
     0
  9
$DIMDSEP
 70
    44
  9
$DIMATFIT
 70
     3
  9
$DIMFRAC
 70
     0
  9
$DIMLDRBLK
  1

  9
$DIMLUNIT
 70
     2
  9
$DIMLWD
 70
    -2
  9
$DIMLWE
 70
    -2
  9
$DIMTMOVE
 70
     0
  9
$DIMFXL
 40
1.0
  9
$DIMFXLON
 70
     0
  9
$DIMJOGANG
 40
0.7853981634
  9
$DIMTFILL
 70
     0
  9
$DIMTFILLCLR
 70
     0
  9
$DIMARCSYM
 70
     0
  9
$DIMLTYPE
  6

  9
$DIMLTEX1
  6

  9
$DIMLTEX2
  6

  9
$LUNITS
 70
     2
  9
$LUPREC
 70
     2
  9
$SKETCHINC
 40
1.0
  9
$FILLETRAD
 40
10.0
  9
$AUNITS
 70
     0
  9
$AUPREC
 70
     2
  9
$MENU
  1
.
  9
$ELEVATION
 40
0.0
  9
$PELEVATION
 40
0.0
  9
$THICKNESS
 40
0.0
  9
$LIMCHECK
 70
     0
  9
$CHAMFERA
 40
10.0
  9
$CHAMFERB
 40
10.0
  9
$CHAMFERC
 40
20.0
  9
$CHAMFERD
 40
0.0
  9
$SKPOLY
 70
     0
  9
$TDCREATE
 40
2456608.57526934
  9
$TDUCREATE
 40
2456608.533602674
  9
$TDUPDATE
 40
2456608.575269861
  9
$TDUUPDATE
 40
2456608.533603195
  9
$TDINDWG
 40
0.0000000116
  9
$TDUSRTIMER
 40
0.0000000116
  9
$USRTIMER
 70
     1
  9
$ANGBASE
 50
0.0
  9
$ANGDIR
 70
     0
  9
$PDMODE
 70
     0
  9
$PDSIZE
 40
-1.0
  9
$PLINEWID
 40
0.0
  9
$SPLFRAME
 70
     0
  9
$SPLINETYPE
 70
     6
  9
$SPLINESEGS
 70
     8
  9
$HANDSEED
  5
109
  9
$SURFTAB1
 70
     6
  9
$SURFTAB2
 70
     6
  9
$SURFTYPE
 70
     6
  9
$SURFU
 70
     6
  9
$SURFV
 70
     6
  9
$UCSBASE
  2

  9
$UCSNAME
  2

  9
$UCSORG
 10
0.0
 20
0.0
 30
0.0
  9
$UCSXDIR
 10
1.0
 20
0.0
 30
0.0
  9
$UCSYDIR
 10
0.0
 20
1.0
 30
0.0
  9
$UCSORTHOREF
  2

  9
$UCSORTHOVIEW
 70
     0
  9
$UCSORGTOP
 10
0.0
 20
0.0
 30
0.0
  9
$UCSORGBOTTOM
 10
0.0
 20
0.0
 30
0.0
  9
$UCSORGLEFT
 10
0.0
 20
0.0
 30
0.0
  9
$UCSORGRIGHT
 10
0.0
 20
0.0
 30
0.0
  9
$UCSORGFRONT
 10
0.0
 20
0.0
 30
0.0
  9
$UCSORGBACK
 10
0.0
 20
0.0
 30
0.0
  9
$PUCSBASE
  2

  9
$PUCSNAME
  2

  9
$PUCSORG
 10
0.0
 20
0.0
 30
0.0
  9
$PUCSXDIR
 10
1.0
 20
0.0
 30
0.0
  9
$PUCSYDIR
 10
0.0
 20
1.0
 30
0.0
  9
$PUCSORTHOREF
  2

  9
$PUCSORTHOVIEW
 70
     0
  9
$PUCSORGTOP
 10
0.0
 20
0.0
 30
0.0
  9
$PUCSORGBOTTOM
 10
0.0
 20
0.0
 30
0.0
  9
$PUCSORGLEFT
 10
0.0
 20
0.0
 30
0.0
  9
$PUCSORGRIGHT
 10
0.0
 20
0.0
 30
0.0
  9
$PUCSORGFRONT
 10
0.0
 20
0.0
 30
0.0
  9
$PUCSORGBACK
 10
0.0
 20
0.0
 30
0.0
  9
$USERI1
 70
     0
  9
$USERI2
 70
     0
  9
$USERI3
 70
     0
  9
$USERI4
 70
     0
  9
$USERI5
 70
     0
  9
$USERR1
 40
0.0
  9
$USERR2
 40
0.0
  9
$USERR3
 40
0.0
  9
$USERR4
 40
0.0
  9
$USERR5
 40
0.0
  9
$WORLDVIEW
 70
     1
  9
$SHADEDGE
 70
     3
  9
$SHADEDIF
 70
    70
  9
$TILEMODE
 70
     1
  9
$MAXACTVP
 70
    64
  9
$PINSBASE
 10
0.0
 20
0.0
 30
0.0
  9
$PLIMCHECK
 70
     0
  9
$PEXTMIN
 10
1.0000000000E+20
 20
1.0000000000E+20
 30
1.0000000000E+20
  9
$PEXTMAX
 10
-1.0000000000E+20
 20
-1.0000000000E+20
 30
-1.0000000000E+20
  9
$PLIMMIN
 10
0.0
 20
0.0
  9
$PLIMMAX
 10
420.0
 20
297.0
  9
$UNITMODE
 70
     0
  9
$VISRETAIN
 70
     1
  9
$PLINEGEN
 70
     0
  9
$PSLTSCALE
 70
     1
  9
$TREEDEPTH
 70
  3020
  9
$CMLSTYLE
  2
Standard
  9
$CMLJUST
 70
     0
  9
$CMLSCALE
 40
20.0
  9
$PROXYGRAPHICS
 70
     1
  9
$MEASUREMENT
 70
     1
  9
$CELWEIGHT
370
    -1
  9
$ENDCAPS
280
     0
  9
$JOINSTYLE
280
     0
  9
$LWDISPLAY
290
     1
  9
$INSUNITS
 70
     4
  9
$HYPERLINKBASE
  1

  9
$STYLESHEET
  1

  9
$XEDIT
290
     1
  9
$CEPSNTYPE
380
     0
  9
$PSTYLEMODE
290
     1
  9
$FINGERPRINTGUID
  2
{A5377FFF-56B8-4572-9592-7D85DC2F7764}
  9
$VERSIONGUID
  2
{FAEB1C32-E019-11D5-929B-00C0DF256EC4}
  9
$EXTNAMES
290
     1
  9
$PSVPSCALE
 40
0.0
  9
$OLESTARTUP
290
     0
  9
$SORTENTS
280
   127
  9
$INDEXCTL
280
     0
  9
$HIDETEXT
280
     1
  9
$XCLIPFRAME
290
     0
  9
$HALOGAP
280
     0
  9
$OBSCOLOR
 70
   257
  9
$OBSLTYPE
280
     0
  9
$INTERSECTIONDISPLAY
280
     0
  9
$INTERSECTIONCOLOR
 70
   257
  9
$DIMASSOC
280
     2
  9
$PROJECTNAME
  1

  9
$CAMERADISPLAY
290
     0
  9
$LENSLENGTH
 40
50.0
  9
$CAMERAHEIGHT
 40
0.0
  9
$STEPSPERSEC
 40
2.0
  9
$STEPSIZE
 40
6.0
  9
$3DDWFPREC
 40
2.0
  9
$PSOLWIDTH
 40
5.0
  9
$PSOLHEIGHT
 40
80.0
  9
$LOFTANG1
 40
1.5707963268
  9
$LOFTANG2
 40
1.5707963268
  9
$LOFTMAG1
 40
0.0
  9
$LOFTMAG2
 40
0.0
  9
$LOFTPARAM
 70
     7
  9
$LOFTNORMALS
280
     1
  9
$LATITUDE
 40
37.795
  9
$LONGITUDE
 40
-122.394
  9
$NORTHDIRECTION
 40
0.0
  9
$TIMEZONE
 70
 -8000
  9
$LIGHTGLYPHDISPLAY
280
     1
  9
$TILEMODELIGHTSYNCH
280
     1
  9
$SOLIDHIST
280
     1
  9
$SHOWHIST
280
     1
  9
$DWFFRAME
280
     2
  9
$DGNFRAME
280
     2
  9
$REALWORLDSCALE
290
     1
  9
$INTERFERECOLOR
 62
   256
  9
$CSHADOW
280
     0
  9
$SHADOWPLANELOCATION
 40
0.0
  0
ENDSEC
  0
SECTION
  2
CLASSES
  0
CLASS
  1
ACDBDICTIONARYWDFLT
  2
AcDbDictionaryWithDefault
  3
ObjectDBX Classes
 90
        0
 91
        4
280
     0
281
     0
  0
CLASS
  1
VISUALSTYLE
  2
AcDbVisualStyle
  3
ObjectDBX Classes
 90
     4095
 91
        4
280
     0
281
     0
  0
CLASS
  1
MATERIAL
  2
AcDbMaterial
  3
ObjectDBX Classes
 90
     1153
 91
        4
280
     0
281
     0
  0
ENDSEC
  0
SECTION
  2
TABLES
  0
TABLE
  2
VPORT
  5
8
330
0
100
AcDbSymbolTable
 70
     1
  0
VPORT
  5
29
330
8
100
AcDbSymbolTableRecord
100
AcDbViewportTableRecord
  2
*Active
 70
     0
 10
0.0
 20
0.0
 11
1.0
 21
1.0
 12
148.5
 22
105.0
 13
0.0
 23
0.0
 14
10.0
 24
10.0
 15
10.0
 25
10.0
 16
0.0
 26
0.0
 36
1.0
 17
0.0
 27
0.0
 37
0.0
 40
210.0
 41
1.4142857143
 42
50.0
 43
0.0
 44
0.0
 50
0.0
 51
0.0
 71
     0
 72
  2000
 73
     1
 74
     3
 75
     0
 76
     0
 77
     0
 78
     0
281
     0
 65
     1
110
0.0
120
0.0
130
0.0
111
1.0
121
0.0
131
0.0
112
0.0
122
1.0
132
0.0
 79
     0
146
0.0
 60
     3
 61
     5
292
     1
282
     1
141
0.0
142
0.0
 63
   250
  0
ENDTAB
  0
TABLE
  2
LTYPE
  5
5
330
0
100
AcDbSymbolTable
 70
     8
  0
LTYPE
  5
14
330
5
100
AcDbSymbolTableRecord
100
AcDbLinetypeTableRecord
  2
ByBlock
 70
     0
  3

 72
    65
 73
     0
 40
0.0
  0
LTYPE
  5
15
330
5
100
AcDbSymbolTableRecord
100
AcDbLinetypeTableRecord
  2
ByLayer
 70
     0
  3

 72
    65
 73
     0
 40
0.0
  0
LTYPE
  5
16
330
5
100
AcDbSymbolTableRecord
100
AcDbLinetypeTableRecord
  2
Continuous
 70
     0
  3
Solid line
 72
    65
 73
     0
 40
0.0
  0
LTYPE
  5
3F
330
5
100
AcDbSymbolTableRecord
100
AcDbLinetypeTableRecord
  2
SLD-Durchgehend
 70
     0
  3
SolidWorks Line Style
 72
    65
 73
     0
 40
0.0
  0
LTYPE
  5
40
330
5
100
AcDbSymbolTableRecord
100
AcDbLinetypeTableRecord
  2
SLD-Gestrichelt
 70
     0
  3
SolidWorks Line Style
 72
    65
 73
     2
 40
1.905
 49
1.27
 74
     0
 49
-0.635
 74
     0
  0
LTYPE
  5
41
330
5
100
AcDbSymbolTableRecord
100
AcDbLinetypeTableRecord
  2
SLD-Phantom
 70
     0
  3
SolidWorks Line Style
 72
    65
 73
     6
 40
12.7
 49
6.35
 74
     0
 49
-1.27
 74
     0
 49
1.27
 74
     0
 49
-1.27
 74
     0
 49
1.27
 74
     0
 49
-1.27
 74
     0
  0
LTYPE
  5
42
330
5
100
AcDbSymbolTableRecord
100
AcDbLinetypeTableRecord
  2
SLD-Kette
 70
     0
  3
SolidWorks Line Style
 72
    65
 73
     4
 40
10.16
 49
6.35
 74
     0
 49
-1.27
 74
     0
 49
1.27
 74
     0
 49
-1.27
 74
     0
  0
LTYPE
  5
43
330
5
100
AcDbSymbolTableRecord
100
AcDbLinetypeTableRecord
  2
SLD-Punktstrich
 70
     0
  3
SolidWorks Line Style
 72
    65
 73
     4
 40
19.05
 49
15.24
 74
     0
 49
-1.27
 74
     0
 49
1.27
 74
     0
 49
-1.27
 74
     0
  0
LTYPE
  5
44
330
5
100
AcDbSymbolTableRecord
100
AcDbLinetypeTableRecord
  2
SLD-Naht
 70
     0
  3
SolidWorks Line Style
 72
    65
 73
     2
 40
0.635
 49
0.0
 74
     0
 49
-0.635
 74
     0
  0
LTYPE
  5
45
330
5
100
AcDbSymbolTableRecord
100
AcDbLinetypeTableRecord
  2
SLD-Dicke-Dünne-Kette
 70
     0
  3
SolidWorks Line Style
 72
    65
 73
     4
 40
10.16
 49
6.35
 74
     0
 49
-1.27
 74
     0
 49
1.27
 74
     0
 49
-1.27
 74
     0
  0
ENDTAB
  0
TABLE
  2
LAYER
  5
2
330
0
100
AcDbSymbolTable
 70
     3
  0
LAYER
  5
10
330
2
100
AcDbSymbolTableRecord
100
AcDbLayerTableRecord
  2
0
 70
     0
 62
     7
  6
Continuous
370
    -3
390
F
347
3E
  0
LAYER
  5
46
330
2
100
AcDbSymbolTableRecord
100
AcDbLayerTableRecord
  2
1
 70
     0
 62
     4
  6
Continuous
370
    -1
390
F
347
3E
  0
LAYER
  5
47
330
2
100
AcDbSymbolTableRecord
100
AcDbLayerTableRecord
  2
2
 70
     0
 62
     7
  6
SLD-Durchgehend
370
    -3
390
F
347
3E
  0
ENDTAB
  0
TABLE
  2
STYLE
  5
3
330
0
100
AcDbSymbolTable
 70
     2
  0
STYLE
  5
11
330
3
100
AcDbSymbolTableRecord
100
AcDbTextStyleTableRecord
  2
Standard
 70
     0
 40
0.0
 41
1.0
 50
0.0
 71
     0
 42
3.5
  3
txt
  4

  0
STYLE
  5
7C
330
3
100
AcDbSymbolTableRecord
100
AcDbTextStyleTableRecord
  2
SLDTEXTSTYLE0
 70
     0
 40
0.0
 41
0.75
 50
0.0
 71
     0
 42
0.2
  3
TXT
  4

  0
ENDTAB
  0
TABLE
  2
VIEW
  5
6
330
0
100
AcDbSymbolTable
 70
     0
  0
ENDTAB
  0
TABLE
  2
UCS
  5
7
330
0
100
AcDbSymbolTable
 70
     0
  0
ENDTAB
  0
TABLE
  2
APPID
  5
9
330
0
100
AcDbSymbolTable
 70
     1
  0
APPID
  5
12
330
9
100
AcDbSymbolTableRecord
100
AcDbRegAppTableRecord
  2
ACAD
 70
     0
  0
ENDTAB
  0
TABLE
  2
DIMSTYLE
  5
A
330
0
100
AcDbSymbolTable
 70
     4
100
AcDbDimStyleTable
  0
DIMSTYLE
105
27
330
A
100
AcDbSymbolTableRecord
100
AcDbDimStyleTableRecord
  2
ISO-25
 70
     0
 41
2.5
 42
0.625
 43
3.75
 44
1.25
 73
     0
 74
     0
 77
     1
 78
     8
140
2.5
141
2.5
143
0.0393700787
147
0.625
171
     3
172
     1
178
     0
271
     2
272
     2
274
     3
278
    44
283
     0
284
     8
340
11
  0
DIMSTYLE
105
7D
102
{ACAD_REACTORS
330
7B
102
}
330
A
100
AcDbSymbolTableRecord
100
AcDbDimStyleTableRecord
  2
SLDDIMSTYLE0
 70
     0
 41
3.302
 44
0.0
 45
0.000000001
 73
     0
 74
     0
 77
     1
 78
    12
 79
     3
140
3.5
147
0.875
173
     1
178
     0
271
     2
272
     2
276
     2
284
    12
340
7C
  0
DIMSTYLE
105
8A
102
{ACAD_REACTORS
330
89
330
EE
102
}
330
A
100
AcDbSymbolTableRecord
100
AcDbDimStyleTableRecord
  2
SLDDIMSTYLE1
 70
     0
 41
3.302
 44
0.0
 45
0.000000001
 73
     0
 74
     0
 77
     1
 78
    12
 79
     3
140
3.5
147
0.875
172
     1
173
     1
178
     0
271
     2
272
     2
276
     2
284
    12
289
     0
340
7C
  0
DIMSTYLE
105
FB
102
{ACAD_REACTORS
330
FA
102
}
330
A
100
AcDbSymbolTableRecord
100
AcDbDimStyleTableRecord
  2
SLDDIMSTYLE2
 70
     0
 41
3.302
 44
0.0
 45
0.000000001
 73
     0
 74
     0
 77
     1
 78
    12
 79
     3
140
3.5
147
0.875
172
     1
173
     1
178
     0
271
     1
272
     2
276
     2
284
    12
289
     0
340
7C
  0
ENDTAB
  0
TABLE
  2
BLOCK_RECORD
  5
1
330
0
100
AcDbSymbolTable
 70
     5
  0
BLOCK_RECORD
  5
1F
330
1
100
AcDbSymbolTableRecord
100
AcDbBlockTableRecord
  2
*Model_Space
340
22
 70
     0
280
     1
281
     0
  0
BLOCK_RECORD
  5
1B
330
1
100
AcDbSymbolTableRecord
100
AcDbBlockTableRecord
  2
*Paper_Space
340
1E
 70
     0
280
     1
281
     0
  0
BLOCK_RECORD
  5
23
330
1
100
AcDbSymbolTableRecord
100
AcDbBlockTableRecord
  2
*Paper_Space0
340
26
 70
     0
280
     1
281
     0
  0
BLOCK_RECORD
  5
7E
330
1
100
AcDbSymbolTableRecord
100
AcDbBlockTableRecord
  2
_D
340
0
 70
     0
280
     1
281
     0
  0
BLOCK_RECORD
  5
8B
330
1
100
AcDbSymbolTableRecord
100
AcDbBlockTableRecord
  2
_D_1
340
0
 70
     0
280
     1
281
     0
  0
BLOCK_RECORD
  5
EF
330
1
100
AcDbSymbolTableRecord
100
AcDbBlockTableRecord
  2
_D_2
340
0
 70
     0
280
     1
281
     0
  0
BLOCK_RECORD
  5
FC
330
1
100
AcDbSymbolTableRecord
100
AcDbBlockTableRecord
  2
_D_3
340
0
 70
     0
280
     1
281
     0
  0
ENDTAB
  0
ENDSEC
  0
SECTION
  2
BLOCKS
  0
BLOCK
  5
20
330
1F
100
AcDbEntity
  8
0
100
AcDbBlockBegin
  2
*Model_Space
 70
     0
 10
0.0
 20
0.0
 30
0.0
  3
*Model_Space
  1

  0
ENDBLK
  5
21
330
1F
100
AcDbEntity
  8
0
100
AcDbBlockEnd
  0
BLOCK
  5
1C
330
1B
100
AcDbEntity
 67
     1
  8
0
100
AcDbBlockBegin
  2
*Paper_Space
 70
     0
 10
0.0
 20
0.0
 30
0.0
  3
*Paper_Space
  1

  0
ENDBLK
  5
1D
330
1B
100
AcDbEntity
 67
     1
  8
0
100
AcDbBlockEnd
  0
BLOCK
  5
24
330
23
100
AcDbEntity
  8
0
100
AcDbBlockBegin
  2
*Paper_Space0
 70
     0
 10
0.0
 20
0.0
 30
0.0
  3
*Paper_Space0
  1

  0
ENDBLK
  5
25
330
23
100
AcDbEntity
  8
0
100
AcDbBlockEnd
  0
BLOCK
  5
7F
330
7E
100
AcDbEntity
  8
0
100
AcDbBlockBegin
  2
_D
 70
     0
 10
0.0
 20
0.0
 30
0.0
  3
_D
  1

  0
SOLID
  5
81
330
7E
100
AcDbEntity
  8
2
 62
     7
420
 16777215
100
AcDbTrace
 10
136.6025816956
 20
79.8744712947
 30
0.0
 11
139.9045816956
 21
79.3664712947
 31
0.0
 12
139.9045816956
 22
80.3824712947
 32
0.0
 13
139.9045816956
 23
80.3824712947
 33
0.0
  0
SOLID
  5
82
330
7E
100
AcDbEntity
  8
2
 62
     7
420
 16777215
100
AcDbTrace
 10
149.8025816956
 20
79.8744712947
 30
0.0
 11
146.5005816956
 21
80.3824712947
 31
0.0
 12
146.5005816956
 22
79.3664712947
 32
0.0
 13
146.5005816956
 23
79.3664712947
 33
0.0
  0
LINE
  5
83
330
7E
100
AcDbEntity
  8
2
 62
     7
420
 16777215
100
AcDbLine
 10
136.6025816956
 20
96.8467952703
 30
0.0
 11
136.6025816956
 21
78.8744712947
 31
0.0
  0
LINE
  5
84
330
7E
100
AcDbEntity
  8
2
 62
     7
420
 16777215
100
AcDbLine
 10
149.8025816956
 20
96.8467952703
 30
0.0
 11
149.8025816956
 21
78.8744712947
 31
0.0
  0
LINE
  5
85
330
7E
100
AcDbEntity
  8
2
 62
     7
420
 16777215
100
AcDbLine
 10
136.6025816956
 20
79.8744712947
 30
0.0
 11
111.9717127765
 21
79.8744712947
 31
0.0
  0
LINE
  5
86
330
7E
100
AcDbEntity
  8
2
 62
     7
420
 16777215
100
AcDbLine
 10
136.6025816956
 20
79.8744712947
 30
0.0
 11
149.8025816956
 21
79.8744712947
 31
0.0
  0
MTEXT
  5
87
330
7E
100
AcDbEntity
  8
2
 62
     7
420
 16777215
100
AcDbMText
 10
111.9717127765
 20
84.3862083839
 30
46.5161989144
 40
3.5
 41
0.0
 46
0.0
 71
     1
 72
     1
  1
%%c
  7
SLDTEXTSTYLE0
 73
     1
 44
1.0
  0
MTEXT
  5
88
330
7E
100
AcDbEntity
  8
2
 62
     7
420
 16777215
100
AcDbMText
 10
117.2501501748
 20
84.4396805605
 30
46.5161989144
 40
3.5
 41
0.0
 46
0.0
 71
     1
 72
     1
  1
13,20
  7
SLDTEXTSTYLE0
 73
     1
 44
1.0
  0
ENDBLK
  5
80
330
7E
100
AcDbEntity
  8
0
100
AcDbBlockEnd
  0
BLOCK
  5
8C
330
8B
100
AcDbEntity
  8
0
100
AcDbBlockBegin
  2
_D_1
 70
     0
 10
0.0
 20
0.0
 30
0.0
  3
_D_1
  1

  0
SOLID
  5
8E
330
8B
100
AcDbEntity
  8
2
 62
     7
420
 16777215
100
AcDbTrace
 10
133.2045618917
 20
110.4605801082
 30
0.0
 11
129.9025618917
 21
110.9685801082
 31
0.0
 12
129.9025618917
 22
109.9525801082
 32
0.0
 13
129.9025618917
 23
109.9525801082
 33
0.0
  0
SOLID
  5
8F
330
8B
100
AcDbEntity
  8
2
 62
     7
420
 16777215
100
AcDbTrace
 10
143.2025816956
 20
110.4605801082
 30
0.0
 11
146.5045816956
 21
109.9525801082
 31
0.0
 12
146.5045816956
 22
110.9685801082
 32
0.0
 13
146.5045816956
 23
110.9685801082
 33
0.0
  0
LINE
  5
90
330
8B
100
AcDbEntity
  8
2
 62
     7
420
 16777215
100
AcDbLine
 10
133.2045618917
 20
105.4467952703
 30
0.0
 11
133.2045618917
 21
111.4605801082
 31
0.0
  0
LINE
  5
91
330
8B
100
AcDbEntity
  8
2
 62
     7
420
 16777215
100
AcDbLine
 10
143.2025816956
 20
98.8467952703
 30
0.0
 11
143.2025816956
 21
111.4605801082
 31
0.0
  0
LINE
  5
92
330
8B
100
AcDbEntity
  8
2
 62
     7
420
 16777215
100
AcDbLine
 10
133.2045618917
 20
110.4605801082
 30
0.0
 11
128.2045618917
 21
110.4605801082
 31
0.0
  0
LINE
  5
93
330
8B
100
AcDbEntity
  8
2
 62
     7
420
 16777215
100
AcDbLine
 10
133.2045618917
 20
110.4605801082
 30
0.0
 11
143.2025816956
 21
110.4605801082
 31
0.0
  0
LINE
  5
94
330
8B
100
AcDbEntity
  8
2
 62
     7
420
 16777215
100
AcDbLine
 10
143.2025816956
 20
110.4605801082
 30
0.0
 11
148.2025816956
 21
110.4605801082
 31
0.0
  0
MTEXT
  5
95
330
8B
100
AcDbEntity
  8
2
 62
     7
420
 16777215
100
AcDbMText
 10
134.1955855126
 20
114.9723170227
 30
46.5161989144
 40
3.5
 41
0.0
 46
0.0
 71
     1
 72
     1
  1
10
  7
SLDTEXTSTYLE0
 73
     1
 44
1.0
  0
ENDBLK
  5
8D
330
8B
100
AcDbEntity
  8
0
100
AcDbBlockEnd
  0
BLOCK
  5
F0
330
EF
100
AcDbEntity
  8
0
100
AcDbBlockBegin
  2
_D_2
 70
     0
 10
0.0
 20
0.0
 30
0.0
  3
_D_2
  1

  0
SOLID
  5
F2
330
EF
100
AcDbEntity
  8
2
 62
     7
420
 16777215
100
AcDbTrace
 10
127.1907770538
 20
56.9682214798
 30
0.0
 11
127.6987770538
 21
60.2702214798
 31
0.0
 12
126.6827770538
 22
60.2702214798
 32
0.0
 13
126.6827770538
 23
60.2702214798
 33
0.0
  0
SOLID
  5
F3
330
EF
100
AcDbEntity
  8
2
 62
     7
420
 16777215
100
AcDbTrace
 10
127.1907770538
 20
53.9682214798
 30
0.0
 11
126.6827770538
 21
50.6662214798
 31
0.0
 12
127.6987770538
 22
50.6662214798
 32
0.0
 13
127.6987770538
 23
50.6662214798
 33
0.0
  0
LINE
  5
F4
330
EF
100
AcDbEntity
  8
2
 62
     7
420
 16777215
100
AcDbLine
 10
132.2045618917
 20
56.9682214798
 30
0.0
 11
126.1907770538
 21
56.9682214798
 31
0.0
  0
LINE
  5
F5
330
EF
100
AcDbEntity
  8
2
 62
     7
420
 16777215
100
AcDbLine
 10
132.2045618917
 20
53.9682214798
 30
0.0
 11
126.1907770538
 21
53.9682214798
 31
0.0
  0
LINE
  5
F6
330
EF
100
AcDbEntity
  8
2
 62
     7
420
 16777215
100
AcDbLine
 10
127.1907770538
 20
56.9682214798
 30
0.0
 11
127.1907770538
 21
67.2692632412
 31
0.0
  0
LINE
  5
F7
330
EF
100
AcDbEntity
  8
2
 62
     7
420
 16777215
100
AcDbLine
 10
127.1907770538
 20
56.9682214798
 30
0.0
 11
127.1907770538
 21
53.9682214798
 31
0.0
  0
LINE
  5
F8
330
EF
100
AcDbEntity
  8
2
 62
     7
420
 16777215
100
AcDbLine
 10
127.1907770538
 20
53.9682214798
 30
0.0
 11
127.1907770538
 21
48.9682214798
 31
0.0
  0
MTEXT
  5
F9
330
EF
100
AcDbEntity
  8
2
 62
     7
420
 16777215
100
AcDbMText
 10
122.6790401393
 20
61.8394021054
 30
9.2792695689
 40
3.5
 41
0.0
 46
0.0
 71
     1
 72
     1
  1
3
  7
SLDTEXTSTYLE0
 11
-7.044195017643634E-15
 21
1.0
 31
0.0
 73
     1
 44
1.0
  0
ENDBLK
  5
F1
330
EF
100
AcDbEntity
  8
0
100
AcDbBlockEnd
  0
BLOCK
  5
FD
330
FC
100
AcDbEntity
  8
0
100
AcDbBlockBegin
  2
_D_3
 70
     0
 10
0.0
 20
0.0
 30
0.0
  3
_D_3
  1

  0
SOLID
  5
FF
330
FC
100
AcDbEntity
  8
2
 62
     7
420
 16777215
100
AcDbTrace
 10
136.2226467866
 20
41.2681964798
 30
0.0
 11
139.5246467866
 21
40.7601964798
 31
0.0
 12
139.5246467866
 22
41.7761964798
 32
0.0
 13
139.5246467866
 23
41.7761964798
 33
0.0
  0
SOLID
  5
100
330
FC
100
AcDbEntity
  8
2
 62
     7
420
 16777215
100
AcDbTrace
 10
133.2045618917
 20
41.2681964798
 30
0.0
 11
129.9025618917
 21
41.7761964798
 31
0.0
 12
129.9025618917
 22
40.7601964798
 32
0.0
 13
129.9025618917
 23
40.7601964798
 33
0.0
  0
LINE
  5
101
330
FC
100
AcDbEntity
  8
2
 62
     7
420
 16777215
100
AcDbLine
 10
136.2226467866
 20
53.0246970434
 30
0.0
 11
136.2226467866
 21
40.2681964798
 31
0.0
  0
LINE
  5
102
330
FC
100
AcDbEntity
  8
2
 62
     7
420
 16777215
100
AcDbLine
 10
133.2045618917
 20
53.1713218949
 30
0.0
 11
133.2045618917
 21
40.2681964798
 31
0.0
  0
LINE
  5
103
330
FC
100
AcDbEntity
  8
2
 62
     7
420
 16777215
100
AcDbLine
 10
136.2226467866
 20
41.2681964798
 30
0.0
 11
141.2226467866
 21
41.2681964798
 31
0.0
  0
LINE
  5
104
330
FC
100
AcDbEntity
  8
2
 62
     7
420
 16777215
100
AcDbLine
 10
136.2226467866
 20
41.2681964798
 30
0.0
 11
133.2045618917
 21
41.2681964798
 31
0.0
  0
LINE
  5
105
330
FC
100
AcDbEntity
  8
2
 62
     7
420
 16777215
100
AcDbLine
 10
133.2045618917
 20
41.2681964798
 30
0.0
 11
122.9035201303
 21
41.2681964798
 31
0.0
  0
MTEXT
  5
106
330
FC
100
AcDbEntity
  8
2
 62
     7
420
 16777215
100
AcDbMText
 10
122.9035201303
 20
45.7799333944
 30
9.2792695689
 40
3.5
 41
0.0
 46
0.0
 71
     1
 72
     1
  1
3
  7
SLDTEXTSTYLE0
 73
     1
 44
1.0
  0
ENDBLK
  5
FE
330
FC
100
AcDbEntity
  8
0
100
AcDbBlockEnd
  0
ENDSEC
  0
SECTION
  2
ENTITIES
  0
CIRCLE
  5
48
330
1F
100
AcDbEntity
  8
0
  6
SLD-Punktstrich
 62
     7
100
AcDbCircle
 10
143.2025816956
 20
97.8467952703
 30
0.0
 40
6.59999999999998
  0
CIRCLE
  5
49
330
1F
100
AcDbEntity
  8
0
  6
SLD-Punktstrich
 62
     7
100
AcDbCircle
 10
143.2025816956
 20
97.8467952703
 30
0.0
 40
11.97999999999997
  0
POINT
  5
4A
330
1F
100
AcDbEntity
  8
1
 62
     4
420
    65535
100
AcDbPoint
 10
143.2025816956
 20
97.8467952703
 30
0.0
  0
POINT
  5
4B
330
1F
100
AcDbEntity
  8
1
 62
     4
420
    65535
100
AcDbPoint
 10
143.2025816956
 20
97.8467952703
 30
0.0
  0
POINT
  5
4C
330
1F
100
AcDbEntity
  8
1
 62
     4
420
    65535
100
AcDbPoint
 10
143.2025816956
 20
97.8467952703
 30
0.0
  0
CIRCLE
  5
4D
330
1F
100
AcDbEntity
  8
1
 62
     4
420
    65535
100
AcDbCircle
 10
143.2025816956
 20
97.8467952703
 30
0.0
 40
2.549999999999983
  0
ARC
  5
4E
330
1F
100
AcDbEntity
  8
1
 62
     4
420
    65535
100
AcDbCircle
 10
106.8117403412
 20
101.812044939
 30
0.0
 40
30.0
100
AcDbArc
 50
349.8559186075
 51
4.7918194881
  0
ARC
  5
4F
330
1F
100
AcDbEntity
  8
1
 62
     4
420
    65535
100
AcDbCircle
 10
135.6763489133
 20
84.2662049739
 30
0.0
 40
7.000000000000038
100
AcDbArc
 50
42.3930865052
 51
46.601549599
  0
ARC
  5
50
330
1F
100
AcDbEntity
  8
1
 62
     4
420
    65535
100
AcDbCircle
 10
157.9639954274
 20
64.3487773579
 30
0.0
 40
30.00000000000002
100
AcDbArc
 50
109.8559186075
 51
124.7918194881
  0
LINE
  5
51
330
1F
100
AcDbEntity
  8
1
 62
     4
420
    65535
100
AcDbLine
 10
145.4906510237
 20
104.4467952703
 30
0.0
 11
137.2045618917
 21
104.4467952703
 31
0.0
  0
LINE
  5
52
330
1F
100
AcDbEntity
  8
1
 62
     4
420
    65535
100
AcDbLine
 10
147.7743146966
 20
92.5652691066
 30
0.0
 11
151.9173592626
 21
99.7412327929
 31
0.0
  0
LINE
  5
53
330
1F
100
AcDbEntity
  8
1
 62
     4
420
    65535
100
AcDbLine
 10
136.3427793666
 20
96.528321434
 30
0.0
 11
140.4858239326
 21
89.3523577477
 31
0.0
  0
ARC
  5
54
330
1F
100
AcDbEntity
  8
1
 62
     4
420
    65535
100
AcDbCircle
 10
158.7268342819
 20
98.1191816342
 30
0.0
 40
7.000000000000063
100
AcDbArc
 50
162.3930865052
 51
166.601549599
  0
ARC
  5
55
330
1F
100
AcDbEntity
  8
1
 62
     4
420
    65535
100
AcDbCircle
 10
135.2045618917
 20
111.1549992028
 30
0.0
 40
6.999999999999993
100
AcDbArc
 50
282.3930865052
 51
286.601549599
  0
ARC
  5
56
330
1F
100
AcDbEntity
  8
1
 62
     4
420
    65535
100
AcDbCircle
 10
164.8320093183
 20
127.379563514
 30
0.0
 40
30.0
100
AcDbArc
 50
229.8559186075
 51
244.7918194881
  0
SPLINE
  5
57
330
1F
100
AcDbEntity
  8
1
 62
     4
420
    65535
100
AcDbSpline
210
0.0
220
0.0
230
1.0
 70
     8
 71
     3
 72
    17
 73
    13
 74
     0
 42
0.00000001
 43
0.00000001
 12
1.0
 22
0.0
 32
0.0
 13
1.0
 23
0.0
 33
0.0
 40
0.0
 40
0.0
 40
0.0
 40
0.0
 40
0.0625130247401988
 40
0.1250078152729608
 40
0.1874982823709485
 40
0.2499983396936527
 40
0.3749788828621631
 40
0.4999945016418665
 40
0.6249396994198617
 40
0.7499950979174247
 40
0.8749600881244574
 40
0.9999999999999999
 40
0.9999999999999999
 40
0.9999999999999999
 40
0.9999999999999999
 10
146.2627603535154
 20
104.4467961194154
 30
0.0
 10
146.3773816459472
 20
104.3547625574877
 30
0.0
 10
146.6065907973235
 20
104.170722278583
 30
0.0
 10
146.955548537065
 20
103.9012224139936
 30
0.0
 10
147.3081721094679
 20
103.6366094400309
 30
0.0
 10
147.7836247630331
 20
103.2909907040866
 30
0.0
 10
148.3875678330469
 20
102.8722392077989
 30
0.0
 10
149.1269000328043
 20
102.3917590671536
 30
0.0
 10
149.8803420102203
 20
101.933363067406
 30
0.0
 10
150.6472452725994
 20
101.4982044564333
 30
0.0
 10
151.4261813003536
 20
101.0843028688794
 30
0.0
 10
151.9553895927925
 20
100.8283123703733
 30
0.0
 10
152.2200730357935
 20
100.7002787634019
 30
0.0
  0
SPLINE
  5
58
330
1F
100
AcDbEntity
  8
1
 62
     4
420
    65535
100
AcDbSpline
210
0.0
220
0.0
230
1.0
 70
    24
 71
     3
 72
     9
 73
     5
 74
     0
 42
0.00000001
 43
0.00000001
 12
1.0
 22
0.0
 32
0.0
 13
1.0
 23
0.0
 33
0.0
 40
0.0
 40
0.0
 40
0.0
 40
0.0
 40
0.5029019627498895
 40
1.0
 40
1.0
 40
1.0
 40
1.0
 10
145.4906465354165
 20
104.4467952703008
 30
0.0
 10
145.6197375228195
 20
104.4467952703008
 30
0.0
 10
145.8764296754948
 20
104.4467952703008
 30
0.0
 10
146.134482899976
 20
104.4467952703008
 30
0.0
 10
146.2627606513717
 20
104.4467952703008
 30
0.0
  0
SPLINE
  5
59
330
1F
100
AcDbEntity
  8
1
 62
     4
420
    65535
100
AcDbSpline
210
0.0
220
0.0
230
1.0
 70
     8
 71
     3
 72
     9
 73
     5
 74
     0
 42
0.00000001
 43
0.00000001
 12
1.0
 22
0.0
 32
0.0
 13
1.0
 23
0.0
 33
0.0
 40
0.0
 40
0.0
 40
0.0
 40
0.0
 40
0.5354305995508843
 40
1.0
 40
1.0
 40
1.0
 40
1.0
 10
152.2200733189802
 20
100.7002786435245
 30
0.0
 10
152.1884638980661
 20
100.6183570401009
 30
0.0
 10
152.1294283835838
 20
100.465355692228
 30
0.0
 10
152.0784408238259
 20
100.3091429397138
 30
0.0
 10
152.0547535637588
 20
100.2365712749358
 30
0.0
  0
SPLINE
  5
5A
330
1F
100
AcDbEntity
  8
1
 62
     4
420
    65535
100
AcDbSpline
210
0.0
220
0.0
230
1.0
 70
     8
 71
     3
 72
    17
 73
    13
 74
     0
 42
0.00000001
 43
0.00000001
 12
1.0
 22
0.0
 32
0.0
 13
1.0
 23
0.0
 33
0.0
 40
0.0
 40
0.0
 40
0.0
 40
0.0
 40
0.0625130247376314
 40
0.1250078152695374
 40
0.1874982823683789
 40
0.249998339693645
 40
0.3749788828579139
 40
0.499994501641856
 40
0.6249396994184934
 40
0.7499950979174176
 40
0.8749600881239152
 40
0.9999999999999999
 40
0.9999999999999999
 40
0.9999999999999999
 40
0.9999999999999999
 10
135.9567239663787
 20
97.19698730357764
 30
0.0
 10
135.979116722792
 20
97.34226903559606
 30
0.0
 10
136.0238957039536
 20
97.63279012291221
 30
0.0
 10
136.0828105631327
 20
98.06974632266432
 30
0.0
 10
136.1356603345546
 20
98.50743378132572
 30
0.0
 10
136.1972486131252
 20
99.09199722557993
 30
0.0
 10
136.2579265117774
 20
99.8244030148013
 30
0.0
 10
136.3043684197107
 20
100.7049235519465
 30
0.0
 10
136.324630011778
 20
101.5866214445501
 30
0.0
 10
136.3180367923663
 20
102.4683584575007
 30
0.0
 10
136.2870180679778
 20
103.349887639239
 30
0.0
 10
136.244108196592
 20
103.9361907136374
 30
0.0
 10
136.2226468312668
 20
104.2294301027245
 30
0.0
  0
SPLINE
  5
5B
330
1F
100
AcDbEntity
  8
1
 62
     4
420
    65535
100
AcDbSpline
210
0.0
220
0.0
230
1.0
 70
    24
 71
     3
 72
     9
 73
     5
 74
     0
 42
0.00000001
 43
0.00000001
 12
1.0
 22
0.0
 32
0.0
 13
1.0
 23
0.0
 33
0.0
 40
0.0
 40
0.0
 40
0.0
 40
0.0
 40
0.502901962749865
 40
1.0
 40
1.0
 40
1.0
 40
1.0
 10
136.342781610783
 20
96.52831754704835
 30
0.0
 10
136.2782361170815
 20
96.64011362153887
 30
0.0
 10
136.1498900407439
 20
96.86241554670782
 30
0.0
 10
136.0208634285032
 20
97.08589619463706
 30
0.0
 10
135.9567245528054
 20
97.19698798608609
 30
0.0
  0
SPLINE
  5
5C
330
1F
100
AcDbEntity
  8
1
 62
     4
420
    65535
100
AcDbSpline
210
0.0
220
0.0
230
1.0
 70
     8
 71
     3
 72
     9
 73
     5
 74
     0
 42
0.00000001
 43
0.00000001
 12
1.0
 22
0.0
 32
0.0
 13
1.0
 23
0.0
 33
0.0
 40
0.0
 40
0.0
 40
0.0
 40
0.0
 40
0.5354305995506571
 40
1.0
 40
1.0
 40
1.0
 40
1.0
 10
136.2226467934902
 20
104.22943040791
 30
0.0
 10
136.3093976936308
 20
104.2430166481114
 30
0.0
 10
136.4714185049432
 20
104.2683910667806
 30
0.0
 10
136.6321964968945
 20
104.3023409210104
 30
0.0
 10
136.7068890322208
 20
104.3181129844352
 30
0.0
  0
SPLINE
  5
5D
330
1F
100
AcDbEntity
  8
1
 62
     4
420
    65535
100
AcDbSpline
210
0.0
220
0.0
230
1.0
 70
     8
 71
     3
 72
    17
 73
    13
 74
     0
 42
0.00000001
 43
0.00000001
 12
1.0
 22
0.0
 32
0.0
 13
1.0
 23
0.0
 33
0.0
 40
0.0
 40
0.0
 40
0.0
 40
0.0
 40
0.0625130247412841
 40
0.1250078152744075
 40
0.1874982823720331
 40
0.2499983396936523
 40
0.3749788828647945
 40
0.4999945016418672
 40
0.6249396994257632
 40
0.7499950979174297
 40
0.8749600881291635
 40
1.0
 40
1.0
 40
1.0
 40
1.0
 10
147.3882607670429
 20
91.89660238790931
 30
0.0
 10
147.2512467181945
 20
91.84335421781168
 30
0.0
 10
146.9772585856521
 20
91.73687340939112
 30
0.0
 10
146.5693859867281
 20
91.56941707422159
 30
0.0
 10
146.1639126429064
 20
91.39634258952982
 30
0.0
 10
145.6268717107699
 20
91.15739788121596
 30
0.0
 10
144.9622507421073
 20
90.84374358828946
 30
0.0
 10
144.1764766344039
 20
90.4437031917795
 30
0.0
 10
143.4027730649263
 20
90.02040129893714
 30
0.0
 10
142.6424630219501
 20
89.57382289695094
 30
0.0
 10
141.8945457185975
 20
89.10619530277542
 30
0.0
 10
141.4082472975439
 20
88.77588272688378
 30
0.0
 10
141.1650252198769
 20
88.61067694477605
 30
0.0
  0
SPLINE
  5
5E
330
1F
100
AcDbEntity
  8
1
 62
     4
420
    65535
100
AcDbSpline
210
0.0
220
0.0
230
1.0
 70
     8
 71
     3
 72
     9
 73
     5
 74
     0
 42
0.00000001
 43
0.00000001
 12
1.0
 22
0.0
 32
0.0
 13
1.0
 23
0.0
 33
0.0
 40
0.0
 40
0.0
 40
0.0
 40
0.0
 40
0.5354305995509564
 40
1.0
 40
1.0
 40
1.0
 40
1.0
 10
141.1650249744667
 20
88.61067675946785
 30
0.0
 10
141.1098834952401
 20
88.67901212269017
 30
0.0
 10
141.0068981984101
 20
88.80663905189373
 30
0.0
 10
140.8971077662167
 20
88.92890195017819
 30
0.0
 10
140.8461024909575
 20
88.98570155153136
 30
0.0
  0
SPLINE
  5
5F
330
1F
100
AcDbEntity
  8
1
 62
     4
420
    65535
100
AcDbSpline
210
0.0
220
0.0
230
1.0
 70
    24
 71
     3
 72
     9
 73
     5
 74
     0
 42
0.00000001
 43
0.00000001
 12
1.0
 22
0.0
 32
0.0
 13
1.0
 23
0.0
 33
0.0
 40
0.0
 40
0.0
 40
0.0
 40
0.0
 40
0.502901962749449
 40
0.9999999999999999
 40
0.9999999999999999
 40
0.9999999999999999
 40
0.9999999999999999
 10
147.7743169407375
 20
92.56527299355322
 30
0.0
 10
147.7097714470361
 20
92.45347691906278
 30
0.0
 10
147.5814253706985
 20
92.23117499389382
 30
0.0
 10
147.4523987584578
 20
92.00769434596458
 30
0.0
 10
147.3882598827599
 20
91.89660255451547
 30
0.0
  0
LINE
  5
60
330
1F
100
AcDbEntity
  8
1
 62
     4
420
    65535
100
AcDbLine
 10
150.9926607532
 20
104.4467952703
 30
0.0
 11
153.9173592626
 21
103.2053344081
 31
0.0
  0
LINE
  5
61
330
1F
100
AcDbEntity
  8
1
 62
     4
420
    65535
100
AcDbLine
 10
153.7598416379
 20
103.0516236333
 30
0.0
 11
150.4730232361
 21
104.4467952703
 31
0.0
  0
LINE
  5
62
330
1F
100
AcDbEntity
  8
1
 62
     4
420
    65535
100
AcDbLine
 10
150.4730232361
 20
104.4467952703
 30
0.0
 11
150.9926607532
 21
104.4467952703
 31
0.0
  0
SPLINE
  5
63
330
1F
100
AcDbEntity
  8
1
 62
     4
420
    65535
100
AcDbSpline
210
0.0
220
0.0
230
1.0
 70
     8
 71
     3
 72
    10
 73
     6
 74
     0
 42
0.00000001
 43
0.00000001
 12
1.0
 22
0.0
 32
0.0
 13
1.0
 23
0.0
 33
0.0
 40
0.0
 40
0.0
 40
0.0
 40
0.0
 40
0.5
 40
0.5
 40
1.0
 40
1.0
 40
1.0
 40
1.0
 10
153.9173592625935
 20
103.2053344080538
 30
0.0
 10
153.9173592625935
 20
103.2053344080538
 30
0.0
 10
153.8980259865522
 20
103.1871525191007
 30
0.0
 10
153.8383415706818
 20
103.1296065119707
 30
0.0
 10
153.7988658560643
 20
103.0909212073477
 30
0.0
 10
153.7598416378738
 20
103.0516236333006
 30
0.0
  0
LINE
  5
64
330
1F
100
AcDbEntity
  8
1
 62
     4
420
    65535
100
AcDbLine
 10
133.5917745019
 20
101.2932016316
 30
0.0
 11
133.2045618917
 21
104.4467952703
 31
0.0
  0
LINE
  5
65
330
1F
100
AcDbEntity
  8
1
 62
     4
420
    65535
100
AcDbLine
 10
133.4164381398
 20
104.3872363931
 30
0.0
 11
133.8515932604
 21
100.8431823411
 31
0.0
  0
LINE
  5
66
330
1F
100
AcDbEntity
  8
1
 62
     4
420
    65535
100
AcDbLine
 10
133.8515932604
 20
100.8431823411
 30
0.0
 11
133.5917745019
 21
101.2932016316
 31
0.0
  0
SPLINE
  5
67
330
1F
100
AcDbEntity
  8
1
 62
     4
420
    65535
100
AcDbSpline
210
0.0
220
0.0
230
1.0
 70
     8
 71
     3
 72
    10
 73
     6
 74
     0
 42
0.00000001
 43
0.00000001
 12
1.0
 22
0.0
 32
0.0
 13
1.0
 23
0.0
 33
0.0
 40
0.0
 40
0.0
 40
0.0
 40
0.0
 40
0.5
 40
0.5
 40
1.0
 40
1.0
 40
1.0
 40
1.0
 10
133.2045618917045
 20
104.4467952703008
 30
0.0
 10
133.2045618917045
 20
104.4467952703008
 30
0.0
 10
133.2299745074474
 20
104.4391431065872
 30
0.0
 10
133.3096530194435
 20
104.4162278897984
 30
0.0
 10
133.3628933333089
 20
104.4013835704186
 30
0.0
 10
133.4164381398361
 20
104.3872363931263
 30
0.0
  0
LINE
  5
68
330
1F
100
AcDbEntity
  8
1
 62
     4
420
    65535
100
AcDbLine
 10
145.0233098319
 20
87.800388909
 30
0.0
 11
142.4858239326
 21
85.8882561325
 31
0.0
  0
LINE
  5
69
330
1F
100
AcDbEntity
  8
1
 62
     4
420
    65535
100
AcDbLine
 10
142.4314653092
 20
86.1015257845
 30
0.0
 11
145.2831285904
 21
88.2504081995
 31
0.0
  0
SPLINE
  5
6A
330
1F
100
AcDbEntity
  8
1
 62
     4
420
    65535
100
AcDbSpline
210
0.0
220
0.0
230
1.0
 70
     8
 71
     3
 72
    10
 73
     6
 74
     0
 42
0.00000001
 43
0.00000001
 12
1.0
 22
0.0
 32
0.0
 13
1.0
 23
0.0
 33
0.0
 40
0.0
 40
0.0
 40
0.0
 40
0.0
 40
0.5
 40
0.5
 40
1.0
 40
1.0
 40
1.0
 40
1.0
 10
142.4858239326391
 20
85.88825613254781
 30
0.0
 10
142.4858239326391
 20
85.88825613254781
 30
0.0
 10
142.4797445929375
 20
85.91409018521453
 30
0.0
 10
142.4597504968117
 20
85.99455140913335
 30
0.0
 10
142.4459858975638
 20
86.0480810331361
 30
0.0
 10
142.4314653092272
 20
86.10152578447546
 30
0.0
  0
LINE
  5
6B
330
1F
100
AcDbEntity
  8
1
 62
     4
420
    65535
100
AcDbLine
 10
145.2831285904
 20
88.2504081995
 30
0.0
 11
145.0233098319
 21
87.800388909
 31
0.0
  0
LINE
  5
6C
330
1F
100
AcDbEntity
  8
1
 62
     4
420
    65535
100
AcDbLine
 10
135.9567247017
 20
97.1969877282
 30
0.0
 11
133.8515932604
 21
100.8431823411
 31
0.0
  0
ARC
  5
6D
330
1F
100
AcDbEntity
  8
1
 62
     4
420
    65535
100
AcDbCircle
 10
135.2045618917
 20
111.1549992028
 30
0.0
 40
6.999999999999998
100
AcDbArc
 50
255.1999708235
 51
278.3627999345
  0
ARC
  5
6E
330
1F
100
AcDbEntity
  8
1
 62
     4
420
    65535
100
AcDbCircle
 10
135.6763489133
 20
84.2662049739
 30
0.0
 40
6.999999999999988
100
AcDbArc
 50
15.1999708235
 51
38.3627999345
  0
LINE
  5
6F
330
1F
100
AcDbEntity
  8
1
 62
     4
420
    65535
100
AcDbLine
 10
147.3882600316
 20
91.8966028124
 30
0.0
 11
145.2831285904
 21
88.2504081995
 31
0.0
  0
LINE
  5
70
330
1F
100
AcDbEntity
  8
1
 62
     4
420
    65535
100
AcDbLine
 10
146.2627603536
 20
104.4467952703
 30
0.0
 11
150.4730232361
 21
104.4467952703
 31
0.0
  0
ARC
  5
71
330
1F
100
AcDbEntity
  8
1
 62
     4
420
    65535
100
AcDbCircle
 10
158.7268342819
 20
98.1191816342
 30
0.0
 40
6.999999999999996
100
AcDbArc
 50
135.1999708235
 51
158.3627999345
  0
ELLIPSE
  5
72
330
1F
100
AcDbEntity
  8
1
  6
SLD-Gestrichelt
 62
   131
420
  8454143
370
     0
100
AcDbEllipse
 10
133.3836494424
 20
104.6293460264
 30
0.0
 11
1.253080905736169
 21
-10.20552499859582
 31
0.0
210
0.0
220
0.0
230
1.0
 40
0.0194511532
 41
5.040705901550165
 42
5.045545117959625
  0
LINE
  5
73
330
1F
100
AcDbEntity
  8
1
  6
SLD-Gestrichelt
 62
   131
420
  8454143
370
     0
100
AcDbLine
 10
133.7466517147
 20
101.6978626442
 30
0.0
 11
133.4164381398
 21
104.3872363931
 31
0.0
  0
ELLIPSE
  5
74
330
1F
100
AcDbEntity
  8
1
  6
SLD-Gestrichelt
 62
   131
420
  8454143
370
     0
100
AcDbEllipse
 10
142.2381865651
 20
85.9520751229
 30
0.0
 11
8.211703454873032
 21
6.187962396662698
 31
0.0
210
0.0
220
0.0
230
1.0
 40
0.0194511532
 41
5.040705901550099
 42
5.045545117959563
  0
LINE
  5
75
330
1F
100
AcDbEntity
  8
1
  6
SLD-Gestrichelt
 62
   131
420
  8454143
370
     0
100
AcDbLine
 10
144.5954245086
 20
87.7321860034
 30
0.0
 11
142.4314653092
 21
86.1015257845
 31
0.0
  0
ELLIPSE
  5
76
330
1F
100
AcDbEntity
  8
1
  6
SLD-Gestrichelt
 62
   131
420
  8454143
370
     0
100
AcDbEllipse
 10
153.9859090795
 20
102.9589646616
 30
0.0
 11
-9.464784360609286
 21
4.017562601933079
 31
0.0
210
0.0
220
0.0
230
1.0
 40
0.0194511532
 41
5.040705901550102
 42
5.045545117959565
  0
LINE
  5
77
330
1F
100
AcDbEntity
  8
1
  6
SLD-Gestrichelt
 62
   131
420
  8454143
370
     0
100
AcDbLine
 10
151.2656688636
 20
104.1103371633
 30
0.0
 11
153.7598416379
 21
103.0516236333
 31
0.0
  0
ARC
  5
78
330
1F
100
AcDbEntity
  8
1
  6
SLD-Gestrichelt
 62
   131
420
  8454143
370
     0
100
AcDbCircle
 10
143.2025816956
 20
97.8467952703
 30
0.0
 40
10.21006031925437
100
AcDbArc
 50
261.8408219695
 51
280.1393343023
  0
ARC
  5
79
330
1F
100
AcDbEntity
  8
1
  6
SLD-Gestrichelt
 62
   131
420
  8454143
370
     0
100
AcDbCircle
 10
143.2025816956
 20
97.8467952703
 30
0.0
 40
10.21006031925435
100
AcDbArc
 50
21.8408219695
 51
40.1393343023
  0
ARC
  5
7A
330
1F
100
AcDbEntity
  8
1
  6
SLD-Gestrichelt
 62
   131
420
  8454143
370
     0
100
AcDbCircle
 10
143.2025816956
 20
97.8467952703
 30
0.0
 40
10.21006031925433
100
AcDbArc
 50
141.8408219695
 51
160.1393343023
  0
DIMENSION
  5
7B
330
1F
100
AcDbEntity
  8
2
 62
     7
420
 16777215
100
AcDbDimension
  2
_D
 10
149.8025816956
 20
79.8744712947
 30
0.0
 11
121.8515570396
 21
79.8744712947
 31
0.0
 70
   160
  1
%%c<>
 71
     2
 42
-1.0
 73
     0
 74
     0
 75
     0
  3
SLDDIMSTYLE0
100
AcDbAlignedDimension
 13
136.6025816956
 23
97.8467952703
 33
0.0
 14
149.8025816956
 24
97.8467952703
 34
0.0
100
AcDbRotatedDimension
  0
DIMENSION
  5
89
330
1F
100
AcDbEntity
  8
2
 62
     7
420
 16777215
100
AcDbDimension
  2
_D_1
 10
143.2025816956
 20
110.4605801082
 30
0.0
 11
138.2035717937
 21
110.4605801082
 31
0.0
 70
   160
  1
<>
 71
     2
 42
-1.0
 73
     0
 74
     0
 75
     0
  3
SLDDIMSTYLE1
100
AcDbAlignedDimension
 13
133.2045618917
 23
104.4467952703
 33
0.0
 14
143.2025816956
 24
97.8467952703
 34
0.0
100
AcDbRotatedDimension
  0
LINE
  5
96
330
1F
100
AcDbEntity
  8
1
 62
     4
420
    65535
100
AcDbLine
 10
144.6072612712
 20
56.9105699364
 30
0.0
 11
142.4331881345
 21
56.9635305564
 31
0.0
  0
LINE
  5
97
330
1F
100
AcDbEntity
  8
1
 62
     4
420
    65535
100
AcDbLine
 10
152.213669753
 20
54.0056378379
 30
0.0
 11
152.0547535638
 21
53.5326485083
 31
0.0
  0
SPLINE
  5
98
330
1F
100
AcDbEntity
  8
1
 62
     4
420
    65535
100
AcDbSpline
210
0.0
220
0.0
230
1.0
 70
     8
 71
     3
 72
    22
 73
    18
 74
     0
 42
0.00000001
 43
0.00000001
 12
1.0
 22
0.0
 32
0.0
 13
1.0
 23
0.0
 33
0.0
 40
0.0
 40
0.0
 40
0.0
 40
0.0
 40
0.069134027915981
 40
0.1379155496486011
 40
0.2063445709107309
 40
0.274421097506972
 40
0.3421451353355543
 40
0.4095166903902703
 40
0.4765357687624729
 40
0.5432023766431319
 40
0.6095165203249161
 40
0.6754782062043732
 40
0.7410874407841057
 40
0.8063442306750914
 40
0.8712485825989799
 40
0.9358005033905227
 40
1.0
 40
1.0
 40
1.0
 40
1.0
 10
152.0547550517553
 20
53.53264847106112
 30
0.0
 10
151.8921039182344
 20
53.53597683362767
 30
0.0
 10
151.5676309899717
 20
53.54261658783604
 30
0.0
 10
151.0875437165443
 20
53.55235329112573
 30
0.0
 10
150.6140051072477
 20
53.56189411903718
 30
0.0
 10
150.147470768011
 20
53.5712251095599
 30
0.0
 10
149.6879176526891
 20
53.58034997499078
 30
0.0
 10
149.2354428731044
 20
53.58926772881036
 30
0.0
 10
148.7901046757174
 20
53.59797863186734
 30
0.0
 10
148.3519645458152
 20
53.60648262052859
 30
0.0
 10
147.9210772033348
 20
53.61477969096639
 30
0.0
 10
147.4974894064886
 20
53.62286992142602
 30
0.0
 10
147.0812551038595
 20
53.63075300562529
 30
0.0
 10
146.6723770548212
 20
53.63843008230222
 30
0.0
 10
146.2710241313482
 20
53.64589693509409
 30
0.0
 10
145.8767271696234
 20
53.65316917266497
 30
0.0
 10
145.6191080174389
 20
53.65786191475275
 30
0.0
 10
145.4906510247233
 20
53.66020186320408
 30
0.0
  0
SPLINE
  5
99
330
1F
100
AcDbEntity
  8
1
 62
     4
420
    65535
100
AcDbSpline
210
0.0
220
0.0
230
1.0
 70
     8
 71
     3
 72
     9
 73
     5
 74
     0
 42
0.00000001
 43
0.00000001
 12
1.0
 22
0.0
 32
0.0
 13
1.0
 23
0.0
 33
0.0
 40
0.0
 40
0.0
 40
0.0
 40
0.0
 40
0.5029019627498895
 40
1.0
 40
1.0
 40
1.0
 40
1.0
 10
145.4906465354165
 20
53.66020393897807
 30
0.0
 10
145.6197375228195
 20
53.74165417630568
 30
0.0
 10
145.8764296754948
 20
53.90361464446976
 30
0.0
 10
146.134482899976
 20
54.06339754427514
 30
0.0
 10
146.2627606513717
 20
54.14282531015453
 30
0.0
  0
ELLIPSE
  5
9A
330
1F
100
AcDbEntity
  8
1
 62
     4
420
    65535
100
AcDbEllipse
 10
150.4807998201
 20
54.2423018263
 30
0.0
 11
0.5118434871104113
 21
-0.01081779198354837
 31
0.0
210
0.0
220
0.0
230
1.0
 40
0.3906572055
 41
4.705451965672877
 42
6.291441644254525
  0
LINE
  5
9B
330
1F
100
AcDbEntity
  8
1
 62
     4
420
    65535
100
AcDbLine
 10
145.4906510237
 20
53.2682214798
 30
0.0
 11
145.4906510237
 21
53.660201765
 31
0.0
  0
LINE
  5
9C
330
1F
100
AcDbEntity
  8
1
 62
     4
420
    65535
100
AcDbLine
 10
145.4906510237
 20
53.2682214798
 30
0.0
 11
137.2045618917
 21
53.2682214798
 31
0.0
  0
LINE
  5
9D
330
1F
100
AcDbEntity
  8
1
 62
     4
420
    65535
100
AcDbLine
 10
137.2045618917
 20
53.2682214798
 30
0.0
 11
137.2045618917
 21
56.7682214798
 31
0.0
  0
LINE
  5
9E
330
1F
100
AcDbEntity
  8
1
 62
     4
420
    65535
100
AcDbLine
 10
150.9645160332
 20
56.7682214798
 30
0.0
 11
137.2045618917
 21
56.7682214798
 31
0.0
  0
ELLIPSE
  5
9F
330
1F
100
AcDbEntity
  8
1
 62
     4
420
    65535
100
AcDbEllipse
 10
150.4807998201
 20
56.6941411334
 30
0.0
 11
-0.5118434871104113
 21
-0.01081779198354837
 31
0.0
210
0.0
220
0.0
230
1.0
 40
0.3906572055
 41
3.133336316514923
 42
3.466492454089759
  0
LINE
  5
A0
330
1F
100
AcDbEntity
  8
1
 62
     4
420
    65535
100
AcDbLine
 10
150.9926607532
 20
54.233135283
 30
0.0
 11
150.9926607532
 21
56.7033076767
 31
0.0
  0
LINE
  5
A1
330
1F
100
AcDbEntity
  8
1
 62
     4
420
    65535
100
AcDbLine
 10
146.2627603536
 20
54.1428257982
 30
0.0
 11
150.4730232361
 21
54.0424263337
 31
0.0
  0
LINE
  5
A2
330
1F
100
AcDbEntity
  8
1
 62
     4
420
    65535
100
AcDbLine
 10
145.4906510237
 20
53.2682214798
 30
0.0
 11
152.0547550505
 21
53.2682214798
 31
0.0
  0
LINE
  5
A3
330
1F
100
AcDbEntity
  8
1
 62
     4
420
    65535
100
AcDbLine
 10
152.0547550505
 20
53.5326483939
 30
0.0
 11
152.0547550505
 21
53.2682214798
 31
0.0
  0
ELLIPSE
  5
A4
330
1F
100
AcDbEntity
  8
1
 62
     4
420
    65535
100
AcDbEllipse
 10
135.2045618917
 20
57.0504213216
 30
0.0
 11
6.999999674997866
 21
-0.1222226875429441
 31
0.0
210
0.0
220
0.0
230
1.0
 40
0.0174524048
 41
4.454384467557423
 42
4.708390404765285
  0
LINE
  5
A5
330
1F
100
AcDbEntity
  8
1
 62
     4
420
    65535
100
AcDbLine
 10
135.1744388755
 20
56.7682214798
 30
0.0
 11
135.1744388755
 21
56.9287441855
 31
0.0
  0
LINE
  5
A6
330
1F
100
AcDbEntity
  8
1
 62
     4
420
    65535
100
AcDbLine
 10
137.2045618917
 20
56.7682214798
 30
0.0
 11
135.1744388755
 21
56.7682214798
 31
0.0
  0
LINE
  5
A7
330
1F
100
AcDbEntity
  8
1
 62
     4
420
    65535
100
AcDbLine
 10
137.2045618917
 20
53.2682214798
 30
0.0
 11
136.7068842318
 21
53.2682214798
 31
0.0
  0
LINE
  5
A8
330
1F
100
AcDbEntity
  8
1
 62
     4
420
    65535
100
AcDbLine
 10
136.7068842318
 20
53.5326483939
 30
0.0
 11
136.7068842318
 21
53.2682214798
 31
0.0
  0
SPLINE
  5
A9
330
1F
100
AcDbEntity
  8
1
 62
     4
420
    65535
100
AcDbSpline
210
0.0
220
0.0
230
1.0
 70
     8
 71
     3
 72
     9
 73
     5
 74
     0
 42
0.00000001
 43
0.00000001
 12
1.0
 22
0.0
 32
0.0
 13
1.0
 23
0.0
 33
0.0
 40
0.0
 40
0.0
 40
0.0
 40
0.0
 40
0.5354305995506571
 40
1.0
 40
1.0
 40
1.0
 40
1.0
 10
136.2226467934902
 20
54.02469705645414
 30
0.0
 10
136.3093976936308
 20
53.93679065438466
 30
0.0
 10
136.4714185049431
 20
53.77261176333275
 30
0.0
 10
136.6321964968945
 20
53.60876616136876
 30
0.0
 10
136.7068890322208
 20
53.53264850829808
 30
0.0
  0
ELLIPSE
  5
AA
330
1F
100
AcDbEntity
  8
1
 62
     4
420
    65535
100
AcDbEllipse
 10
135.2045618917
 20
53.8860216381
 30
0.0
 11
6.999999674997866
 21
0.1222226875429513
 31
0.0
210
0.0
220
0.0
230
1.0
 40
0.0174524048
 41
1.424533207558547
 42
1.828800839622211
  0
LINE
  5
AB
330
1F
100
AcDbEntity
  8
1
 62
     4
420
    65535
100
AcDbLine
 10
133.2045618917
 20
54.1713218949
 30
0.0
 11
133.2045618917
 21
56.7651210647
 31
0.0
  0
SPLINE
  5
AC
330
1F
100
AcDbEntity
  8
1
 62
     4
420
    65535
100
AcDbSpline
210
0.0
220
0.0
230
1.0
 70
     8
 71
     3
 72
    10
 73
     6
 74
     0
 42
0.00000001
 43
0.00000001
 12
1.0
 22
0.0
 32
0.0
 13
1.0
 23
0.0
 33
0.0
 40
0.0
 40
0.0
 40
0.0
 40
0.0
 40
0.5
 40
0.5
 40
1.0
 40
1.0
 40
1.0
 40
1.0
 10
133.2045618917045
 20
54.17132189491065
 30
0.0
 10
133.2045618917045
 20
54.11581473527019
 30
0.0
 10
133.2299745074474
 20
54.06247795365943
 30
0.0
 10
133.3096530194435
 20
53.99080467248289
 30
0.0
 10
133.3628933333089
 20
53.97177795032435
 30
0.0
 10
133.416438139836
 20
53.97295955591292
 30
0.0
  0
SPLINE
  5
AD
330
1F
100
AcDbEntity
  8
1
 62
     4
420
    65535
100
AcDbSpline
210
0.0
220
0.0
230
1.0
 70
     8
 71
     3
 72
    10
 73
     6
 74
     0
 42
0.00000001
 43
0.00000001
 12
1.0
 22
0.0
 32
0.0
 13
1.0
 23
0.0
 33
0.0
 40
0.0
 40
0.0
 40
0.0
 40
0.0
 40
0.5
 40
0.5
 40
1.0
 40
1.0
 40
1.0
 40
1.0
 10
133.416438139836
 20
56.96348340371918
 30
0.0
 10
133.3628378342617
 20
56.96466623403873
 30
0.0
 10
133.3099732998417
 20
56.94588514988344
 30
0.0
 10
133.2298261877754
 20
56.87387273880933
 30
0.0
 10
133.2045618917045
 20
56.82071580093173
 30
0.0
 10
133.2045618917045
 20
56.76512106472145
 30
0.0
  0
LINE
  5
AE
330
1F
100
AcDbEntity
  8
1
 62
     4
420
    65535
100
AcDbLine
 10
153.9173592626
 20
56.7651210647
 30
0.0
 11
150.9926607532
 21
56.7033076767
 31
0.0
  0
LINE
  5
AF
330
1F
100
AcDbEntity
  8
1
 62
     4
420
    65535
100
AcDbLine
 10
150.9645160332
 20
56.7682214798
 30
0.0
 11
151.0079586169
 21
56.7682214798
 31
0.0
  0
SPLINE
  5
B0
330
1F
100
AcDbEntity
  8
1
 62
     4
420
    65535
100
AcDbSpline
210
0.0
220
0.0
230
1.0
 70
     8
 71
     3
 72
    12
 73
     8
 74
     0
 42
0.00000001
 43
0.00000001
 12
1.0
 22
0.0
 32
0.0
 13
1.0
 23
0.0
 33
0.0
 40
0.0
 40
0.0
 40
0.0
 40
0.0
 40
0.25
 40
0.25
 40
0.5
 40
0.5
 40
1.0
 40
1.0
 40
1.0
 40
1.0
 10
151.0079586169455
 20
56.76822147981604
 30
0.0
 10
151.0225378651839
 20
56.79861663404054
 30
0.0
 10
151.0426093621865
 20
56.8201026818135
 30
0.0
 10
151.0844356744913
 20
56.8553040867883
 30
0.0
 10
151.1064202099436
 20
56.86852788482295
 30
0.0
 10
151.174094488738
 20
56.90018223267762
 30
0.0
 10
151.2198801648985
 20
56.91005378089272
 30
0.0
 10
151.2656688635985
 20
56.91076916016112
 30
0.0
  0
LINE
  5
B1
330
1F
100
AcDbEntity
  8
1
 62
     4
420
    65535
100
AcDbLine
 10
151.2656688636
 20
56.9107691602
 30
0.0
 11
153.7598416379
 21
56.9634834037
 31
0.0
  0
SPLINE
  5
B2
330
1F
100
AcDbEntity
  8
1
 62
     4
420
    65535
100
AcDbSpline
210
0.0
220
0.0
230
1.0
 70
     8
 71
     3
 72
    10
 73
     6
 74
     0
 42
0.00000001
 43
0.00000001
 12
1.0
 22
0.0
 32
0.0
 13
1.0
 23
0.0
 33
0.0
 40
0.0
 40
0.0
 40
0.0
 40
0.0
 40
0.5
 40
0.5
 40
1.0
 40
1.0
 40
1.0
 40
1.0
 10
153.7598416378738
 20
56.96348340371918
 30
0.0
 10
153.7989063045609
 20
56.96466623403873
 30
0.0
 10
153.8381021404727
 20
56.94588514988344
 30
0.0
 10
153.8981366079628
 20
56.87387273880933
 30
0.0
 10
153.9173592625935
 20
56.82071580093173
 30
0.0
 10
153.9173592625935
 20
56.76512106472145
 30
0.0
  0
LINE
  5
B3
330
1F
100
AcDbEntity
  8
1
 62
     4
420
    65535
100
AcDbLine
 10
150.9926607532
 20
54.233135283
 30
0.0
 11
153.9173592626
 21
54.1713218949
 31
0.0
  0
LINE
  5
B4
330
1F
100
AcDbEntity
  8
1
 62
     4
420
    65535
100
AcDbLine
 10
153.9173592626
 20
54.1713218949
 30
0.0
 11
153.9173592626
 21
56.7651210647
 31
0.0
  0
SPLINE
  5
B5
330
1F
100
AcDbEntity
  8
1
 62
     4
420
    65535
100
AcDbSpline
210
0.0
220
0.0
230
1.0
 70
     8
 71
     3
 72
    10
 73
     6
 74
     0
 42
0.00000001
 43
0.00000001
 12
1.0
 22
0.0
 32
0.0
 13
1.0
 23
0.0
 33
0.0
 40
0.0
 40
0.0
 40
0.0
 40
0.0
 40
0.5
 40
0.5
 40
1.0
 40
1.0
 40
1.0
 40
1.0
 10
153.9173592625935
 20
54.17132189491064
 30
0.0
 10
153.9173592625935
 20
54.11581473527019
 30
0.0
 10
153.8980259865522
 20
54.06247795365943
 30
0.0
 10
153.8383415706818
 20
53.99080467248289
 30
0.0
 10
153.7988658560643
 20
53.97177795032435
 30
0.0
 10
153.7598416378738
 20
53.97295955591291
 30
0.0
  0
LINE
  5
B6
330
1F
100
AcDbEntity
  8
1
 62
     4
420
    65535
100
AcDbLine
 10
153.7598416379
 20
53.9729595559
 30
0.0
 11
150.4730232361
 21
54.0424263337
 31
0.0
  0
SPLINE
  5
B7
330
1F
100
AcDbEntity
  8
1
 62
     4
420
    65535
100
AcDbSpline
210
0.0
220
0.0
230
1.0
 70
     8
 71
     3
 72
     9
 73
     5
 74
     0
 42
0.00000001
 43
0.00000001
 12
1.0
 22
0.0
 32
0.0
 13
1.0
 23
0.0
 33
0.0
 40
0.0
 40
0.0
 40
0.0
 40
0.0
 40
0.3178138625220661
 40
0.9999999999999999
 40
0.9999999999999999
 40
0.9999999999999999
 40
0.9999999999999999
 10
136.6082433328118
 20
53.63288444249343
 30
0.0
 10
136.5872227591865
 20
53.63591678188915
 30
0.0
 10
136.5210816114765
 20
53.64545802521833
 30
0.0
 10
136.4150872505583
 20
53.65422271401066
 30
0.0
 10
136.3427793668891
 20
53.66020186320408
 30
0.0
  0
LINE
  5
B8
330
1F
100
AcDbEntity
  8
1
 62
     4
420
    65535
100
AcDbLine
 10
136.3427816108
 20
53.660203939
 30
0.0
 11
136.0533420876
 21
54.0220408661
 31
0.0
  0
LINE
  5
B9
330
1F
100
AcDbEntity
  8
1
 62
     4
420
    65535
100
AcDbLine
 10
136.3427793666
 20
53.2682214798
 30
0.0
 11
136.3427793666
 21
53.660201765
 31
0.0
  0
LINE
  5
BA
330
1F
100
AcDbEntity
  8
1
 62
     4
420
    65535
100
AcDbLine
 10
136.3427793666
 20
53.2682214798
 30
0.0
 11
136.7068842318
 21
53.2682214798
 31
0.0
  0
SPLINE
  5
BB
330
1F
100
AcDbEntity
  8
1
 62
     4
420
    65535
100
AcDbSpline
210
0.0
220
0.0
230
1.0
 70
     8
 71
     3
 72
    12
 73
     8
 74
     0
 42
0.00000001
 43
0.00000001
 12
1.0
 22
0.0
 32
0.0
 13
1.0
 23
0.0
 33
0.0
 40
0.0
 40
0.0
 40
0.0
 40
0.0
 40
0.2499999999999991
 40
0.2499999999999991
 40
0.4999999999999982
 40
0.4999999999999982
 40
1.0
 40
1.0
 40
1.0
 40
1.0
 10
144.9999868420726
 20
56.76822147981604
 30
0.0
 10
144.9777242365113
 20
56.79861663404054
 30
0.0
 10
144.9469547613039
 20
56.82010268181349
 30
0.0
 10
144.8823386229685
 20
56.8553040867883
 30
0.0
 10
144.8481584802098
 20
56.86852788482294
 30
0.0
 10
144.7421378689109
 20
56.90018223267762
 30
0.0
 10
144.669365867073
 20
56.91005378089272
 30
0.0
 10
144.5954245086366
 20
56.91076916016112
 30
0.0
  0
LINE
  5
BC
330
1F
100
AcDbEntity
  8
1
 62
     4
420
    65535
100
AcDbLine
 10
144.5954245086
 20
56.9107691602
 30
0.0
 11
142.4314653092
 21
56.9634834037
 31
0.0
  0
ELLIPSE
  5
BD
330
1F
100
AcDbEntity
  8
1
 62
     4
420
    65535
100
AcDbEllipse
 10
143.2025816956
 20
56.6784844177
 30
0.0
 11
10.21006020055614
 21
-0.06529268040563353
 31
0.0
210
0.0
220
0.0
230
1.0
 40
0.023844417
 41
1.434103434210848
 42
1.71335333120112
  0
LINE
  5
BE
330
1F
100
AcDbEntity
  8
1
 62
     4
420
    65535
100
AcDbLine
 10
141.7535321171
 20
56.7682214798
 30
0.0
 11
141.7535321171
 21
56.9287441855
 31
0.0
  0
ELLIPSE
  5
BF
330
1F
100
AcDbEntity
  8
1
 62
     4
420
    65535
100
AcDbEllipse
 10
135.6763489133
 20
57.0504213216
 30
0.0
 11
6.999999918620688
 21
-0.04476455070275875
 31
0.0
210
0.0
220
0.0
230
1.0
 40
0.023844417
 41
5.764042316411401
 42
6.018048253619406
  0
SPLINE
  5
C0
330
1F
100
AcDbEntity
  8
1
  6
SLD-Gestrichelt
 62
   131
420
  8454143
370
     0
100
AcDbSpline
210
0.0
220
0.0
230
1.0
 70
     8
 71
     3
 72
    17
 73
    13
 74
     0
 42
0.00000001
 43
0.00000001
 12
1.0
 22
0.0
 32
0.0
 13
1.0
 23
0.0
 33
0.0
 40
0.0
 40
0.0
 40
0.0
 40
0.0
 40
0.0625130247401988
 40
0.1250078152729608
 40
0.1874982823709485
 40
0.2499983396936527
 40
0.3749788828621631
 40
0.4999945016418665
 40
0.6249396994198617
 40
0.7499950979174247
 40
0.8749600881244574
 40
0.9999999999999999
 40
0.9999999999999999
 40
0.9999999999999999
 40
0.9999999999999999
 10
146.2627603535154
 20
54.14282579278336
 30
0.0
 10
146.3773816459472
 20
54.14068037144612
 30
0.0
 10
146.6065907973235
 20
54.13639015456216
 30
0.0
 10
146.955548537065
 20
54.12979025659577
 30
0.0
 10
147.3081721094678
 20
54.12307172601287
 30
0.0
 10
147.783624763033
 20
54.11394160624662
 30
0.0
 10
148.3875678330469
 20
54.10221460491197
 30
0.0
 10
149.1269000328042
 20
54.08765336707136
 30
0.0
 10
149.8803420102203
 20
54.07261459617122
 30
0.0
 10
150.6472452725994
 20
54.0571063898407
 30
0.0
 10
151.4261813003536
 20
54.04117546299487
 30
0.0
 10
151.9553895927924
 20
54.03019095125369
 30
0.0
 10
152.2200730357935
 20
54.02469704945949
 30
0.0
  0
LINE
  5
C1
330
1F
100
AcDbEntity
  8
1
  6
SLD-Gestrichelt
 62
   131
420
  8454143
370
     0
100
AcDbLine
 10
152.220073319
 20
54.0246970565
 30
0.0
 11
152.213669753
 21
54.0056378379
 31
0.0
  0
LINE
  5
C2
330
1F
100
AcDbEntity
  8
1
  6
SLD-Gestrichelt
 62
   131
420
  8454143
370
     0
100
AcDbLine
 10
133.5917745019
 20
54.233135283
 30
0.0
 11
133.2045618917
 21
54.1713218949
 31
0.0
  0
LINE
  5
C3
330
1F
100
AcDbEntity
  8
1
  6
SLD-Gestrichelt
 62
   131
420
  8454143
370
     0
100
AcDbLine
 10
133.2045618917
 20
56.7651210647
 30
0.0
 11
133.5917745019
 21
56.7033076767
 31
0.0
  0
LINE
  5
C4
330
1F
100
AcDbEntity
  8
1
  6
SLD-Gestrichelt
 62
   131
420
  8454143
370
     0
100
AcDbLine
 10
151.0079586169
 20
56.7682214798
 30
0.0
 11
152.6797740944
 21
56.7682214798
 31
0.0
  0
LINE
  5
C5
330
1F
100
AcDbEntity
  8
1
  6
SLD-Gestrichelt
 62
   131
420
  8454143
370
     0
100
AcDbLine
 10
133.4164381398
 20
53.9729595559
 30
0.0
 11
133.8515932604
 21
54.0424263337
 31
0.0
  0
LINE
  5
C6
330
1F
100
AcDbEntity
  8
1
  6
SLD-Gestrichelt
 62
   131
420
  8454143
370
     0
100
AcDbLine
 10
133.7466517147
 20
56.9107691602
 30
0.0
 11
133.4164381398
 21
56.9634834037
 31
0.0
  0
SPLINE
  5
C7
330
1F
100
AcDbEntity
  8
1
  6
SLD-Gestrichelt
 62
   131
420
  8454143
370
     0
100
AcDbSpline
210
0.0
220
0.0
230
1.0
 70
     8
 71
     3
 72
     9
 73
     5
 74
     0
 42
0.00000001
 43
0.00000001
 12
1.0
 22
0.0
 32
0.0
 13
1.0
 23
0.0
 33
0.0
 40
0.0
 40
0.0
 40
0.0
 40
0.0
 40
0.5231861378200314
 40
1.0
 40
1.0
 40
1.0
 40
1.0
 10
136.7068842316737
 20
53.53264847106112
 30
0.0
 10
136.7388589173835
 20
53.54069504977053
 30
0.0
 10
136.7999742325619
 20
53.55607500372525
 30
0.0
 10
136.8065897336822
 20
53.57055717940208
 30
0.0
 10
136.8097440963217
 20
53.57746248151931
 30
0.0
  0
SPLINE
  5
C8
330
1F
100
AcDbEntity
  8
1
  6
SLD-Gestrichelt
 62
   131
420
  8454143
370
     0
100
AcDbSpline
210
0.0
220
0.0
230
1.0
 70
     8
 71
     3
 72
    10
 73
     6
 74
     0
 42
0.00000001
 43
0.00000001
 12
1.0
 22
0.0
 32
0.0
 13
1.0
 23
0.0
 33
0.0
 40
0.0
 40
0.0
 40
0.0
 40
0.0
 40
0.3051907456869143
 40
0.758336867438123
 40
1.0
 40
1.0
 40
1.0
 40
1.0
 10
136.8002827983229
 20
53.58663860325871
 30
0.0
 10
136.7947512371238
 20
53.59159647723711
 30
0.0
 10
136.7810064337476
 20
53.60391578467047
 30
0.0
 10
136.7151357644184
 20
53.61931897735867
 30
0.0
 10
136.635827659089
 20
53.62938378102699
 30
0.0
 10
136.6082433328118
 20
53.63288444249343
 30
0.0
  0
LINE
  5
C9
330
1F
100
AcDbEntity
  8
1
  6
SLD-Gestrichelt
 62
   131
420
  8454143
370
     0
100
AcDbLine
 10
136.0533420876
 20
54.0220408661
 30
0.0
 11
135.9567245528
 21
54.1428253102
 31
0.0
  0
SPLINE
  5
CA
330
1F
100
AcDbEntity
  8
1
  6
SLD-Gestrichelt
 62
   131
420
  8454143
370
     0
100
AcDbSpline
210
0.0
220
0.0
230
1.0
 70
     8
 71
     3
 72
    17
 73
    13
 74
     0
 42
0.00000001
 43
0.00000001
 12
1.0
 22
0.0
 32
0.0
 13
1.0
 23
0.0
 33
0.0
 40
0.0
 40
0.0
 40
0.0
 40
0.0
 40
0.0625130247376314
 40
0.1250078152695374
 40
0.1874982823683789
 40
0.249998339693645
 40
0.3749788828579139
 40
0.499994501641856
 40
0.6249396994184934
 40
0.7499950979174176
 40
0.8749600881239152
 40
0.9999999999999999
 40
0.9999999999999999
 40
0.9999999999999999
 40
0.9999999999999999
 10
135.9567239663787
 20
54.14282579278336
 30
0.0
 10
135.979116722792
 20
54.1406803714462
 30
0.0
 10
136.0238957039536
 20
54.13639015456236
 30
0.0
 10
136.0828105631327
 20
54.12979025659605
 30
0.0
 10
136.1356603345546
 20
54.12307172601308
 30
0.0
 10
136.1972486131252
 20
54.11394160624688
 30
0.0
 10
136.2579265117774
 20
54.10221460491215
 30
0.0
 10
136.3043684197107
 20
54.08765336707157
 30
0.0
 10
136.324630011778
 20
54.07261459617128
 30
0.0
 10
136.3180367923663
 20
54.05710638984077
 30
0.0
 10
136.2870180679778
 20
54.04117546299489
 30
0.0
 10
136.244108196592
 20
54.03019095125372
 30
0.0
 10
136.2226468312667
 20
54.02469704945949
 30
0.0
  0
ELLIPSE
  5
CB
330
1F
100
AcDbEntity
  8
1
  6
SLD-Gestrichelt
 62
   131
420
  8454143
370
     0
100
AcDbEllipse
 10
143.2025816956
 20
56.6784844177
 30
0.0
 11
10.21005984521275
 21
-0.1782715731706972
 31
0.0
210
0.0
220
0.0
230
1.0
 40
0.0174524048
 41
2.47589408279548
 42
2.755143979785756
  0
LINE
  5
CC
330
1F
100
AcDbEntity
  8
1
  6
SLD-Gestrichelt
 62
   131
420
  8454143
370
     0
100
AcDbLine
 10
133.5997996279
 20
56.7682214798
 30
0.0
 11
135.1744388755
 21
56.7682214798
 31
0.0
  0
SPLINE
  5
CD
330
1F
100
AcDbEntity
  8
1
  6
SLD-Gestrichelt
 62
   131
420
  8454143
370
     0
100
AcDbSpline
210
0.0
220
0.0
230
1.0
 70
     8
 71
     3
 72
    12
 73
     8
 74
     0
 42
0.00000001
 43
0.00000001
 12
1.0
 22
0.0
 32
0.0
 13
1.0
 23
0.0
 33
0.0
 40
0.0
 40
0.0
 40
0.0
 40
0.0
 40
0.25
 40
0.25
 40
0.5
 40
0.5
 40
1.0
 40
1.0
 40
1.0
 40
1.0
 10
133.5997996279189
 20
56.76822147981604
 30
0.0
 10
133.6074829852419
 20
56.79861663404054
 30
0.0
 10
133.6181809634467
 20
56.8201026818135
 30
0.0
 10
133.6409707894772
 20
56.8553040867883
 30
0.0
 10
133.6531663967837
 20
56.86852788482294
 30
0.0
 10
133.6915127292881
 20
56.90018223267762
 30
0.0
 10
133.7184990549655
 20
56.91005378089272
 30
0.0
 10
133.7466517147019
 20
56.91076916016112
 30
0.0
  0
ELLIPSE
  5
CE
330
1F
100
AcDbEntity
  8
1
  6
SLD-Gestrichelt
 62
   131
420
  8454143
370
     0
100
AcDbEllipse
 10
143.2025816956
 20
56.6784844177
 30
0.0
 11
10.21006020093142
 21
0.2434827490688889
 31
0.0
210
0.0
220
0.0
230
1.0
 40
0.0063840373
 41
0.381042012419129
 42
0.6602919094094397
  0
ELLIPSE
  5
CF
330
1F
100
AcDbEntity
  8
1
  6
SLD-Gestrichelt
 62
   131
420
  8454143
370
     0
100
AcDbEllipse
 10
158.7268342819
 20
57.0504213216
 30
0.0
 11
6.999999918878017
 21
0.1669313588939474
 31
0.0
210
0.0
220
0.0
230
1.0
 40
0.0063840373
 41
2.359532397180777
 42
2.613538334388697
  0
LINE
  5
D0
330
1F
100
AcDbEntity
  8
1
  6
SLD-Gestrichelt
 62
   131
420
  8454143
370
     0
100
AcDbLine
 10
152.6797740944
 20
56.7682214798
 30
0.0
 11
152.6797740944
 21
56.9287441855
 31
0.0
  0
ELLIPSE
  5
D1
330
1F
100
AcDbEntity
  8
1
  6
SLD-Gestrichelt
 62
   131
420
  8454143
370
     0
100
AcDbEllipse
 10
158.7268342819
 20
53.8860216381
 30
0.0
 11
6.999999918878017
 21
-0.1669313588939403
 31
0.0
210
0.0
220
0.0
230
1.0
 40
0.0063840373
 41
3.519385277936857
 42
3.923652909999733
  0
LINE
  5
D2
330
1F
100
AcDbEntity
  8
1
  6
SLD-Gestrichelt
 62
   131
420
  8454143
370
     0
100
AcDbLine
 10
135.9567247017
 20
54.1428257982
 30
0.0
 11
133.8515932604
 21
54.0424263337
 31
0.0
  0
LINE
  5
D3
330
1F
100
AcDbEntity
  8
1
  6
SLD-Gestrichelt
 62
   131
420
  8454143
370
     0
100
AcDbLine
 10
133.5917745019
 20
54.233135283
 30
0.0
 11
133.5917745019
 21
56.7033076767
 31
0.0
  0
ELLIPSE
  5
D4
330
1F
100
AcDbEntity
  8
1
  6
SLD-Gestrichelt
 62
   131
420
  8454143
370
     0
100
AcDbEllipse
 10
133.8477049684
 20
54.2423018263
 30
0.0
 11
0.2552815287506291
 21
0.02337943976903745
 31
0.0
210
0.0
220
0.0
230
1.0
 40
0.7790546877
 41
3.070365212819767
 42
4.656354891401407
  0
ELLIPSE
  5
D5
330
1F
100
AcDbEntity
  8
1
  6
SLD-Gestrichelt
 62
   131
420
  8454143
370
     0
100
AcDbEllipse
 10
133.8477049684
 20
56.6941411334
 30
0.0
 11
0.2552815287506291
 21
-0.02337943976903745
 31
0.0
210
0.0
220
0.0
230
1.0
 40
0.7790546877
 41
2.879663956784909
 42
3.212820094359765
  0
LINE
  5
D6
330
1F
100
AcDbEntity
  8
1
  6
SLD-Gestrichelt
 62
   131
420
  8454143
370
     0
100
AcDbLine
 10
151.9173592626
 20
53.2682214798
 30
0.0
 11
151.9173592626
 21
56.7682214798
 31
0.0
  0
SPLINE
  5
D7
330
1F
100
AcDbEntity
  8
1
  6
SLD-Gestrichelt
 62
   131
420
  8454143
370
     0
100
AcDbSpline
210
0.0
220
0.0
230
1.0
 70
     8
 71
     3
 72
     9
 73
     5
 74
     0
 42
0.00000001
 43
0.00000001
 12
1.0
 22
0.0
 32
0.0
 13
1.0
 23
0.0
 33
0.0
 40
0.0
 40
0.0
 40
0.0
 40
0.0
 40
0.502901962749449
 40
0.9999999999999999
 40
0.9999999999999999
 40
0.9999999999999999
 40
0.9999999999999999
 10
147.7743169407375
 20
53.66020393897807
 30
0.0
 10
147.7097714470361
 20
53.74165417630561
 30
0.0
 10
147.5814253706984
 20
53.9036146444697
 30
0.0
 10
147.4523987584578
 20
54.06339754427507
 30
0.0
 10
147.3882598827599
 20
54.14282531015452
 30
0.0
  0
SPLINE
  5
D8
330
1F
100
AcDbEntity
  8
1
  6
SLD-Gestrichelt
 62
   131
420
  8454143
370
     0
100
AcDbSpline
210
0.0
220
0.0
230
1.0
 70
     8
 71
     3
 72
    22
 73
    18
 74
     0
 42
0.00000001
 43
0.00000001
 12
1.0
 22
0.0
 32
0.0
 13
1.0
 23
0.0
 33
0.0
 40
0.0
 40
0.0
 40
0.0
 40
0.0
 40
0.0691340278751535
 40
0.1379155495727823
 40
0.20634457080575
 40
0.2744210973786638
 40
0.3421451351897449
 40
0.4095166902327929
 40
0.4765357685991632
 40
0.5432023764798215
 40
0.6095165201674401
 40
0.6754782060585587
 40
0.7410874406557908
 40
0.8063442305701064
 40
0.8712485825231584
 40
0.9358005033496924
 40
1.0
 40
1.0
 40
1.0
 40
1.0
 10
140.8461058035081
 20
53.53264847106112
 30
0.0
 10
140.9946366694319
 20
53.53597683362915
 30
0.0
 10
141.290941060077
 20
53.54261658784073
 30
0.0
 10
141.7411196860199
 20
53.55235329113387
 30
0.0
 10
142.1937740078995
 20
53.56189411904828
 30
0.0
 10
142.64918248295
 20
53.57122510957336
 30
0.0
 10
143.1069925225325
 20
53.58034997500601
 30
0.0
 10
143.5670235192683
 20
53.58926772882676
 30
0.0
 10
144.0290534576863
 20
53.59797863188432
 30
0.0
 10
144.4928755707309
 20
53.60648262054557
 30
0.0
 10
144.9582839125849
 20
53.61477969098278
 30
0.0
 10
145.425075162172
 20
53.62286992144123
 30
0.0
 10
145.8930559626291
 20
53.63075300563873
 30
0.0
 10
146.3620122943958
 20
53.6384300823133
 30
0.0
 10
146.8318240208368
 20
53.64589693510218
 30
0.0
 10
147.3020407725111
 20
53.6531691726696
 30
0.0
 10
147.6171775899481
 20
53.65786191475423
 30
0.0
 10
147.7743146953245
 20
53.66020186320409
 30
0.0
  0
LINE
  5
D9
330
1F
100
AcDbEntity
  8
1
  6
SLD-Gestrichelt
 62
   131
420
  8454143
370
     0
100
AcDbLine
 10
147.7743146966
 20
53.2682214798
 30
0.0
 11
147.7743146966
 21
53.660201765
 31
0.0
  0
LINE
  5
DA
330
1F
100
AcDbEntity
  8
1
  6
SLD-Gestrichelt
 62
   131
420
  8454143
370
     0
100
AcDbLine
 10
142.4314653092
 20
53.9729595559
 30
0.0
 11
145.2831285904
 21
54.0424263337
 31
0.0
  0
ELLIPSE
  5
DB
330
1F
100
AcDbEntity
  8
1
  6
SLD-Gestrichelt
 62
   131
420
  8454143
370
     0
100
AcDbEllipse
 10
135.6763489133
 20
53.8860216381
 30
0.0
 11
6.999999918620688
 21
0.04476455070275165
 31
0.0
210
0.0
220
0.0
230
1.0
 40
0.023844417
 41
0.2651370535607691
 42
0.6694046856244311
  0
SPLINE
  5
DC
330
1F
100
AcDbEntity
  8
1
  6
SLD-Gestrichelt
 62
   131
420
  8454143
370
     0
100
AcDbSpline
210
0.0
220
0.0
230
1.0
 70
     8
 71
     3
 72
    17
 73
    13
 74
     0
 42
0.00000001
 43
0.00000001
 12
1.0
 22
0.0
 32
0.0
 13
1.0
 23
0.0
 33
0.0
 40
0.0
 40
0.0
 40
0.0
 40
0.0
 40
0.0625130247412841
 40
0.1250078152744075
 40
0.1874982823720331
 40
0.2499983396936523
 40
0.3749788828647945
 40
0.4999945016418672
 40
0.6249396994257632
 40
0.7499950979174297
 40
0.8749600881291635
 40
1.0
 40
1.0
 40
1.0
 40
1.0
 10
147.3882607670429
 20
54.14282579278336
 30
0.0
 10
147.2512467181945
 20
54.14068037144608
 30
0.0
 10
146.9772585856521
 20
54.13639015456206
 30
0.0
 10
146.5693859867281
 20
54.12979025659565
 30
0.0
 10
146.1639126429064
 20
54.1230717260128
 30
0.0
 10
145.6268717107699
 20
54.11394160624648
 30
0.0
 10
144.9622507421073
 20
54.10221460491187
 30
0.0
 10
144.1764766344039
 20
54.08765336707102
 30
0.0
 10
143.4027730649262
 20
54.072614596171
 30
0.0
 10
142.6424630219501
 20
54.05710638984025
 30
0.0
 10
141.8945457185975
 20
54.04117546299464
 30
0.0
 10
141.4082472975439
 20
54.03019095125349
 30
0.0
 10
141.1650252198768
 20
54.02469704945949
 30
0.0
  0
LINE
  5
DD
330
1F
100
AcDbEntity
  8
1
  6
SLD-Gestrichelt
 62
   131
420
  8454143
370
     0
100
AcDbLine
 10
147.3882600316
 20
54.1428257982
 30
0.0
 11
145.2831285904
 21
54.0424263337
 31
0.0
  0
LINE
  5
DE
330
1F
100
AcDbEntity
  8
1
  6
SLD-Gestrichelt
 62
   131
420
  8454143
370
     0
100
AcDbLine
 10
140.8461058047
 20
53.5326483939
 30
0.0
 11
140.8461058047
 21
53.2682214798
 31
0.0
  0
SPLINE
  5
DF
330
1F
100
AcDbEntity
  8
1
  6
SLD-Gestrichelt
 62
   131
420
  8454143
370
     0
100
AcDbSpline
210
0.0
220
0.0
230
1.0
 70
     8
 71
     3
 72
     9
 73
     5
 74
     0
 42
0.00000001
 43
0.00000001
 12
1.0
 22
0.0
 32
0.0
 13
1.0
 23
0.0
 33
0.0
 40
0.0
 40
0.0
 40
0.0
 40
0.0
 40
0.5354305995509564
 40
1.0
 40
1.0
 40
1.0
 40
1.0
 10
141.1650249744667
 20
54.02469705645414
 30
0.0
 10
141.1098834952401
 20
53.93679065438462
 30
0.0
 10
141.0068981984101
 20
53.77261176333271
 30
0.0
 10
140.8971077662166
 20
53.60876616136871
 30
0.0
 10
140.8461024909575
 20
53.53264850829809
 30
0.0
  0
LINE
  5
E0
330
1F
100
AcDbEntity
  8
1
  6
SLD-Gestrichelt
 62
   131
420
  8454143
370
     0
100
AcDbLine
 10
140.4858239326
 20
53.2682214798
 30
0.0
 11
140.4858239326
 21
56.7682214798
 31
0.0
  0
LINE
  5
E1
330
1F
100
AcDbEntity
  8
1
  6
SLD-Gestrichelt
 62
   131
420
  8454143
370
     0
100
AcDbLine
 10
145.0233098319
 20
54.233135283
 30
0.0
 11
142.4858239326
 21
54.1713218949
 31
0.0
  0
SPLINE
  5
E2
330
1F
100
AcDbEntity
  8
1
  6
SLD-Gestrichelt
 62
   131
420
  8454143
370
     0
100
AcDbSpline
210
0.0
220
0.0
230
1.0
 70
     8
 71
     3
 72
    10
 73
     6
 74
     0
 42
0.00000001
 43
0.00000001
 12
1.0
 22
0.0
 32
0.0
 13
1.0
 23
0.0
 33
0.0
 40
0.0
 40
0.0
 40
0.0
 40
0.0
 40
0.5
 40
0.5
 40
1.0
 40
1.0
 40
1.0
 40
1.0
 10
142.485823932639
 20
54.17132189491065
 30
0.0
 10
142.485823932639
 20
54.11581473527019
 30
0.0
 10
142.4797445929375
 20
54.06247795365943
 30
0.0
 10
142.4597504968117
 20
53.99080467248289
 30
0.0
 10
142.4459858975638
 20
53.97177795032435
 30
0.0
 10
142.4314653092272
 20
53.97295955591292
 30
0.0
  0
ELLIPSE
  5
E3
330
1F
100
AcDbEntity
  8
1
  6
SLD-Gestrichelt
 62
   131
420
  8454143
370
     0
100
AcDbEllipse
 10
145.2792402984
 20
54.2423018263
 30
0.0
 11
0.2552815287506291
 21
0.02337943976903745
 31
0.0
210
0.0
220
0.0
230
1.0
 40
0.7790546877
 41
3.070365212819774
 42
4.656354891401405
  0
LINE
  5
E4
330
1F
100
AcDbEntity
  8
1
  6
SLD-Gestrichelt
 62
   131
420
  8454143
370
     0
100
AcDbLine
 10
142.4858239326
 20
56.7651210647
 30
0.0
 11
145.0233098319
 21
56.7033076767
 31
0.0
  0
SPLINE
  5
E5
330
1F
100
AcDbEntity
  8
1
  6
SLD-Gestrichelt
 62
   131
420
  8454143
370
     0
100
AcDbSpline
210
0.0
220
0.0
230
1.0
 70
     8
 71
     3
 72
    10
 73
     6
 74
     0
 42
0.00000001
 43
0.00000001
 12
1.0
 22
0.0
 32
0.0
 13
1.0
 23
0.0
 33
0.0
 40
0.0
 40
0.0
 40
0.0
 40
0.0
 40
0.5
 40
0.5
 40
1.0
 40
1.0
 40
1.0
 40
1.0
 10
142.4314653092272
 20
56.96348340371918
 30
0.0
 10
142.4460009481144
 20
56.96466623403873
 30
0.0
 10
142.4596696466226
 20
56.94588514988344
 30
0.0
 10
142.4797822911989
 20
56.87387273880933
 30
0.0
 10
142.485823932639
 20
56.82071580093173
 30
0.0
 10
142.485823932639
 20
56.76512106472145
 30
0.0
  0
ELLIPSE
  5
E6
330
1F
100
AcDbEntity
  8
1
  6
SLD-Gestrichelt
 62
   131
420
  8454143
370
     0
100
AcDbEllipse
 10
145.2792402984
 20
56.6941411334
 30
0.0
 11
0.2552815287506291
 21
-0.02337943976903034
 31
0.0
210
0.0
220
0.0
230
1.0
 40
0.7790546877
 41
2.879663956784911
 42
3.212820094359726
  0
LINE
  5
E7
330
1F
100
AcDbEntity
  8
1
  6
SLD-Gestrichelt
 62
   131
420
  8454143
370
     0
100
AcDbLine
 10
142.4858239326
 20
54.1713218949
 30
0.0
 11
142.4858239326
 21
56.7651210647
 31
0.0
  0
LINE
  5
E8
330
1F
100
AcDbEntity
  8
1
  6
SLD-Gestrichelt
 62
   131
420
  8454143
370
     0
100
AcDbLine
 10
145.0233098319
 20
54.233135283
 30
0.0
 11
145.0233098319
 21
56.7033076767
 31
0.0
  0
LINE
  5
E9
330
1F
100
AcDbEntity
  8
1
  6
SLD-Gestrichelt
 62
   131
420
  8454143
370
     0
100
AcDbLine
 10
136.8068012761
 20
53.5867526849
 30
0.0
 11
136.3160404498
 21
54.0779038004
 31
0.0
  0
LINE
  5
EA
330
1F
100
AcDbEntity
  8
1
  6
SLD-Gestrichelt
 62
   131
420
  8454143
370
     0
100
AcDbLine
 10
136.8117403412
 20
53.2682214798
 30
0.0
 11
136.8117403412
 21
53.5774624815
 31
0.0
  0
LINE
  5
EB
330
1F
100
AcDbEntity
  8
1
  6
SLD-Gestrichelt
 62
   131
420
  8454143
370
     0
100
AcDbLine
 10
140.6525816956
 20
56.7682214798
 30
0.0
 11
140.6525816956
 21
53.2682214798
 31
0.0
  0
LINE
  5
EC
330
1F
100
AcDbEntity
  8
1
  6
SLD-Gestrichelt
 62
   131
420
  8454143
370
     0
100
AcDbLine
 10
145.7525816956
 20
53.2682214798
 30
0.0
 11
145.7525816956
 21
56.7682214798
 31
0.0
  0
LINE
  5
ED
330
1F
100
AcDbEntity
  8
1
  6
SLD-Gestrichelt
 62
   131
420
  8454143
370
     0
100
AcDbLine
 10
142.4331777818
 20
53.972912151
 30
0.0
 11
145.2754894017
 21
54.0421511215
 31
0.0
  0
DIMENSION
  5
EE
330
1F
100
AcDbEntity
  8
2
 62
     7
420
 16777215
100
AcDbDimension
  2
_D_2
 10
127.1907770538
 20
53.9682214798
 30
0.0
 11
127.1907770538
 21
64.5543326733
 31
0.0
 70
   160
  1
<>
 71
     2
 42
-1.0
 73
     0
 74
     0
 75
     0
  3
SLDDIMSTYLE1
100
AcDbAlignedDimension
 13
133.2045618917
 23
56.9682214798
 33
0.0
 14
133.2045618917
 24
53.9682214798
 34
0.0
 50
90.0
100
AcDbRotatedDimension
  0
DIMENSION
  5
FA
330
1F
100
AcDbEntity
  8
2
 62
     7
420
 16777215
100
AcDbDimension
  2
_D_3
 10
133.2045618917
 20
41.2681964798
 30
0.0
 11
125.6184506982
 21
41.2681964798
 31
0.0
 70
   160
  1
<>
 71
     2
 42
-1.0
 73
     0
 74
     0
 75
     0
  3
SLDDIMSTYLE2
100
AcDbAlignedDimension
 13
136.2226467866
 23
54.0246970434
 33
0.0
 14
133.2045618917
 24
54.1713218949
 34
0.0
100
AcDbRotatedDimension
  0
ENDSEC
  0
SECTION
  2
OBJECTS
  0
DICTIONARY
  5
C
330
0
100
AcDbDictionary
281
     1
  3
ACAD_GROUP
350
D
  3
ACAD_LAYOUT
350
1A
  3
ACAD_MATERIAL
350
3B
  3
ACAD_MLEADERSTYLE
350
108
  3
ACAD_MLINESTYLE
350
17
  3
ACAD_PLOTSETTINGS
350
19
  3
ACAD_PLOTSTYLENAME
350
E
  3
ACAD_TABLESTYLE
350
107
  3
ACAD_VISUALSTYLE
350
2A
  0
DICTIONARY
  5
D
102
{ACAD_REACTORS
330
C
102
}
330
C
100
AcDbDictionary
281
     1
  0
DICTIONARY
  5
1A
102
{ACAD_REACTORS
330
C
102
}
330
C
100
AcDbDictionary
281
     1
  3
Layout1
350
1E
  3
Layout2
350
26
  3
Model
350
22
  0
DICTIONARY
  5
3B
102
{ACAD_REACTORS
330
C
102
}
330
C
100
AcDbDictionary
281
     1
  3
ByBlock
350
3D
  3
ByLayer
350
3C
  3
Global
350
3E
  0
DICTIONARY
  5
108
102
{ACAD_REACTORS
330
C
102
}
330
C
100
AcDbDictionary
281
     1
  0
DICTIONARY
  5
17
102
{ACAD_REACTORS
330
C
102
}
330
C
100
AcDbDictionary
281
     1
  3
Standard
350
18
  0
DICTIONARY
  5
19
102
{ACAD_REACTORS
330
C
102
}
330
C
100
AcDbDictionary
281
     1
  0
ACDBDICTIONARYWDFLT
  5
E
102
{ACAD_REACTORS
330
C
102
}
330
C
100
AcDbDictionary
281
     1
  3
Normal
350
F
100
AcDbDictionaryWithDefault
340
F
  0
DICTIONARY
  5
107
102
{ACAD_REACTORS
330
C
102
}
330
C
100
AcDbDictionary
281
     1
  0
DICTIONARY
  5
2A
102
{ACAD_REACTORS
330
C
102
}
330
C
100
AcDbDictionary
281
     1
  3
2dWireframe
350
2F
  3
3D Hidden
350
31
  3
3dWireframe
350
30
  3
Basic
350
32
  3
Brighten
350
36
  3
ColorChange
350
3A
  3
Conceptual
350
34
  3
Dim
350
35
  3
Facepattern
350
39
  3
Flat
350
2B
  3
FlatWithEdges
350
2C
  3
Gouraud
350
2D
  3
GouraudWithEdges
350
2E
  3
Linepattern
350
38
  3
Realistic
350
33
  3
Thicken
350
37
  0
LAYOUT
  5
1E
102
{ACAD_REACTORS
330
1A
102
}
330
1A
100
AcDbPlotSettings
  1

  2
none_device
  4

  6

 40
0.0
 41
0.0
 42
0.0
 43
0.0
 44
0.0
 45
0.0
 46
0.0
 47
0.0
 48
0.0
 49
0.0
140
0.0
141
0.0
142
1.0
143
1.0
 70
   688
 72
     0
 73
     0
 74
     5
  7

 75
    16
 76
     0
 77
     2
 78
   300
147
1.0
148
0.0
149
0.0
100
AcDbLayout
  1
Layout1
 70
     1
 71
     1
 10
0.0
 20
0.0
 11
420.0
 21
297.0
 12
0.0
 22
0.0
 32
0.0
 14
1.0000000000E+20
 24
1.0000000000E+20
 34
1.0000000000E+20
 15
-1.0000000000E+20
 25
-1.0000000000E+20
 35
-1.0000000000E+20
146
0.0
 13
0.0
 23
0.0
 33
0.0
 16
1.0
 26
0.0
 36
0.0
 17
0.0
 27
1.0
 37
0.0
 76
     0
330
1B
  0
LAYOUT
  5
26
102
{ACAD_REACTORS
330
1A
102
}
330
1A
100
AcDbPlotSettings
  1

  2
none_device
  4

  6

 40
0.0
 41
0.0
 42
0.0
 43
0.0
 44
0.0
 45
0.0
 46
0.0
 47
0.0
 48
0.0
 49
0.0
140
0.0
141
0.0
142
1.0
143
1.0
 70
   688
 72
     0
 73
     0
 74
     5
  7

 75
    16
 76
     0
 77
     2
 78
   300
147
1.0
148
0.0
149
0.0
100
AcDbLayout
  1
Layout2
 70
     1
 71
     2
 10
0.0
 20
0.0
 11
0.0
 21
0.0
 12
0.0
 22
0.0
 32
0.0
 14
0.0
 24
0.0
 34
0.0
 15
0.0
 25
0.0
 35
0.0
146
0.0
 13
0.0
 23
0.0
 33
0.0
 16
1.0
 26
0.0
 36
0.0
 17
0.0
 27
1.0
 37
0.0
 76
     0
330
23
  0
LAYOUT
  5
22
102
{ACAD_REACTORS
330
1A
102
}
330
1A
100
AcDbPlotSettings
  1

  2
none_device
  4

  6

 40
0.0
 41
0.0
 42
0.0
 43
0.0
 44
0.0
 45
0.0
 46
0.0
 47
0.0
 48
0.0
 49
0.0
140
0.0
141
0.0
142
1.0
143
1.0
 70
  1712
 72
     0
 73
     0
 74
     0
  7

 75
     0
 76
     0
 77
     2
 78
   300
147
1.0
148
0.0
149
0.0
100
AcDbLayout
  1
Model
 70
     1
 71
     0
 10
0.0
 20
0.0
 11
297.0
 21
210.0
 12
0.0
 22
0.0
 32
0.0
 14
0.0
 24
0.0
 34
0.0
 15
297.0
 25
210.0
 35
0.0
146
0.0
 13
0.0
 23
0.0
 33
0.0
 16
1.0
 26
0.0
 36
0.0
 17
0.0
 27
1.0
 37
0.0
 76
     0
330
1F
331
29
  0
MATERIAL
  5
3D
102
{ACAD_REACTORS
330
3B
102
}
330
3B
100
AcDbMaterial
  1
ByBlock
 72
     1
 94
      127
  0
MATERIAL
  5
3C
102
{ACAD_REACTORS
330
3B
102
}
330
3B
100
AcDbMaterial
  1
ByLayer
 72
     1
 94
      127
  0
MATERIAL
  5
3E
102
{ACAD_REACTORS
330
3B
102
}
330
3B
100
AcDbMaterial
  1
Global
 72
     1
 94
      127
  0
MLINESTYLE
  5
18
102
{ACAD_REACTORS
330
17
102
}
330
17
100
AcDbMlineStyle
  2
Standard
 70
     0
  3

 62
   256
 51
90.0
 52
90.0
 71
     2
 49
0.5
 62
   256
  6
BYLAYER
 49
-0.5
 62
   256
  6
BYLAYER
  0
ACDBPLACEHOLDER
  5
F
102
{ACAD_REACTORS
330
E
102
}
330
E
  0
VISUALSTYLE
  5
2F
102
{ACAD_REACTORS
330
2A
102
}
330
2A
100
AcDbVisualStyle
  2
2dWireframe
 70
     4
 71
     0
 72
     2
 73
     0
 90
        0
 40
-0.6
 41
-30.0
 62
     5
 63
     7
421
 16777215
 74
     1
 91
        4
 64
     7
 65
   257
 75
     1
175
     1
 42
1.0
 92
        0
 66
   257
 43
1.0
 76
     1
 77
     6
 78
     2
 67
     7
 79
     5
170
     0
171
     0
290
     0
174
     0
 93
        1
 44
0.0
173
     0
291
     0
 45
0.0
  0
VISUALSTYLE
  5
31
102
{ACAD_REACTORS
330
2A
102
}
330
2A
100
AcDbVisualStyle
  2
3D Hidden
 70
     6
 71
     1
 72
     2
 73
     2
 90
        0
 40
-0.6
 41
-30.0
 62
     5
 63
     7
421
 16777215
 74
     2
 91
        2
 64
     7
 65
   257
 75
     2
175
     1
 42
40.0
 92
        0
 66
   257
 43
1.0
 76
     1
 77
     6
 78
     2
 67
     7
 79
     3
170
     0
171
     0
290
     0
174
     0
 93
        1
 44
0.0
173
     0
291
     0
 45
0.0
  0
VISUALSTYLE
  5
30
102
{ACAD_REACTORS
330
2A
102
}
330
2A
100
AcDbVisualStyle
  2
3dWireframe
 70
     5
 71
     0
 72
     2
 73
     0
 90
        0
 40
-0.6
 41
-30.0
 62
     5
 63
     7
421
 16777215
 74
     1
 91
        4
 64
     7
 65
   257
 75
     1
175
     1
 42
1.0
 92
        0
 66
   257
 43
1.0
 76
     1
 77
     6
 78
     2
 67
     7
 79
     5
170
     0
171
     0
290
     0
174
     0
 93
        1
 44
0.0
173
     0
291
     0
 45
0.0
  0
VISUALSTYLE
  5
32
102
{ACAD_REACTORS
330
2A
102
}
330
2A
100
AcDbVisualStyle
  2
Basic
 70
     7
 71
     1
 72
     0
 73
     1
 90
        0
 40
-0.6
 41
-30.0
 62
     5
 63
     7
421
 16777215
 74
     0
 91
        4
 64
     7
 65
   257
 75
     1
175
     1
 42
1.0
 92
        8
 66
     7
 43
1.0
 76
     1
 77
     6
 78
     2
 67
     7
 79
     5
170
     0
171
     0
290
     0
174
     0
 93
        1
 44
0.0
173
     0
291
     1
 45
0.0
  0
VISUALSTYLE
  5
36
102
{ACAD_REACTORS
330
2A
102
}
330
2A
100
AcDbVisualStyle
  2
Brighten
 70
    12
 71
     2
 72
     2
 73
     0
 90
        0
 40
-0.6
 41
-30.0
 62
     5
 63
     7
421
 16777215
 74
     1
 91
        4
 64
     7
 65
   257
 75
     1
175
     1
 42
1.0
 92
        8
 66
     7
 43
1.0
 76
     1
 77
     6
 78
     2
 67
     7
 79
     5
170
     0
171
     0
290
     0
174
     0
 93
        1
 44
50.0
173
     0
291
     1
 45
0.0
  0
VISUALSTYLE
  5
3A
102
{ACAD_REACTORS
330
2A
102
}
330
2A
100
AcDbVisualStyle
  2
ColorChange
 70
    16
 71
     2
 72
     2
 73
     3
 90
        0
 40
-0.6
 41
-30.0
 62
     5
 63
     8
421
  8421504
 74
     1
 91
        4
 64
     7
 65
   257
 75
     1
175
     1
 42
1.0
 92
        8
 66
     8
424
  8421504
 43
1.0
 76
     1
 77
     6
 78
     2
 67
     7
 79
     5
170
     0
171
     0
290
     0
174
     0
 93
        1
 44
0.0
173
     0
291
     1
 45
0.0
  0
VISUALSTYLE
  5
34
102
{ACAD_REACTORS
330
2A
102
}
330
2A
100
AcDbVisualStyle
  2
Conceptual
 70
     9
 71
     3
 72
     2
 73
     0
 90
        0
 40
-0.6
 41
-30.0
 62
     5
 63
     7
421
 16777215
 74
     2
 91
        2
 64
     7
 65
   257
 75
     1
175
     1
 42
40.0
 92
        8
 66
     7
 43
1.0
 76
     1
 77
     6
 78
     2
 67
     7
 79
     3
170
     0
171
     0
290
     0
174
     0
 93
        1
 44
0.0
173
     0
291
     0
 45
0.0
  0
VISUALSTYLE
  5
35
102
{ACAD_REACTORS
330
2A
102
}
330
2A
100
AcDbVisualStyle
  2
Dim
 70
    11
 71
     2
 72
     2
 73
     0
 90
        0
 40
-0.6
 41
-30.0
 62
     5
 63
     7
421
 16777215
 74
     1
 91
        4
 64
     7
 65
   257
 75
     1
175
     1
 42
1.0
 92
        8
 66
     7
 43
1.0
 76
     1
 77
     6
 78
     2
 67
     7
 79
     5
170
     0
171
     0
290
     0
174
     0
 93
        1
 44
-50.0
173
     0
291
     1
 45
0.0
  0
VISUALSTYLE
  5
39
102
{ACAD_REACTORS
330
2A
102
}
330
2A
100
AcDbVisualStyle
  2
Facepattern
 70
    15
 71
     2
 72
     2
 73
     0
 90
        0
 40
-0.6
 41
-30.0
 62
     5
 63
     7
421
 16777215
 74
     1
 91
        4
 64
     7
 65
   257
 75
     1
175
     1
 42
1.0
 92
        8
 66
     7
 43
1.0
 76
     1
 77
     6
 78
     2
 67
     7
 79
     5
170
     0
171
     0
290
     0
174
     0
 93
        1
 44
0.0
173
     0
291
     1
 45
0.0
  0
VISUALSTYLE
  5
2B
102
{ACAD_REACTORS
330
2A
102
}
330
2A
100
AcDbVisualStyle
  2
Flat
 70
     0
 71
     2
 72
     1
 73
     1
 90
        2
 40
-0.6
 41
30.0
 62
     5
 63
     7
421
 16777215
 74
     0
 91
        4
 64
     7
 65
   257
 75
     1
175
     1
 42
1.0
 92
        8
 66
     7
 43
1.0
 76
     1
 77
     6
 78
     2
 67
     7
 79
     5
170
     0
171
     0
290
     0
174
     0
 93
       13
 44
0.0
173
     0
291
     1
 45
0.0
  0
VISUALSTYLE
  5
2C
102
{ACAD_REACTORS
330
2A
102
}
330
2A
100
AcDbVisualStyle
  2
FlatWithEdges
 70
     1
 71
     2
 72
     1
 73
     1
 90
        2
 40
-0.6
 41
30.0
 62
     5
 63
     7
421
 16777215
 74
     1
 91
        4
 64
     7
 65
   257
 75
     1
175
     1
 42
1.0
 92
        0
 66
   257
 43
1.0
 76
     1
 77
     6
 78
     2
 67
     7
 79
     5
170
     0
171
     0
290
     0
174
     0
 93
       13
 44
0.0
173
     0
291
     1
 45
0.0
  0
VISUALSTYLE
  5
2D
102
{ACAD_REACTORS
330
2A
102
}
330
2A
100
AcDbVisualStyle
  2
Gouraud
 70
     2
 71
     2
 72
     2
 73
     1
 90
        2
 40
-0.6
 41
30.0
 62
     5
 63
     7
421
 16777215
 74
     0
 91
        4
 64
     7
 65
   257
 75
     1
175
     1
 42
1.0
 92
        0
 66
     7
 43
1.0
 76
     1
 77
     6
 78
     2
 67
     7
 79
     5
170
     0
171
     0
290
     0
174
     0
 93
       13
 44
0.0
173
     0
291
     1
 45
0.0
  0
VISUALSTYLE
  5
2E
102
{ACAD_REACTORS
330
2A
102
}
330
2A
100
AcDbVisualStyle
  2
GouraudWithEdges
 70
     3
 71
     2
 72
     2
 73
     1
 90
        2
 40
-0.6
 41
30.0
 62
     5
 63
     7
421
 16777215
 74
     1
 91
        4
 64
     7
 65
   257
 75
     1
175
     1
 42
1.0
 92
        0
 66
   257
 43
1.0
 76
     1
 77
     6
 78
     2
 67
     7
 79
     5
170
     0
171
     0
290
     0
174
     0
 93
       13
 44
0.0
173
     0
291
     1
 45
0.0
  0
VISUALSTYLE
  5
38
102
{ACAD_REACTORS
330
2A
102
}
330
2A
100
AcDbVisualStyle
  2
Linepattern
 70
    14
 71
     2
 72
     2
 73
     0
 90
        0
 40
-0.6
 41
-30.0
 62
     5
 63
     7
421
 16777215
 74
     1
 91
        4
 64
     7
 65
   257
 75
     7
175
     7
 42
1.0
 92
        8
 66
     7
 43
1.0
 76
     1
 77
     6
 78
     2
 67
     7
 79
     5
170
     0
171
     0
290
     0
174
     0
 93
        1
 44
0.0
173
     0
291
     1
 45
0.0
  0
VISUALSTYLE
  5
33
102
{ACAD_REACTORS
330
2A
102
}
330
2A
100
AcDbVisualStyle
  2
Realistic
 70
     8
 71
     2
 72
     2
 73
     0
 90
        0
 40
-0.6
 41
-30.0
 62
     5
 63
     7
421
 16777215
 74
     1
 91
        0
 64
     7
 65
   257
 75
     1
175
     1
 42
1.0
 92
        8
 66
     8
424
  7895160
 43
1.0
 76
     1
 77
     6
 78
     2
 67
     7
 79
     5
170
     0
171
     0
290
     0
174
     0
 93
       13
 44
0.0
173
     0
291
     0
 45
0.0
  0
VISUALSTYLE
  5
37
102
{ACAD_REACTORS
330
2A
102
}
330
2A
100
AcDbVisualStyle
  2
Thicken
 70
    13
 71
     2
 72
     2
 73
     0
 90
        0
 40
-0.6
 41
-30.0
 62
     5
 63
     7
421
 16777215
 74
     1
 91
        4
 64
     7
 65
   257
 75
     1
175
     1
 42
1.0
 92
       12
 66
     7
 43
1.0
 76
     1
 77
     6
 78
     2
 67
     7
 79
     5
170
     0
171
     0
290
     0
174
     0
 93
        1
 44
0.0
173
     0
291
     1
 45
0.0
  0
ENDSEC
  0
EOF
