  0
SECTION
  2
HEADER
  9
$ACADVER
  1
AC1021
  9
$ACADMAINTVER
 70
    25
  9
$DWGCODEPAGE
  3
ANSI_1252
  9
$INSBASE
 10
0.0
 20
0.0
 30
0.0
  9
$EXTMIN
 10
0.0
 20
0.0
 30
0.0
  9
$EXTMAX
 10
297.0
 20
210.0
 30
0.0
  9
$LIMMIN
 10
0.0
 20
0.0
  9
$LIMMAX
 10
297.0
 20
210.0
  9
$ORTHOMODE
 70
     0
  9
$REGENMODE
 70
     1
  9
$FILLMODE
 70
     1
  9
$QTEXTMODE
 70
     0
  9
$MIRRTEXT
 70
     1
  9
$LTSCALE
 40
1.0
  9
$ATTMODE
 70
     1
  9
$TEXTSIZE
 40
3.5
  9
$TRACEWID
 40
1.0
  9
$TEXTSTYLE
  7
Standard
  9
$CLAYER
  8
0
  9
$CELTYPE
  6
ByLayer
  9
$CECOLOR
 62
   256
  9
$CELTSCALE
 40
1.0
  9
$DISPSILH
 70
     0
  9
$DIMSCALE
 40
1.0
  9
$DIMASZ
 40
3.302
  9
$DIMEXO
 40
1.0
  9
$DIMDLI
 40
3.75
  9
$DIMRND
 40
0.0
  9
$DIMDLE
 40
0.0
  9
$DIMEXE
 40
1.0
  9
$DIMTP
 40
0.0
  9
$DIMTM
 40
0.0
  9
$DIMTXT
 40
3.5
  9
$DIMCEN
 40
2.5
  9
$DIMTSZ
 40
0.0
  9
$DIMTOL
 70
     0
  9
$DIMLIM
 70
     0
  9
$DIMTIH
 70
     1
  9
$DIMTOH
 70
     1
  9
$DIMSE1
 70
     0
  9
$DIMSE2
 70
     0
  9
$DIMTAD
 70
     1
  9
$DIMZIN
 70
     0
  9
$DIMBLK
  1

  9
$DIMASO
 70
     1
  9
$DIMSHO
 70
     1
  9
$DIMPOST
  1

  9
$DIMAPOST
  1

  9
$DIMALT
 70
     0
  9
$DIMALTD
 70
     3
  9
$DIMALTF
 40
0.0393700787
  9
$DIMLFAC
 40
1.0
  9
$DIMTOFL
 70
     1
  9
$DIMTVP
 40
0.0
  9
$DIMTIX
 70
     0
  9
$DIMSOXD
 70
     0
  9
$DIMSAH
 70
     0
  9
$DIMBLK1
  1

  9
$DIMBLK2
  1

  9
$DIMSTYLE
  2
ISO-25
  9
$DIMCLRD
 70
     0
  9
$DIMCLRE
 70
     0
  9
$DIMCLRT
 70
     0
  9
$DIMTFAC
 40
1.0
  9
$DIMGAP
 40
1.524
  9
$DIMJUST
 70
     0
  9
$DIMSD1
 70
     0
  9
$DIMSD2
 70
     0
  9
$DIMTOLJ
 70
     0
  9
$DIMTZIN
 70
     0
  9
$DIMALTZ
 70
     0
  9
$DIMALTTZ
 70
     0
  9
$DIMUPT
 70
     0
  9
$DIMDEC
 70
     2
  9
$DIMTDEC
 70
     2
  9
$DIMALTU
 70
     2
  9
$DIMALTTD
 70
     3
  9
$DIMTXSTY
  7
Standard
  9
$DIMAUNIT
 70
     0
  9
$DIMADEC
 70
     2
  9
$DIMALTRND
 40
0.0
  9
$DIMAZIN
 70
     0
  9
$DIMDSEP
 70
    44
  9
$DIMATFIT
 70
     3
  9
$DIMFRAC
 70
     0
  9
$DIMLDRBLK
  1

  9
$DIMLUNIT
 70
     2
  9
$DIMLWD
 70
    -2
  9
$DIMLWE
 70
    -2
  9
$DIMTMOVE
 70
     0
  9
$DIMFXL
 40
1.0
  9
$DIMFXLON
 70
     0
  9
$DIMJOGANG
 40
0.7853981634
  9
$DIMTFILL
 70
     0
  9
$DIMTFILLCLR
 70
     0
  9
$DIMARCSYM
 70
     0
  9
$DIMLTYPE
  6

  9
$DIMLTEX1
  6

  9
$DIMLTEX2
  6

  9
$LUNITS
 70
     2
  9
$LUPREC
 70
     2
  9
$SKETCHINC
 40
1.0
  9
$FILLETRAD
 40
10.0
  9
$AUNITS
 70
     0
  9
$AUPREC
 70
     2
  9
$MENU
  1
.
  9
$ELEVATION
 40
0.0
  9
$PELEVATION
 40
0.0
  9
$THICKNESS
 40
0.0
  9
$LIMCHECK
 70
     0
  9
$CHAMFERA
 40
10.0
  9
$CHAMFERB
 40
10.0
  9
$CHAMFERC
 40
20.0
  9
$CHAMFERD
 40
0.0
  9
$SKPOLY
 70
     0
  9
$TDCREATE
 40
2456608.574253576
  9
$TDUCREATE
 40
2456608.53258691
  9
$TDUPDATE
 40
2456608.574254178
  9
$TDUUPDATE
 40
2456608.532587511
  9
$TDINDWG
 40
0.0000000116
  9
$TDUSRTIMER
 40
0.0000000116
  9
$USRTIMER
 70
     1
  9
$ANGBASE
 50
0.0
  9
$ANGDIR
 70
     0
  9
$PDMODE
 70
     0
  9
$PDSIZE
 40
-1.0
  9
$PLINEWID
 40
0.0
  9
$SPLFRAME
 70
     0
  9
$SPLINETYPE
 70
     6
  9
$SPLINESEGS
 70
     8
  9
$HANDSEED
  5
10E
  9
$SURFTAB1
 70
     6
  9
$SURFTAB2
 70
     6
  9
$SURFTYPE
 70
     6
  9
$SURFU
 70
     6
  9
$SURFV
 70
     6
  9
$UCSBASE
  2

  9
$UCSNAME
  2

  9
$UCSORG
 10
0.0
 20
0.0
 30
0.0
  9
$UCSXDIR
 10
1.0
 20
0.0
 30
0.0
  9
$UCSYDIR
 10
0.0
 20
1.0
 30
0.0
  9
$UCSORTHOREF
  2

  9
$UCSORTHOVIEW
 70
     0
  9
$UCSORGTOP
 10
0.0
 20
0.0
 30
0.0
  9
$UCSORGBOTTOM
 10
0.0
 20
0.0
 30
0.0
  9
$UCSORGLEFT
 10
0.0
 20
0.0
 30
0.0
  9
$UCSORGRIGHT
 10
0.0
 20
0.0
 30
0.0
  9
$UCSORGFRONT
 10
0.0
 20
0.0
 30
0.0
  9
$UCSORGBACK
 10
0.0
 20
0.0
 30
0.0
  9
$PUCSBASE
  2

  9
$PUCSNAME
  2

  9
$PUCSORG
 10
0.0
 20
0.0
 30
0.0
  9
$PUCSXDIR
 10
1.0
 20
0.0
 30
0.0
  9
$PUCSYDIR
 10
0.0
 20
1.0
 30
0.0
  9
$PUCSORTHOREF
  2

  9
$PUCSORTHOVIEW
 70
     0
  9
$PUCSORGTOP
 10
0.0
 20
0.0
 30
0.0
  9
$PUCSORGBOTTOM
 10
0.0
 20
0.0
 30
0.0
  9
$PUCSORGLEFT
 10
0.0
 20
0.0
 30
0.0
  9
$PUCSORGRIGHT
 10
0.0
 20
0.0
 30
0.0
  9
$PUCSORGFRONT
 10
0.0
 20
0.0
 30
0.0
  9
$PUCSORGBACK
 10
0.0
 20
0.0
 30
0.0
  9
$USERI1
 70
     0
  9
$USERI2
 70
     0
  9
$USERI3
 70
     0
  9
$USERI4
 70
     0
  9
$USERI5
 70
     0
  9
$USERR1
 40
0.0
  9
$USERR2
 40
0.0
  9
$USERR3
 40
0.0
  9
$USERR4
 40
0.0
  9
$USERR5
 40
0.0
  9
$WORLDVIEW
 70
     1
  9
$SHADEDGE
 70
     3
  9
$SHADEDIF
 70
    70
  9
$TILEMODE
 70
     1
  9
$MAXACTVP
 70
    64
  9
$PINSBASE
 10
0.0
 20
0.0
 30
0.0
  9
$PLIMCHECK
 70
     0
  9
$PEXTMIN
 10
1.0000000000E+20
 20
1.0000000000E+20
 30
1.0000000000E+20
  9
$PEXTMAX
 10
-1.0000000000E+20
 20
-1.0000000000E+20
 30
-1.0000000000E+20
  9
$PLIMMIN
 10
0.0
 20
0.0
  9
$PLIMMAX
 10
420.0
 20
297.0
  9
$UNITMODE
 70
     0
  9
$VISRETAIN
 70
     1
  9
$PLINEGEN
 70
     0
  9
$PSLTSCALE
 70
     1
  9
$TREEDEPTH
 70
  3020
  9
$CMLSTYLE
  2
Standard
  9
$CMLJUST
 70
     0
  9
$CMLSCALE
 40
20.0
  9
$PROXYGRAPHICS
 70
     1
  9
$MEASUREMENT
 70
     1
  9
$CELWEIGHT
370
    -1
  9
$ENDCAPS
280
     0
  9
$JOINSTYLE
280
     0
  9
$LWDISPLAY
290
     1
  9
$INSUNITS
 70
     4
  9
$HYPERLINKBASE
  1

  9
$STYLESHEET
  1

  9
$XEDIT
290
     1
  9
$CEPSNTYPE
380
     0
  9
$PSTYLEMODE
290
     1
  9
$FINGERPRINTGUID
  2
{7D433C9A-A4EF-4814-84C5-74419F4661F5}
  9
$VERSIONGUID
  2
{FAEB1C32-E019-11D5-929B-00C0DF256EC4}
  9
$EXTNAMES
290
     1
  9
$PSVPSCALE
 40
0.0
  9
$OLESTARTUP
290
     0
  9
$SORTENTS
280
   127
  9
$INDEXCTL
280
     0
  9
$HIDETEXT
280
     1
  9
$XCLIPFRAME
290
     0
  9
$HALOGAP
280
     0
  9
$OBSCOLOR
 70
   257
  9
$OBSLTYPE
280
     0
  9
$INTERSECTIONDISPLAY
280
     0
  9
$INTERSECTIONCOLOR
 70
   257
  9
$DIMASSOC
280
     2
  9
$PROJECTNAME
  1

  9
$CAMERADISPLAY
290
     0
  9
$LENSLENGTH
 40
50.0
  9
$CAMERAHEIGHT
 40
0.0
  9
$STEPSPERSEC
 40
2.0
  9
$STEPSIZE
 40
6.0
  9
$3DDWFPREC
 40
2.0
  9
$PSOLWIDTH
 40
5.0
  9
$PSOLHEIGHT
 40
80.0
  9
$LOFTANG1
 40
1.5707963268
  9
$LOFTANG2
 40
1.5707963268
  9
$LOFTMAG1
 40
0.0
  9
$LOFTMAG2
 40
0.0
  9
$LOFTPARAM
 70
     7
  9
$LOFTNORMALS
280
     1
  9
$LATITUDE
 40
37.795
  9
$LONGITUDE
 40
-122.394
  9
$NORTHDIRECTION
 40
0.0
  9
$TIMEZONE
 70
 -8000
  9
$LIGHTGLYPHDISPLAY
280
     1
  9
$TILEMODELIGHTSYNCH
280
     1
  9
$SOLIDHIST
280
     1
  9
$SHOWHIST
280
     1
  9
$DWFFRAME
280
     2
  9
$DGNFRAME
280
     2
  9
$REALWORLDSCALE
290
     1
  9
$INTERFERECOLOR
 62
   256
  9
$CSHADOW
280
     0
  9
$SHADOWPLANELOCATION
 40
0.0
  0
ENDSEC
  0
SECTION
  2
CLASSES
  0
CLASS
  1
ACDBDICTIONARYWDFLT
  2
AcDbDictionaryWithDefault
  3
ObjectDBX Classes
 90
        0
 91
        4
280
     0
281
     0
  0
CLASS
  1
VISUALSTYLE
  2
AcDbVisualStyle
  3
ObjectDBX Classes
 90
     4095
 91
        4
280
     0
281
     0
  0
CLASS
  1
MATERIAL
  2
AcDbMaterial
  3
ObjectDBX Classes
 90
     1153
 91
        4
280
     0
281
     0
  0
ENDSEC
  0
SECTION
  2
TABLES
  0
TABLE
  2
VPORT
  5
8
330
0
100
AcDbSymbolTable
 70
     1
  0
VPORT
  5
29
330
8
100
AcDbSymbolTableRecord
100
AcDbViewportTableRecord
  2
*Active
 70
     0
 10
0.0
 20
0.0
 11
1.0
 21
1.0
 12
148.5
 22
105.0
 13
0.0
 23
0.0
 14
10.0
 24
10.0
 15
10.0
 25
10.0
 16
0.0
 26
0.0
 36
1.0
 17
0.0
 27
0.0
 37
0.0
 40
210.0
 41
1.4142857143
 42
50.0
 43
0.0
 44
0.0
 50
0.0
 51
0.0
 71
     0
 72
  2000
 73
     1
 74
     3
 75
     0
 76
     0
 77
     0
 78
     0
281
     0
 65
     1
110
0.0
120
0.0
130
0.0
111
1.0
121
0.0
131
0.0
112
0.0
122
1.0
132
0.0
 79
     0
146
0.0
 60
     3
 61
     5
292
     1
282
     1
141
0.0
142
0.0
 63
   250
  0
ENDTAB
  0
TABLE
  2
LTYPE
  5
5
330
0
100
AcDbSymbolTable
 70
     8
  0
LTYPE
  5
14
330
5
100
AcDbSymbolTableRecord
100
AcDbLinetypeTableRecord
  2
ByBlock
 70
     0
  3

 72
    65
 73
     0
 40
0.0
  0
LTYPE
  5
15
330
5
100
AcDbSymbolTableRecord
100
AcDbLinetypeTableRecord
  2
ByLayer
 70
     0
  3

 72
    65
 73
     0
 40
0.0
  0
LTYPE
  5
16
330
5
100
AcDbSymbolTableRecord
100
AcDbLinetypeTableRecord
  2
Continuous
 70
     0
  3
Solid line
 72
    65
 73
     0
 40
0.0
  0
LTYPE
  5
3F
330
5
100
AcDbSymbolTableRecord
100
AcDbLinetypeTableRecord
  2
SLD-Durchgehend
 70
     0
  3
SolidWorks Line Style
 72
    65
 73
     0
 40
0.0
  0
LTYPE
  5
40
330
5
100
AcDbSymbolTableRecord
100
AcDbLinetypeTableRecord
  2
SLD-Gestrichelt
 70
     0
  3
SolidWorks Line Style
 72
    65
 73
     2
 40
1.905
 49
1.27
 74
     0
 49
-0.635
 74
     0
  0
LTYPE
  5
41
330
5
100
AcDbSymbolTableRecord
100
AcDbLinetypeTableRecord
  2
SLD-Phantom
 70
     0
  3
SolidWorks Line Style
 72
    65
 73
     6
 40
12.7
 49
6.35
 74
     0
 49
-1.27
 74
     0
 49
1.27
 74
     0
 49
-1.27
 74
     0
 49
1.27
 74
     0
 49
-1.27
 74
     0
  0
LTYPE
  5
42
330
5
100
AcDbSymbolTableRecord
100
AcDbLinetypeTableRecord
  2
SLD-Kette
 70
     0
  3
SolidWorks Line Style
 72
    65
 73
     4
 40
10.16
 49
6.35
 74
     0
 49
-1.27
 74
     0
 49
1.27
 74
     0
 49
-1.27
 74
     0
  0
LTYPE
  5
43
330
5
100
AcDbSymbolTableRecord
100
AcDbLinetypeTableRecord
  2
SLD-Punktstrich
 70
     0
  3
SolidWorks Line Style
 72
    65
 73
     4
 40
19.05
 49
15.24
 74
     0
 49
-1.27
 74
     0
 49
1.27
 74
     0
 49
-1.27
 74
     0
  0
LTYPE
  5
44
330
5
100
AcDbSymbolTableRecord
100
AcDbLinetypeTableRecord
  2
SLD-Naht
 70
     0
  3
SolidWorks Line Style
 72
    65
 73
     2
 40
0.635
 49
0.0
 74
     0
 49
-0.635
 74
     0
  0
LTYPE
  5
45
330
5
100
AcDbSymbolTableRecord
100
AcDbLinetypeTableRecord
  2
SLD-Dicke-Dünne-Kette
 70
     0
  3
SolidWorks Line Style
 72
    65
 73
     4
 40
10.16
 49
6.35
 74
     0
 49
-1.27
 74
     0
 49
1.27
 74
     0
 49
-1.27
 74
     0
  0
ENDTAB
  0
TABLE
  2
LAYER
  5
2
330
0
100
AcDbSymbolTable
 70
     3
  0
LAYER
  5
10
330
2
100
AcDbSymbolTableRecord
100
AcDbLayerTableRecord
  2
0
 70
     0
 62
     7
  6
Continuous
370
    -3
390
F
347
3E
  0
LAYER
  5
46
330
2
100
AcDbSymbolTableRecord
100
AcDbLayerTableRecord
  2
1
 70
     0
 62
     4
  6
Continuous
370
    -1
390
F
347
3E
  0
LAYER
  5
47
330
2
100
AcDbSymbolTableRecord
100
AcDbLayerTableRecord
  2
2
 70
     0
 62
     7
  6
SLD-Durchgehend
370
    -3
390
F
347
3E
  0
ENDTAB
  0
TABLE
  2
STYLE
  5
3
330
0
100
AcDbSymbolTable
 70
     2
  0
STYLE
  5
11
330
3
100
AcDbSymbolTableRecord
100
AcDbTextStyleTableRecord
  2
Standard
 70
     0
 40
0.0
 41
1.0
 50
0.0
 71
     0
 42
3.5
  3
txt
  4

  0
STYLE
  5
76
330
3
100
AcDbSymbolTableRecord
100
AcDbTextStyleTableRecord
  2
SLDTEXTSTYLE0
 70
     0
 40
0.0
 41
0.75
 50
0.0
 71
     0
 42
0.2
  3
TXT
  4

  0
ENDTAB
  0
TABLE
  2
VIEW
  5
6
330
0
100
AcDbSymbolTable
 70
     0
  0
ENDTAB
  0
TABLE
  2
UCS
  5
7
330
0
100
AcDbSymbolTable
 70
     0
  0
ENDTAB
  0
TABLE
  2
APPID
  5
9
330
0
100
AcDbSymbolTable
 70
     1
  0
APPID
  5
12
330
9
100
AcDbSymbolTableRecord
100
AcDbRegAppTableRecord
  2
ACAD
 70
     0
  0
ENDTAB
  0
TABLE
  2
DIMSTYLE
  5
A
330
0
100
AcDbSymbolTable
 70
     3
100
AcDbDimStyleTable
  0
DIMSTYLE
105
27
330
A
100
AcDbSymbolTableRecord
100
AcDbDimStyleTableRecord
  2
ISO-25
 70
     0
 41
2.5
 42
0.625
 43
3.75
 44
1.25
 73
     0
 74
     0
 77
     1
 78
     8
140
2.5
141
2.5
143
0.0393700787
147
0.625
171
     3
172
     1
178
     0
271
     2
272
     2
274
     3
278
    44
283
     0
284
     8
340
11
  0
DIMSTYLE
105
77
102
{ACAD_REACTORS
330
75
102
}
330
A
100
AcDbSymbolTableRecord
100
AcDbDimStyleTableRecord
  2
SLDDIMSTYLE0
 70
     0
 41
3.302
 44
0.0
 45
0.000000001
 73
     0
 74
     0
 77
     1
 78
    12
 79
     3
140
3.5
147
0.875
173
     1
178
     0
271
     2
272
     2
276
     2
284
    12
340
76
  0
DIMSTYLE
105
84
102
{ACAD_REACTORS
330
83
330
E8
330
F4
330
100
102
}
330
A
100
AcDbSymbolTableRecord
100
AcDbDimStyleTableRecord
  2
SLDDIMSTYLE1
 70
     0
 41
3.302
 44
0.0
 45
0.000000001
 73
     0
 74
     0
 77
     1
 78
    12
 79
     3
140
3.5
147
0.875
172
     1
173
     1
178
     0
271
     2
272
     2
276
     2
284
    12
289
     0
340
76
  0
ENDTAB
  0
TABLE
  2
BLOCK_RECORD
  5
1
330
0
100
AcDbSymbolTable
 70
     6
  0
BLOCK_RECORD
  5
1F
330
1
100
AcDbSymbolTableRecord
100
AcDbBlockTableRecord
  2
*Model_Space
340
22
 70
     0
280
     1
281
     0
  0
BLOCK_RECORD
  5
1B
330
1
100
AcDbSymbolTableRecord
100
AcDbBlockTableRecord
  2
*Paper_Space
340
1E
 70
     0
280
     1
281
     0
  0
BLOCK_RECORD
  5
23
330
1
100
AcDbSymbolTableRecord
100
AcDbBlockTableRecord
  2
*Paper_Space0
340
26
 70
     0
280
     1
281
     0
  0
BLOCK_RECORD
  5
78
330
1
100
AcDbSymbolTableRecord
100
AcDbBlockTableRecord
  2
_D
340
0
 70
     0
280
     1
281
     0
  0
BLOCK_RECORD
  5
85
330
1
100
AcDbSymbolTableRecord
100
AcDbBlockTableRecord
  2
_D_1
340
0
 70
     0
280
     1
281
     0
  0
BLOCK_RECORD
  5
E9
330
1
100
AcDbSymbolTableRecord
100
AcDbBlockTableRecord
  2
_D_2
340
0
 70
     0
280
     1
281
     0
  0
BLOCK_RECORD
  5
F5
330
1
100
AcDbSymbolTableRecord
100
AcDbBlockTableRecord
  2
_D_3
340
0
 70
     0
280
     1
281
     0
  0
BLOCK_RECORD
  5
101
330
1
100
AcDbSymbolTableRecord
100
AcDbBlockTableRecord
  2
_D_4
340
0
 70
     0
280
     1
281
     0
  0
ENDTAB
  0
ENDSEC
  0
SECTION
  2
BLOCKS
  0
BLOCK
  5
20
330
1F
100
AcDbEntity
  8
0
100
AcDbBlockBegin
  2
*Model_Space
 70
     0
 10
0.0
 20
0.0
 30
0.0
  3
*Model_Space
  1

  0
ENDBLK
  5
21
330
1F
100
AcDbEntity
  8
0
100
AcDbBlockEnd
  0
BLOCK
  5
1C
330
1B
100
AcDbEntity
 67
     1
  8
0
100
AcDbBlockBegin
  2
*Paper_Space
 70
     0
 10
0.0
 20
0.0
 30
0.0
  3
*Paper_Space
  1

  0
ENDBLK
  5
1D
330
1B
100
AcDbEntity
 67
     1
  8
0
100
AcDbBlockEnd
  0
BLOCK
  5
24
330
23
100
AcDbEntity
  8
0
100
AcDbBlockBegin
  2
*Paper_Space0
 70
     0
 10
0.0
 20
0.0
 30
0.0
  3
*Paper_Space0
  1

  0
ENDBLK
  5
25
330
23
100
AcDbEntity
  8
0
100
AcDbBlockEnd
  0
BLOCK
  5
79
330
78
100
AcDbEntity
  8
0
100
AcDbBlockBegin
  2
_D
 70
     0
 10
0.0
 20
0.0
 30
0.0
  3
_D
  1

  0
SOLID
  5
7B
330
78
100
AcDbEntity
  8
2
 62
     7
420
 16777215
100
AcDbTrace
 10
136.6025816956
 20
79.8744712947
 30
0.0
 11
139.9045816956
 21
79.3664712947
 31
0.0
 12
139.9045816956
 22
80.3824712947
 32
0.0
 13
139.9045816956
 23
80.3824712947
 33
0.0
  0
SOLID
  5
7C
330
78
100
AcDbEntity
  8
2
 62
     7
420
 16777215
100
AcDbTrace
 10
149.8025816956
 20
79.8744712947
 30
0.0
 11
146.5005816956
 21
80.3824712947
 31
0.0
 12
146.5005816956
 22
79.3664712947
 32
0.0
 13
146.5005816956
 23
79.3664712947
 33
0.0
  0
LINE
  5
7D
330
78
100
AcDbEntity
  8
2
 62
     7
420
 16777215
100
AcDbLine
 10
136.6025816956
 20
96.8467952703
 30
0.0
 11
136.6025816956
 21
78.8744712947
 31
0.0
  0
LINE
  5
7E
330
78
100
AcDbEntity
  8
2
 62
     7
420
 16777215
100
AcDbLine
 10
149.8025816956
 20
96.8467952703
 30
0.0
 11
149.8025816956
 21
78.8744712947
 31
0.0
  0
LINE
  5
7F
330
78
100
AcDbEntity
  8
2
 62
     7
420
 16777215
100
AcDbLine
 10
136.6025816956
 20
79.8744712947
 30
0.0
 11
111.9717127765
 21
79.8744712947
 31
0.0
  0
LINE
  5
80
330
78
100
AcDbEntity
  8
2
 62
     7
420
 16777215
100
AcDbLine
 10
136.6025816956
 20
79.8744712947
 30
0.0
 11
149.8025816956
 21
79.8744712947
 31
0.0
  0
MTEXT
  5
81
330
78
100
AcDbEntity
  8
2
 62
     7
420
 16777215
100
AcDbMText
 10
111.9717127765
 20
84.3862083839
 30
46.5161989144
 40
3.5
 41
0.0
 46
0.0
 71
     1
 72
     1
  1
%%c
  7
SLDTEXTSTYLE0
 73
     1
 44
1.0
  0
MTEXT
  5
82
330
78
100
AcDbEntity
  8
2
 62
     7
420
 16777215
100
AcDbMText
 10
117.2501501748
 20
84.4396805605
 30
46.5161989144
 40
3.5
 41
0.0
 46
0.0
 71
     1
 72
     1
  1
13,20
  7
SLDTEXTSTYLE0
 73
     1
 44
1.0
  0
ENDBLK
  5
7A
330
78
100
AcDbEntity
  8
0
100
AcDbBlockEnd
  0
BLOCK
  5
86
330
85
100
AcDbEntity
  8
0
100
AcDbBlockBegin
  2
_D_1
 70
     0
 10
0.0
 20
0.0
 30
0.0
  3
_D_1
  1

  0
SOLID
  5
88
330
85
100
AcDbEntity
  8
2
 62
     7
420
 16777215
100
AcDbTrace
 10
133.2045618917
 20
110.4605801082
 30
0.0
 11
129.9025618917
 21
110.9685801082
 31
0.0
 12
129.9025618917
 22
109.9525801082
 32
0.0
 13
129.9025618917
 23
109.9525801082
 33
0.0
  0
SOLID
  5
89
330
85
100
AcDbEntity
  8
2
 62
     7
420
 16777215
100
AcDbTrace
 10
143.2025816956
 20
110.4605801082
 30
0.0
 11
146.5045816956
 21
109.9525801082
 31
0.0
 12
146.5045816956
 22
110.9685801082
 32
0.0
 13
146.5045816956
 23
110.9685801082
 33
0.0
  0
LINE
  5
8A
330
85
100
AcDbEntity
  8
2
 62
     7
420
 16777215
100
AcDbLine
 10
133.2045618917
 20
105.4467952703
 30
0.0
 11
133.2045618917
 21
111.4605801082
 31
0.0
  0
LINE
  5
8B
330
85
100
AcDbEntity
  8
2
 62
     7
420
 16777215
100
AcDbLine
 10
143.2025816956
 20
98.8467952703
 30
0.0
 11
143.2025816956
 21
111.4605801082
 31
0.0
  0
LINE
  5
8C
330
85
100
AcDbEntity
  8
2
 62
     7
420
 16777215
100
AcDbLine
 10
133.2045618917
 20
110.4605801082
 30
0.0
 11
128.2045618917
 21
110.4605801082
 31
0.0
  0
LINE
  5
8D
330
85
100
AcDbEntity
  8
2
 62
     7
420
 16777215
100
AcDbLine
 10
133.2045618917
 20
110.4605801082
 30
0.0
 11
143.2025816956
 21
110.4605801082
 31
0.0
  0
LINE
  5
8E
330
85
100
AcDbEntity
  8
2
 62
     7
420
 16777215
100
AcDbLine
 10
143.2025816956
 20
110.4605801082
 30
0.0
 11
148.2025816956
 21
110.4605801082
 31
0.0
  0
MTEXT
  5
8F
330
85
100
AcDbEntity
  8
2
 62
     7
420
 16777215
100
AcDbMText
 10
134.1955855126
 20
114.9723170227
 30
46.5161989144
 40
3.5
 41
0.0
 46
0.0
 71
     1
 72
     1
  1
10
  7
SLDTEXTSTYLE0
 73
     1
 44
1.0
  0
ENDBLK
  5
87
330
85
100
AcDbEntity
  8
0
100
AcDbBlockEnd
  0
BLOCK
  5
EA
330
E9
100
AcDbEntity
  8
0
100
AcDbBlockBegin
  2
_D_2
 70
     0
 10
0.0
 20
0.0
 30
0.0
  3
_D_2
  1

  0
SOLID
  5
EC
330
E9
100
AcDbEntity
  8
2
 62
     7
420
 16777215
100
AcDbTrace
 10
127.1907770538
 20
58.5682214798
 30
0.0
 11
127.6987770538
 21
61.8702214798
 31
0.0
 12
126.6827770538
 22
61.8702214798
 32
0.0
 13
126.6827770538
 23
61.8702214798
 33
0.0
  0
SOLID
  5
ED
330
E9
100
AcDbEntity
  8
2
 62
     7
420
 16777215
100
AcDbTrace
 10
127.1907770538
 20
56.5682214798
 30
0.0
 11
126.6827770538
 21
53.2662214798
 31
0.0
 12
127.6987770538
 22
53.2662214798
 32
0.0
 13
127.6987770538
 23
53.2662214798
 33
0.0
  0
LINE
  5
EE
330
E9
100
AcDbEntity
  8
2
 62
     7
420
 16777215
100
AcDbLine
 10
132.2045618917
 20
58.5682214798
 30
0.0
 11
126.1907770538
 21
58.5682214798
 31
0.0
  0
LINE
  5
EF
330
E9
100
AcDbEntity
  8
2
 62
     7
420
 16777215
100
AcDbLine
 10
132.2045618917
 20
56.5682214798
 30
0.0
 11
126.1907770538
 21
56.5682214798
 31
0.0
  0
LINE
  5
F0
330
E9
100
AcDbEntity
  8
2
 62
     7
420
 16777215
100
AcDbLine
 10
127.1907770538
 20
58.5682214798
 30
0.0
 11
127.1907770538
 21
63.5682214798
 31
0.0
  0
LINE
  5
F1
330
E9
100
AcDbEntity
  8
2
 62
     7
420
 16777215
100
AcDbLine
 10
127.1907770538
 20
58.5682214798
 30
0.0
 11
127.1907770538
 21
56.5682214798
 31
0.0
  0
LINE
  5
F2
330
E9
100
AcDbEntity
  8
2
 62
     7
420
 16777215
100
AcDbLine
 10
127.1907770538
 20
56.5682214798
 30
0.0
 11
127.1907770538
 21
46.2671797184
 31
0.0
  0
MTEXT
  5
F3
330
E9
100
AcDbEntity
  8
2
 62
     7
420
 16777215
100
AcDbMText
 10
122.6790401393
 20
46.2671797184
 30
9.2792695689
 40
3.5
 41
0.0
 46
0.0
 71
     1
 72
     1
  1
2
  7
SLDTEXTSTYLE0
 11
-7.044195017643634E-15
 21
1.0
 31
0.0
 73
     1
 44
1.0
  0
ENDBLK
  5
EB
330
E9
100
AcDbEntity
  8
0
100
AcDbBlockEnd
  0
BLOCK
  5
F6
330
F5
100
AcDbEntity
  8
0
100
AcDbBlockBegin
  2
_D_3
 70
     0
 10
0.0
 20
0.0
 30
0.0
  3
_D_3
  1

  0
SOLID
  5
F8
330
F5
100
AcDbEntity
  8
2
 62
     7
420
 16777215
100
AcDbTrace
 10
136.2241561633
 20
38.5619680048
 30
0.0
 11
139.5261561633
 21
38.0539680048
 31
0.0
 12
139.5261561633
 22
39.0699680048
 32
0.0
 13
139.5261561633
 23
39.0699680048
 33
0.0
  0
SOLID
  5
F9
330
F5
100
AcDbEntity
  8
2
 62
     7
420
 16777215
100
AcDbTrace
 10
133.2045618917
 20
38.5619680048
 30
0.0
 11
129.9025618917
 21
39.0699680048
 31
0.0
 12
129.9025618917
 22
38.0539680048
 32
0.0
 13
129.9025618917
 23
38.0539680048
 33
0.0
  0
LINE
  5
FA
330
F5
100
AcDbEntity
  8
2
 62
     7
420
 16777215
100
AcDbLine
 10
136.2241561633
 20
57.5117234465
 30
0.0
 11
136.2241561633
 21
37.5619680048
 31
0.0
  0
LINE
  5
FB
330
F5
100
AcDbEntity
  8
2
 62
     7
420
 16777215
100
AcDbLine
 10
133.2045618917
 20
57.5682214798
 30
0.0
 11
133.2045618917
 21
37.5619680048
 31
0.0
  0
LINE
  5
FC
330
F5
100
AcDbEntity
  8
2
 62
     7
420
 16777215
100
AcDbLine
 10
136.2241561633
 20
38.5619680048
 30
0.0
 11
141.2241561633
 21
38.5619680048
 31
0.0
  0
LINE
  5
FD
330
F5
100
AcDbEntity
  8
2
 62
     7
420
 16777215
100
AcDbLine
 10
136.2241561633
 20
38.5619680048
 30
0.0
 11
133.2045618917
 21
38.5619680048
 31
0.0
  0
LINE
  5
FE
330
F5
100
AcDbEntity
  8
2
 62
     7
420
 16777215
100
AcDbLine
 10
133.2045618917
 20
38.5619680048
 30
0.0
 11
116.4382422629
 21
38.5619680048
 31
0.0
  0
MTEXT
  5
FF
330
F5
100
AcDbEntity
  8
2
 62
     7
420
 16777215
100
AcDbMText
 10
116.4382422629
 20
43.0737049193
 30
9.2792695689
 40
3.5
 41
0.0
 46
0.0
 71
     1
 72
     1
  1
3,02
  7
SLDTEXTSTYLE0
 73
     1
 44
1.0
  0
ENDBLK
  5
F7
330
F5
100
AcDbEntity
  8
0
100
AcDbBlockEnd
  0
BLOCK
  5
102
330
101
100
AcDbEntity
  8
0
100
AcDbBlockBegin
  2
_D_4
 70
     0
 10
0.0
 20
0.0
 30
0.0
  3
_D_4
  1

  0
SOLID
  5
104
330
101
100
AcDbEntity
  8
2
 62
     7
420
 16777215
100
AcDbTrace
 10
159.9311441005
 20
56.5682214798
 30
0.0
 11
159.4231441005
 21
53.2662214798
 31
0.0
 12
160.4391441005
 22
53.2662214798
 32
0.0
 13
160.4391441005
 23
53.2662214798
 33
0.0
  0
SOLID
  5
105
330
101
100
AcDbEntity
  8
2
 62
     7
420
 16777215
100
AcDbTrace
 10
159.9311441005
 20
59.2682214798
 30
0.0
 11
160.4391441005
 21
62.5702214798
 31
0.0
 12
159.4231441005
 22
62.5702214798
 32
0.0
 13
159.4231441005
 23
62.5702214798
 33
0.0
  0
LINE
  5
106
330
101
100
AcDbEntity
  8
2
 62
     7
420
 16777215
100
AcDbLine
 10
134.2045618917
 20
56.5682214798
 30
0.0
 11
160.9311441005
 21
56.5682214798
 31
0.0
  0
LINE
  5
107
330
101
100
AcDbEntity
  8
2
 62
     7
420
 16777215
100
AcDbLine
 10
137.3427793666
 20
59.2682214798
 30
0.0
 11
160.9311441005
 21
59.2682214798
 31
0.0
  0
LINE
  5
108
330
101
100
AcDbEntity
  8
2
 62
     7
420
 16777215
100
AcDbLine
 10
159.9311441005
 20
56.5682214798
 30
0.0
 11
159.9311441005
 21
51.5682214798
 31
0.0
  0
LINE
  5
109
330
101
100
AcDbEntity
  8
2
 62
     7
420
 16777215
100
AcDbLine
 10
159.9311441005
 20
56.5682214798
 30
0.0
 11
159.9311441005
 21
59.2682214798
 31
0.0
  0
LINE
  5
10A
330
101
100
AcDbEntity
  8
2
 62
     7
420
 16777215
100
AcDbLine
 10
159.9311441005
 20
59.2682214798
 30
0.0
 11
159.9311441005
 21
76.0345411086
 31
0.0
  0
MTEXT
  5
10B
330
101
100
AcDbEntity
  8
2
 62
     7
420
 16777215
100
AcDbMText
 10
155.4194071859
 20
64.1394023383
 30
9.2792695689
 40
3.5
 41
0.0
 46
0.0
 71
     1
 72
     1
  1
2,70
  7
SLDTEXTSTYLE0
 11
6.123233995736766E-17
 21
1.0
 31
0.0
 73
     1
 44
1.0
  0
ENDBLK
  5
103
330
101
100
AcDbEntity
  8
0
100
AcDbBlockEnd
  0
ENDSEC
  0
SECTION
  2
ENTITIES
  0
CIRCLE
  5
48
330
1F
100
AcDbEntity
  8
0
  6
SLD-Punktstrich
 62
     7
100
AcDbCircle
 10
143.2025816956
 20
97.8467952703
 30
0.0
 40
6.59999999999998
  0
CIRCLE
  5
49
330
1F
100
AcDbEntity
  8
0
  6
SLD-Punktstrich
 62
     7
100
AcDbCircle
 10
143.2025816956
 20
97.8467952703
 30
0.0
 40
11.97999999999997
  0
POINT
  5
4A
330
1F
100
AcDbEntity
  8
1
 62
     4
420
    65535
100
AcDbPoint
 10
143.2025816956
 20
97.8467952703
 30
0.0
  0
POINT
  5
4B
330
1F
100
AcDbEntity
  8
1
 62
     4
420
    65535
100
AcDbPoint
 10
143.2025816956
 20
97.8467952703
 30
0.0
  0
POINT
  5
4C
330
1F
100
AcDbEntity
  8
1
 62
     4
420
    65535
100
AcDbPoint
 10
143.2025816956
 20
97.8467952703
 30
0.0
  0
ELLIPSE
  5
4D
330
1F
100
AcDbEntity
  8
1
 62
     4
420
    65535
100
AcDbEllipse
 10
142.2381865651
 20
85.9520751229
 30
0.0
 11
-8.211703454873033
 21
-6.187962396662686
 31
0.0
210
0.0
220
0.0
230
1.0
 40
0.0194511532
 41
1.899113247960307
 42
1.903952464369709
  0
LINE
  5
4E
330
1F
100
AcDbEntity
  8
1
 62
     4
420
    65535
100
AcDbLine
 10
145.0373821918
 20
87.8247629515
 30
0.0
 11
145.0233098319
 21
87.800388909
 31
0.0
  0
LINE
  5
4F
330
1F
100
AcDbEntity
  8
1
 62
     4
420
    65535
100
AcDbLine
 10
145.0233098319
 20
87.800388909
 30
0.0
 11
142.4858239326
 21
85.8882561325
 31
0.0
  0
SPLINE
  5
50
330
1F
100
AcDbEntity
  8
1
 62
     4
420
    65535
100
AcDbSpline
210
0.0
220
0.0
230
1.0
 70
     8
 71
     3
 72
    10
 73
     6
 74
     0
 42
0.00000001
 43
0.00000001
 12
1.0
 22
0.0
 32
0.0
 13
1.0
 23
0.0
 33
0.0
 40
0.0
 40
0.0
 40
0.0
 40
0.0
 40
0.5
 40
0.5
 40
1.0
 40
1.0
 40
1.0
 40
1.0
 10
142.4858239326391
 20
85.88825613254781
 30
0.0
 10
142.4858239326391
 20
85.88825613254781
 30
0.0
 10
142.4797445929375
 20
85.91409018521453
 30
0.0
 10
142.4597504968117
 20
85.99455140913335
 30
0.0
 10
142.4459858975638
 20
86.0480810331361
 30
0.0
 10
142.4314653092272
 20
86.10152578447546
 30
0.0
  0
LINE
  5
51
330
1F
100
AcDbEntity
  8
1
 62
     4
420
    65535
100
AcDbLine
 10
142.4314653092
 20
86.1015257845
 30
0.0
 11
144.5954245086
 21
87.7321860034
 31
0.0
  0
SPLINE
  5
52
330
1F
100
AcDbEntity
  8
1
 62
     4
420
    65535
100
AcDbSpline
210
0.0
220
0.0
230
1.0
 70
     8
 71
     3
 72
    12
 73
     8
 74
     0
 42
0.00000001
 43
0.00000001
 12
1.0
 22
0.0
 32
0.0
 13
1.0
 23
0.0
 33
0.0
 40
0.0
 40
0.0
 40
0.0
 40
0.0
 40
0.5000000000000056
 40
0.5000000000000056
 40
0.7500000000000028
 40
0.7500000000000028
 40
1.0
 40
1.0
 40
1.0
 40
1.0
 10
144.5954245086367
 20
87.73218600344764
 30
0.0
 10
144.6694503685864
 20
87.74237981165972
 30
0.0
 10
144.7417229308394
 20
87.7531621113959
 30
0.0
 10
144.8470309312696
 20
87.76997126540373
 30
0.0
 10
144.8819138119415
 20
87.7757349371693
 30
0.0
 10
144.9467362527221
 20
87.78675861671812
 30
0.0
 10
144.9777424674766
 20
87.79221190775813
 30
0.0
 10
144.9999868420727
 20
87.79618999189043
 30
0.0
  0
ELLIPSE
  5
53
330
1F
100
AcDbEntity
  8
1
 62
     4
420
    65535
100
AcDbEllipse
 10
153.9859090795
 20
102.9589646616
 30
0.0
 11
9.464784360609229
 21
-4.017562601933079
 31
0.0
210
0.0
220
0.0
230
1.0
 40
0.0194511532
 41
1.899113247960162
 42
1.903952464369706
  0
LINE
  5
54
330
1F
100
AcDbEntity
  8
1
 62
     4
420
    65535
100
AcDbLine
 10
150.9645160332
 20
104.4467952703
 30
0.0
 11
150.9926607532
 21
104.4467952703
 31
0.0
  0
LINE
  5
55
330
1F
100
AcDbEntity
  8
1
 62
     4
420
    65535
100
AcDbLine
 10
150.9926607532
 20
104.4467952703
 30
0.0
 11
153.9173592626
 21
103.2053344081
 31
0.0
  0
LINE
  5
56
330
1F
100
AcDbEntity
  8
1
 62
     4
420
    65535
100
AcDbLine
 10
153.7598416379
 20
103.0516236333
 30
0.0
 11
151.2656688636
 21
104.1103371633
 31
0.0
  0
SPLINE
  5
57
330
1F
100
AcDbEntity
  8
1
 62
     4
420
    65535
100
AcDbSpline
210
0.0
220
0.0
230
1.0
 70
     8
 71
     3
 72
    12
 73
     8
 74
     0
 42
0.00000001
 43
0.00000001
 12
1.0
 22
0.0
 32
0.0
 13
1.0
 23
0.0
 33
0.0
 40
0.0
 40
0.0
 40
0.0
 40
0.0
 40
0.499999999999993
 40
0.499999999999993
 40
0.7499999999999964
 40
0.7499999999999964
 40
1.0
 40
1.0
 40
1.0
 40
1.0
 10
151.2656688635985
 20
104.1103371632561
 30
0.0
 10
151.2198278367507
 20
104.1693485344036
 30
0.0
 10
151.1743538101414
 20
104.2265472594432
 30
0.0
 10
151.1071426555394
 20
104.3093420860336
 30
0.0
 10
151.0847097290353
 20
104.3366697109699
 30
0.0
 10
151.0427517221126
 20
104.3872957516468
 30
0.0
 10
151.0225259261606
 20
104.4114212757792
 30
0.0
 10
151.0079586169455
 20
104.4286964272046
 30
0.0
  0
SPLINE
  5
58
330
1F
100
AcDbEntity
  8
1
 62
     4
420
    65535
100
AcDbSpline
210
0.0
220
0.0
230
1.0
 70
     8
 71
     3
 72
    10
 73
     6
 74
     0
 42
0.00000001
 43
0.00000001
 12
1.0
 22
0.0
 32
0.0
 13
1.0
 23
0.0
 33
0.0
 40
0.0
 40
0.0
 40
0.0
 40
0.0
 40
0.5
 40
0.5
 40
1.0
 40
1.0
 40
1.0
 40
1.0
 10
153.9173592625935
 20
103.2053344080538
 30
0.0
 10
153.9173592625935
 20
103.2053344080538
 30
0.0
 10
153.8980259865522
 20
103.1871525191007
 30
0.0
 10
153.8383415706818
 20
103.1296065119707
 30
0.0
 10
153.7988658560643
 20
103.0909212073477
 30
0.0
 10
153.7598416378738
 20
103.0516236333006
 30
0.0
  0
ELLIPSE
  5
59
330
1F
100
AcDbEntity
  8
1
 62
     4
420
    65535
100
AcDbEllipse
 10
133.3836494424
 20
104.6293460264
 30
0.0
 11
-1.253080905736169
 21
10.20552499859581
 31
0.0
210
0.0
220
0.0
230
1.0
 40
0.0194511532
 41
1.89911324796024
 42
1.90395246436975
  0
LINE
  5
5A
330
1F
100
AcDbEntity
  8
1
 62
     4
420
    65535
100
AcDbLine
 10
133.6058468619
 20
101.2688275891
 30
0.0
 11
133.5917745019
 21
101.2932016316
 31
0.0
  0
LINE
  5
5B
330
1F
100
AcDbEntity
  8
1
 62
     4
420
    65535
100
AcDbLine
 10
133.5917745019
 20
101.2932016316
 30
0.0
 11
133.2045618917
 21
104.4467952703
 31
0.0
  0
SPLINE
  5
5C
330
1F
100
AcDbEntity
  8
1
 62
     4
420
    65535
100
AcDbSpline
210
0.0
220
0.0
230
1.0
 70
     8
 71
     3
 72
    10
 73
     6
 74
     0
 42
0.00000001
 43
0.00000001
 12
1.0
 22
0.0
 32
0.0
 13
1.0
 23
0.0
 33
0.0
 40
0.0
 40
0.0
 40
0.0
 40
0.0
 40
0.5
 40
0.5
 40
1.0
 40
1.0
 40
1.0
 40
1.0
 10
133.2045618917045
 20
104.4467952703008
 30
0.0
 10
133.2045618917045
 20
104.4467952703008
 30
0.0
 10
133.2299745074474
 20
104.4391431065872
 30
0.0
 10
133.3096530194435
 20
104.4162278897984
 30
0.0
 10
133.3628933333089
 20
104.4013835704186
 30
0.0
 10
133.4164381398361
 20
104.3872363931263
 30
0.0
  0
LINE
  5
5D
330
1F
100
AcDbEntity
  8
1
 62
     4
420
    65535
100
AcDbLine
 10
133.4164381398
 20
104.3872363931
 30
0.0
 11
133.7466517147
 21
101.6978626442
 31
0.0
  0
SPLINE
  5
5E
330
1F
100
AcDbEntity
  8
1
 62
     4
420
    65535
100
AcDbSpline
210
0.0
220
0.0
230
1.0
 70
     8
 71
     3
 72
    12
 73
     8
 74
     0
 42
0.00000001
 43
0.00000001
 12
1.0
 22
0.0
 32
0.0
 13
1.0
 23
0.0
 33
0.0
 40
0.0
 40
0.0
 40
0.0
 40
0.0
 40
0.5
 40
0.5
 40
0.75
 40
0.75
 40
1.0
 40
1.0
 40
1.0
 40
1.0
 10
133.7466517147019
 20
101.6978626441987
 30
0.0
 10
133.7184668816
 20
101.6286574648391
 30
0.0
 10
133.6916683459563
 20
101.5606764400634
 30
0.0
 10
133.6535715001281
 20
101.4610724594651
 30
0.0
 10
133.6411215459601
 20
101.4279811627632
 30
0.0
 10
133.6182571121023
 20
101.3663314425375
 30
0.0
 10
133.6074766933
 20
101.336752627365
 30
0.0
 10
133.5997996279189
 20
101.3154993918074
 30
0.0
  0
ARC
  5
5F
330
1F
100
AcDbEntity
  8
1
 62
     4
420
    65535
100
AcDbCircle
 10
143.2025816956
 20
97.8467952703
 30
0.0
 40
10.21006031925437
100
AcDbArc
 50
261.8408219695
 51
277.8406624965
  0
ARC
  5
60
330
1F
100
AcDbEntity
  8
1
 62
     4
420
    65535
100
AcDbCircle
 10
135.6763489133
 20
84.2662049739
 30
0.0
 40
6.999999999999988
100
AcDbArc
 50
15.1999708235
 51
29.7534389968
  0
ARC
  5
61
330
1F
100
AcDbEntity
  8
1
 62
     4
420
    65535
100
AcDbCircle
 10
143.2025816956
 20
97.8467952703
 30
0.0
 40
10.21006031925435
100
AcDbArc
 50
21.8408219695
 51
37.8406624965
  0
ARC
  5
62
330
1F
100
AcDbEntity
  8
1
 62
     4
420
    65535
100
AcDbCircle
 10
158.7268342819
 20
98.1191816342
 30
0.0
 40
7.000000000000016
100
AcDbArc
 50
135.1999708235
 51
149.7534389968
  0
ARC
  5
63
330
1F
100
AcDbEntity
  8
1
 62
     4
420
    65535
100
AcDbCircle
 10
143.2025816956
 20
97.8467952703
 30
0.0
 40
10.21006031925434
100
AcDbArc
 50
141.8408219695
 51
157.8406624965
  0
ARC
  5
64
330
1F
100
AcDbEntity
  8
1
 62
     4
420
    65535
100
AcDbCircle
 10
135.2045618917
 20
111.1549992028
 30
0.0
 40
6.999999999999992
100
AcDbArc
 50
255.1999708235
 51
269.7534389968
  0
LINE
  5
65
330
1F
100
AcDbEntity
  8
1
 62
     4
420
    65535
100
AcDbLine
 10
145.0373821918
 20
87.8247629515
 30
0.0
 11
151.9173592626
 21
99.7412327929
 31
0.0
  0
CIRCLE
  5
66
330
1F
100
AcDbEntity
  8
1
 62
     4
420
    65535
100
AcDbCircle
 10
143.2025816956
 20
97.8467952703
 30
0.0
 40
2.549999999999983
  0
LINE
  5
67
330
1F
100
AcDbEntity
  8
1
 62
     4
420
    65535
100
AcDbLine
 10
150.9645160332
 20
104.4467952703
 30
0.0
 11
137.2045618917
 21
104.4467952703
 31
0.0
  0
LINE
  5
68
330
1F
100
AcDbEntity
  8
1
 62
     4
420
    65535
100
AcDbLine
 10
133.6058468619
 20
101.2688275891
 30
0.0
 11
140.4858239326
 21
89.3523577477
 31
0.0
  0
ARC
  5
69
330
1F
100
AcDbEntity
  8
1
 62
     4
420
    65535
100
AcDbCircle
 10
135.6763489133
 20
84.2662049739
 30
0.0
 40
7.000000000000046
100
AcDbArc
 50
29.7534389968
 51
46.601549599
  0
ARC
  5
6A
330
1F
100
AcDbEntity
  8
1
 62
     4
420
    65535
100
AcDbCircle
 10
135.2045618917
 20
111.1549992028
 30
0.0
 40
6.99999999999999
100
AcDbArc
 50
269.7534389968
 51
286.601549599
  0
ARC
  5
6B
330
1F
100
AcDbEntity
  8
1
 62
     4
420
    65535
100
AcDbCircle
 10
158.7268342819
 20
98.1191816342
 30
0.0
 40
7.000000000000022
100
AcDbArc
 50
149.7534389968
 51
166.601549599
  0
LINE
  5
6C
330
1F
100
AcDbEntity
  8
1
  6
SLD-Gestrichelt
 62
   131
420
  8454143
370
     0
100
AcDbLine
 10
133.8515932604
 20
100.8431823411
 30
0.0
 11
133.4164381398
 21
104.3872363931
 31
0.0
  0
LINE
  5
6D
330
1F
100
AcDbEntity
  8
1
  6
SLD-Gestrichelt
 62
   131
420
  8454143
370
     0
100
AcDbLine
 10
145.2831285904
 20
88.2504081995
 30
0.0
 11
142.4314653092
 21
86.1015257845
 31
0.0
  0
LINE
  5
6E
330
1F
100
AcDbEntity
  8
1
  6
SLD-Gestrichelt
 62
   131
420
  8454143
370
     0
100
AcDbLine
 10
150.4730232361
 20
104.4467952703
 30
0.0
 11
153.7598416379
 21
103.0516236333
 31
0.0
  0
SPLINE
  5
6F
330
1F
100
AcDbEntity
  8
1
  6
SLD-Gestrichelt
 62
   131
420
  8454143
370
     0
100
AcDbSpline
210
0.0
220
0.0
230
1.0
 70
     8
 71
     3
 72
    17
 73
    13
 74
     0
 42
0.00000001
 43
0.00000001
 12
1.0
 22
0.0
 32
0.0
 13
1.0
 23
0.0
 33
0.0
 40
0.0
 40
0.0
 40
0.0
 40
0.0
 40
0.0625088569507262
 40
0.1250044973359195
 40
0.1875008459220449
 40
0.2500118270022957
 40
0.3749894267425555
 40
0.5000124217492029
 40
0.6249502689848906
 40
0.7500085820053707
 40
0.8749567663161912
 40
1.0
 40
1.0
 40
1.0
 40
1.0
 10
152.2195106483507
 20
100.6988605794372
 30
0.0
 10
152.0869301320047
 20
100.7623229150303
 30
0.0
 10
151.8217971314856
 20
100.889234168052
 30
0.0
 10
151.427766218566
 20
101.0870940936032
 30
0.0
 10
151.0365197568609
 20
101.2903951908713
 30
0.0
 10
150.5190742461741
 20
101.569342173083
 30
0.0
 10
149.8800581027716
 20
101.932453597985
 30
0.0
 10
149.1267878548011
 20
102.3908515830777
 30
0.0
 10
148.3872909089928
 20
102.871549385085
 30
0.0
 10
147.6629579556816
 20
103.3744393561413
 30
0.0
 10
146.9525479076135
 20
103.8974078709745
 30
0.0
 10
146.4926203188608
 20
104.2636202882277
 30
0.0
 10
146.2625690898251
 20
104.4467961157656
 30
0.0
  0
SPLINE
  5
70
330
1F
100
AcDbEntity
  8
1
  6
SLD-Gestrichelt
 62
   131
420
  8454143
370
     0
100
AcDbSpline
210
0.0
220
0.0
230
1.0
 70
     8
 71
     3
 72
    17
 73
    13
 74
     0
 42
0.00000001
 43
0.00000001
 12
1.0
 22
0.0
 32
0.0
 13
1.0
 23
0.0
 33
0.0
 40
0.0
 40
0.0
 40
0.0
 40
0.0
 40
0.0625088569528308
 40
0.1250044973387255
 40
0.1875008459241496
 40
0.2500118270022986
 40
0.3749894267433895
 40
0.5000124217492012
 40
0.62495026898156
 40
0.750008582005369
 40
0.8749567663148227
 40
1.0
 40
1.0
 40
1.0
 40
1.0
 10
136.2241562083288
 20
104.2296521528946
 30
0.0
 10
136.2354864716951
 20
104.0831028898907
 30
0.0
 10
136.2581446028123
 20
103.790035349542
 30
0.0
 10
136.2838083373543
 20
103.3498646062968
 30
0.0
 10
136.3033676533552
 20
102.9093846826902
 30
0.0
 10
136.3205152357928
 20
102.32179023426
 30
0.0
 10
136.3255595891232
 20
101.586830308199
 30
0.0
 10
136.3052104129767
 20
100.705280145003
 30
0.0
 10
136.2586623777993
 20
99.82450810291033
 30
0.0
 10
136.185313364212
 20
98.9457723790197
 30
0.0
 10
136.087614369021
 20
98.06905497286446
 30
0.0
 10
136.0004289068745
 20
97.48763978847674
 30
0.0
 10
135.9568196013847
 20
97.19682166618799
 30
0.0
  0
SPLINE
  5
71
330
1F
100
AcDbEntity
  8
1
  6
SLD-Gestrichelt
 62
   131
420
  8454143
370
     0
100
AcDbSpline
210
0.0
220
0.0
230
1.0
 70
     8
 71
     3
 72
    17
 73
    13
 74
     0
 42
0.00000001
 43
0.00000001
 12
1.0
 22
0.0
 32
0.0
 13
1.0
 23
0.0
 33
0.0
 40
0.0
 40
0.0
 40
0.0
 40
0.0
 40
0.0625088569490046
 40
0.1250044973336243
 40
0.1875008459203233
 40
0.2500118270022945
 40
0.3749894267408606
 40
0.5000124217492039
 40
0.624950268988284
 40
0.7500085820053726
 40
0.8749567663189798
 40
1.0
 40
1.0
 40
1.0
 40
1.0
 10
141.1640782302576
 20
88.6118730785706
 30
0.0
 10
141.2853284832344
 20
88.69496000597425
 30
0.0
 10
141.5278033526324
 20
88.86111629329145
 30
0.0
 10
141.8961705310072
 20
89.10342711097817
 30
0.0
 10
142.2678576767146
 20
89.34060593732376
 30
0.0
 10
142.7681556049629
 20
89.64925340354853
 30
0.0
 10
143.4021273950367
 20
90.02110190471534
 30
0.0
 10
144.1757468191635
 20
90.44425408282918
 30
0.0
 10
144.9617918001524
 20
90.8443283229191
 30
0.0
 10
145.7594737670576
 20
91.22017407575838
 30
0.0
 10
146.5675828103099
 20
91.57392296706824
 30
0.0
 10
147.1146958612086
 20
91.78912573420318
 30
0.0
 10
147.3883563957272
 20
91.8967680289488
 30
0.0
  0
SPLINE
  5
72
330
1F
100
AcDbEntity
  8
1
  6
SLD-Gestrichelt
 62
   131
420
  8454143
370
     0
100
AcDbSpline
210
0.0
220
0.0
230
1.0
 70
     8
 71
     3
 72
    21
 73
    17
 74
     0
 42
0.00000001
 43
0.00000001
 12
1.0
 22
0.0
 32
0.0
 13
1.0
 23
0.0
 33
0.0
 40
0.0
 40
0.0
 40
0.0
 40
0.0
 40
0.0687995421051178
 40
0.1380035178094119
 40
0.2076119356251658
 40
0.2776248039126973
 40
0.3480421308838313
 40
0.4188639246052566
 40
0.4900901930017844
 40
0.5617209438595401
 40
0.633756184829047
 40
0.7061959234282226
 40
0.7790401670452951
 40
0.8522889229416526
 40
0.9259421982545901
 40
1.0
 40
1.0
 40
1.0
 40
1.0
 10
136.3427793668894
 20
96.52832143534066
 30
0.0
 10
136.3734898158185
 20
96.7050378597907
 30
0.0
 10
136.4350912430381
 20
97.05950952461004
 30
0.0
 10
136.5155895965482
 20
97.59477520900697
 30
0.0
 10
136.5874973569743
 20
98.13442961379157
 30
0.0
 10
136.6497450909706
 20
98.67847422825723
 30
0.0
 10
136.7023767122187
 20
99.22670518738967
 30
0.0
 10
136.7451371926152
 20
99.7789657949294
 30
0.0
 10
136.7778550571801
 20
100.3350782512462
 30
0.0
 10
136.8003372769823
 20
100.8948618838766
 30
0.0
 10
136.8124053654791
 20
101.4581287946388
 30
0.0
 10
136.813857894294
 20
102.02468264321
 30
0.0
 10
136.804586219685
 20
102.5943277793647
 30
0.0
 10
136.7841470778277
 20
103.1668334743097
 30
0.0
 10
136.7533700697517
 20
103.7420687644522
 30
0.0
 10
136.7234122539168
 20
104.1259681285234
 30
0.0
 10
136.7083923242675
 20
104.3184434902956
 30
0.0
  0
SPLINE
  5
73
330
1F
100
AcDbEntity
  8
1
  6
SLD-Gestrichelt
 62
   131
420
  8454143
370
     0
100
AcDbSpline
210
0.0
220
0.0
230
1.0
 70
     8
 71
     3
 72
    21
 73
    17
 74
     0
 42
0.00000001
 43
0.00000001
 12
1.0
 22
0.0
 32
0.0
 13
1.0
 23
0.0
 33
0.0
 40
0.0
 40
0.0
 40
0.0
 40
0.0
 40
0.0687995420959693
 40
0.1380035177925186
 40
0.2076119356019349
 40
0.2776248038845407
 40
0.3480421308521557
 40
0.4188639245714678
 40
0.4900901929672916
 40
0.5617209438257528
 40
0.6337561847973718
 40
0.7061959234000661
 40
0.7790401670220658
 40
0.8522889229247581
 40
0.9259421982454374
 40
1.0
 40
1.0
 40
1.0
 40
1.0
 10
147.7743146953244
 20
92.56526910613823
 30
0.0
 10
147.6059185580425
 20
92.5035069228558
 30
0.0
 10
147.2681363778186
 20
92.37961949134308
 30
0.0
 10
146.7643335206575
 20
92.18170026827103
 30
0.0
 10
146.2610252166816
 20
91.97414701315851
 30
0.0
 10
145.7587448927979
 20
91.75603282491316
 30
0.0
 10
145.2576471444473
 20
91.52749766640554
 30
0.0
 10
144.7579951886231
 20
91.28839902494842
 30
0.0
 10
144.2600287418121
 20
91.0386772986678
 30
0.0
 10
143.7640007854231
 20
90.77825565583653
 30
0.0
 10
143.2701632873267
 20
90.50707347166507
 30
0.0
 10
142.7787869974187
 20
90.22505447422307
 30
0.0
 10
142.290095675636
 20
89.93220240038214
 30
0.0
 10
141.8045107708874
 20
89.62824873680593
 30
0.0
 10
141.3217309004568
 20
89.31397742085701
 30
0.0
 10
141.0042432065554
 20
89.09608350924175
 30
0.0
 10
140.8450646184629
 20
88.98683818770293
 30
0.0
  0
SPLINE
  5
74
330
1F
100
AcDbEntity
  8
1
  6
SLD-Gestrichelt
 62
   131
420
  8454143
370
     0
100
AcDbSpline
210
0.0
220
0.0
230
1.0
 70
     8
 71
     3
 72
    21
 73
    17
 74
     0
 42
0.00000001
 43
0.00000001
 12
1.0
 22
0.0
 32
0.0
 13
1.0
 23
0.0
 33
0.0
 40
0.0
 40
0.0
 40
0.0
 40
0.0
 40
0.0687995423677286
 40
0.1380035182942286
 40
0.2076119362917886
 40
0.2776248047207243
 40
0.3480421317928682
 40
0.4188639255748939
 40
0.4900901939916187
 40
0.5617209448291783
 40
0.633756185738082
 40
0.7061959242362543
 40
0.7790401677119234
 40
0.8522889234264706
 40
0.925942198517199
 40
1.0
 40
1.0
 40
1.0
 40
1.0
 10
145.4906510247233
 20
104.4467952694234
 30
0.0
 10
145.6283367136262
 20
104.3318410278281
 30
0.0
 10
145.9045174676464
 20
104.1012567937322
 30
0.0
 10
146.3278219727466
 20
103.7639103313907
 30
0.0
 10
146.7592225175175
 20
103.4318091809371
 30
0.0
 10
147.1992551083903
 20
103.1058787541618
 30
0.0
 10
147.6477212362309
 20
102.7861829531941
 30
0.0
 10
148.1046127121392
 20
102.4730209869668
 30
0.0
 10
148.5698612945982
 20
102.1666302569695
 30
0.0
 10
149.0434070311207
 20
101.8672682673776
 30
0.0
 10
149.5251764403697
 20
101.5751835411468
 30
0.0
 10
150.0151002008173
 20
101.2906486905142
 30
0.0
 10
150.5130631962605
 20
101.0138556288171
 30
0.0
 10
151.0190872416068
 20
100.7453035981666
 30
0.0
 10
151.5326441185382
 20
100.4843396247811
 30
0.0
 10
151.8800896271008
 20
100.3183341728521
 30
0.0
 10
152.0542881442067
 20
100.2351041329038
 30
0.0
  0
DIMENSION
  5
75
330
1F
100
AcDbEntity
  8
2
 62
     7
420
 16777215
100
AcDbDimension
  2
_D
 10
149.8025816956
 20
79.8744712947
 30
0.0
 11
121.8515570396
 21
79.8744712947
 31
0.0
 70
   160
  1
%%c<>
 71
     2
 42
-1.0
 73
     0
 74
     0
 75
     0
  3
SLDDIMSTYLE0
100
AcDbAlignedDimension
 13
136.6025816956
 23
97.8467952703
 33
0.0
 14
149.8025816956
 24
97.8467952703
 34
0.0
100
AcDbRotatedDimension
  0
DIMENSION
  5
83
330
1F
100
AcDbEntity
  8
2
 62
     7
420
 16777215
100
AcDbDimension
  2
_D_1
 10
143.2025816956
 20
110.4605801082
 30
0.0
 11
138.2035717937
 21
110.4605801082
 31
0.0
 70
   160
  1
<>
 71
     2
 42
-1.0
 73
     0
 74
     0
 75
     0
  3
SLDDIMSTYLE1
100
AcDbAlignedDimension
 13
133.2045618917
 23
104.4467952703
 33
0.0
 14
143.2025816956
 24
97.8467952703
 34
0.0
100
AcDbRotatedDimension
  0
LINE
  5
90
330
1F
100
AcDbEntity
  8
1
 62
     4
420
    65535
100
AcDbLine
 10
142.4331777818
 20
56.572912151
 30
0.0
 11
144.6075169442
 21
56.6258792514
 31
0.0
  0
SPLINE
  5
91
330
1F
100
AcDbEntity
  8
1
 62
     4
420
    65535
100
AcDbSpline
210
0.0
220
0.0
230
1.0
 70
     8
 71
     3
 72
     9
 73
     5
 74
     0
 42
0.00000001
 43
0.00000001
 12
1.0
 22
0.0
 32
0.0
 13
1.0
 23
0.0
 33
0.0
 40
0.0
 40
0.0
 40
0.0
 40
0.0
 40
0.4970984442665394
 40
1.0
 40
1.0
 40
1.0
 40
1.0
 10
146.2625693863877
 20
58.39361308628566
 30
0.0
 10
146.1343234642892
 20
58.47304216318676
 30
0.0
 10
145.8763344812665
 20
58.63282756951266
 30
0.0
 10
145.6197055984564
 20
58.79478843107
 30
0.0
 10
145.490646534045
 20
58.87623880031513
 30
0.0
  0
SPLINE
  5
92
330
1F
100
AcDbEntity
  8
1
 62
     4
420
    65535
100
AcDbSpline
210
0.0
220
0.0
230
1.0
 70
     8
 71
     3
 72
    21
 73
    17
 74
     0
 42
0.00000001
 43
0.00000001
 12
1.0
 22
0.0
 32
0.0
 13
1.0
 23
0.0
 33
0.0
 40
0.0
 40
0.0
 40
0.0
 40
0.0
 40
0.0687995423677286
 40
0.1380035182942286
 40
0.2076119362917886
 40
0.2776248047207243
 40
0.3480421317928682
 40
0.4188639255748939
 40
0.4900901939916187
 40
0.5617209448291783
 40
0.633756185738082
 40
0.7061959242362543
 40
0.7790401677119234
 40
0.8522889234264706
 40
0.925942198517199
 40
1.0
 40
1.0
 40
1.0
 40
1.0
 10
145.4906510247233
 20
58.8762408755341
 30
0.0
 10
145.6283367136262
 20
58.87874916641379
 30
0.0
 10
145.9045174676464
 20
58.8837804929952
 30
0.0
 10
146.3278219727466
 20
58.8915951655915
 30
0.0
 10
146.7592225175175
 20
58.89963325568781
 30
0.0
 10
147.1992551083903
 20
58.9079127072456
 30
0.0
 10
147.6477212362309
 20
58.91642866985833
 30
0.0
 10
148.1046127121392
 20
58.92518245602992
 30
0.0
 10
148.5698612945982
 20
58.93417370593316
 30
0.0
 10
149.0434070311207
 20
58.94340253663309
 30
0.0
 10
149.5251764403697
 20
58.95286884251195
 30
0.0
 10
150.0151002008172
 20
58.96257293115073
 30
0.0
 10
150.5130631962605
 20
58.97251366987756
 30
0.0
 10
151.0190872416067
 20
58.98269531507479
 30
0.0
 10
151.5326441185382
 20
58.9931018518545
 30
0.0
 10
151.8800896271008
 20
59.00021017847334
 30
0.0
 10
152.0542881442066
 20
59.0037740753308
 30
0.0
  0
LINE
  5
93
330
1F
100
AcDbEntity
  8
1
 62
     4
420
    65535
100
AcDbLine
 10
152.0542866569
 20
59.0037740378
 30
0.0
 11
152.2131075373
 21
58.5307932393
 31
0.0
  0
ELLIPSE
  5
94
330
1F
100
AcDbEntity
  8
1
 62
     4
420
    65535
100
AcDbEllipse
 10
150.4807998201
 20
56.8423018263
 30
0.0
 11
0.5118434871104113
 21
-0.01081779198354837
 31
0.0
210
0.0
220
0.0
230
1.0
 40
0.3906572055
 41
5.958285506679696
 42
6.291441644254491
  0
LINE
  5
95
330
1F
100
AcDbEntity
  8
1
 62
     4
420
    65535
100
AcDbLine
 10
150.9645160332
 20
56.7682214798
 30
0.0
 11
137.2045618917
 21
56.7682214798
 31
0.0
  0
LINE
  5
96
330
1F
100
AcDbEntity
  8
1
 62
     4
420
    65535
100
AcDbLine
 10
137.2045618917
 20
59.2682214798
 30
0.0
 11
137.2045618917
 21
56.7682214798
 31
0.0
  0
LINE
  5
97
330
1F
100
AcDbEntity
  8
1
 62
     4
420
    65535
100
AcDbLine
 10
145.4906510237
 20
59.2682214798
 30
0.0
 11
137.2045618917
 21
59.2682214798
 31
0.0
  0
LINE
  5
98
330
1F
100
AcDbEntity
  8
1
 62
     4
420
    65535
100
AcDbLine
 10
145.4906510237
 20
59.2682214798
 30
0.0
 11
145.4906510237
 21
58.8762409737
 31
0.0
  0
ELLIPSE
  5
99
330
1F
100
AcDbEntity
  8
1
 62
     4
420
    65535
100
AcDbEllipse
 10
150.4807998201
 20
58.2941411334
 30
0.0
 11
-0.5118434871104113
 21
-0.01081779198355548
 31
0.0
210
0.0
220
0.0
230
1.0
 40
0.3906572055
 41
3.133336316514816
 42
4.719325995096508
  0
LINE
  5
9A
330
1F
100
AcDbEntity
  8
1
 62
     4
420
    65535
100
AcDbLine
 10
150.9926607532
 20
58.3033076767
 30
0.0
 11
150.9926607532
 21
56.833135283
 31
0.0
  0
LINE
  5
9B
330
1F
100
AcDbEntity
  8
1
 62
     4
420
    65535
100
AcDbLine
 10
146.26256909
 20
58.3936126005
 30
0.0
 11
150.4730232361
 21
58.494016626
 31
0.0
  0
LINE
  5
9C
330
1F
100
AcDbEntity
  8
1
 62
     4
420
    65535
100
AcDbLine
 10
152.0542881429
 20
59.2682214798
 30
0.0
 11
145.4906510237
 21
59.2682214798
 31
0.0
  0
LINE
  5
9D
330
1F
100
AcDbEntity
  8
1
 62
     4
420
    65535
100
AcDbLine
 10
152.0542881429
 20
59.0037741525
 30
0.0
 11
152.0542881429
 21
59.2682214798
 31
0.0
  0
ELLIPSE
  5
9E
330
1F
100
AcDbEntity
  8
1
 62
     4
420
    65535
100
AcDbEllipse
 10
135.2045618917
 20
58.6504213216
 30
0.0
 11
6.999999674997866
 21
-0.1222226875429513
 31
0.0
210
0.0
220
0.0
230
1.0
 40
0.0174524048
 41
4.454384467557456
 42
4.858870045748046
  0
SPLINE
  5
9F
330
1F
100
AcDbEntity
  8
1
 62
     4
420
    65535
100
AcDbSpline
210
0.0
220
0.0
230
1.0
 70
     8
 71
     3
 72
     9
 73
     5
 74
     0
 42
0.00000001
 43
0.00000001
 12
1.0
 22
0.0
 32
0.0
 13
1.0
 23
0.0
 33
0.0
 40
0.0
 40
0.0
 40
0.0
 40
0.0
 40
0.4647533777029967
 40
0.9999999999999999
 40
0.9999999999999999
 40
0.9999999999999999
 40
0.9999999999999999
 10
136.7083971255526
 20
59.00377403783824
 30
0.0
 10
136.6336752307066
 20
58.92762632820382
 30
0.0
 10
136.472897712068
 20
58.76378091408167
 30
0.0
 10
136.310877136251
 20
58.59960046441545
 30
0.0
 10
136.2241561703023
 20
58.51172343328439
 30
0.0
  0
LINE
  5
A0
330
1F
100
AcDbEntity
  8
1
 62
     4
420
    65535
100
AcDbLine
 10
136.7083923244
 20
59.0037741525
 30
0.0
 11
136.7083923244
 21
59.2682214798
 31
0.0
  0
LINE
  5
A1
330
1F
100
AcDbEntity
  8
1
 62
     4
420
    65535
100
AcDbLine
 10
137.2045618917
 20
59.2682214798
 30
0.0
 11
136.7083923244
 21
59.2682214798
 31
0.0
  0
LINE
  5
A2
330
1F
100
AcDbEntity
  8
1
 62
     4
420
    65535
100
AcDbLine
 10
137.2045618917
 20
56.7682214798
 30
0.0
 11
135.1744388755
 21
56.7682214798
 31
0.0
  0
LINE
  5
A3
330
1F
100
AcDbEntity
  8
1
 62
     4
420
    65535
100
AcDbLine
 10
135.1744388755
 20
56.6076987741
 30
0.0
 11
135.1744388755
 21
56.7682214798
 31
0.0
  0
ELLIPSE
  5
A4
330
1F
100
AcDbEntity
  8
1
 62
     4
420
    65535
100
AcDbEllipse
 10
135.2045618917
 20
56.4860216381
 30
0.0
 11
6.999999674997866
 21
0.1222226875429513
 31
0.0
210
0.0
220
0.0
230
1.0
 40
0.0174524048
 41
1.574794902414301
 42
1.828800839622196
  0
LINE
  5
A5
330
1F
100
AcDbEntity
  8
1
 62
     4
420
    65535
100
AcDbLine
 10
133.2045618917
 20
56.7713218949
 30
0.0
 11
133.2045618917
 21
58.3651210647
 31
0.0
  0
SPLINE
  5
A6
330
1F
100
AcDbEntity
  8
1
 62
     4
420
    65535
100
AcDbSpline
210
0.0
220
0.0
230
1.0
 70
     8
 71
     3
 72
    10
 73
     6
 74
     0
 42
0.00000001
 43
0.00000001
 12
1.0
 22
0.0
 32
0.0
 13
1.0
 23
0.0
 33
0.0
 40
0.0
 40
0.0
 40
0.0
 40
0.0
 40
0.5
 40
0.5
 40
1.0
 40
1.0
 40
1.0
 40
1.0
 10
133.2045618917045
 20
56.77132189491064
 30
0.0
 10
133.2045618917045
 20
56.71581473527019
 30
0.0
 10
133.2299745074474
 20
56.66247795365944
 30
0.0
 10
133.3096530194435
 20
56.59080467248288
 30
0.0
 10
133.3628933333089
 20
56.57177795032435
 30
0.0
 10
133.416438139836
 20
56.57295955591291
 30
0.0
  0
SPLINE
  5
A7
330
1F
100
AcDbEntity
  8
1
 62
     4
420
    65535
100
AcDbSpline
210
0.0
220
0.0
230
1.0
 70
     8
 71
     3
 72
    10
 73
     6
 74
     0
 42
0.00000001
 43
0.00000001
 12
1.0
 22
0.0
 32
0.0
 13
1.0
 23
0.0
 33
0.0
 40
0.0
 40
0.0
 40
0.0
 40
0.0
 40
0.5
 40
0.5
 40
1.0
 40
1.0
 40
1.0
 40
1.0
 10
133.416438139836
 20
58.56348340371918
 30
0.0
 10
133.3628378342617
 20
58.56466623403873
 30
0.0
 10
133.3099732998417
 20
58.54588514988345
 30
0.0
 10
133.2298261877754
 20
58.47387273880933
 30
0.0
 10
133.2045618917045
 20
58.42071580093173
 30
0.0
 10
133.2045618917045
 20
58.36512106472144
 30
0.0
  0
LINE
  5
A8
330
1F
100
AcDbEntity
  8
1
 62
     4
420
    65535
100
AcDbLine
 10
153.9173592626
 20
58.3651210647
 30
0.0
 11
150.9926607532
 21
58.3033076767
 31
0.0
  0
SPLINE
  5
A9
330
1F
100
AcDbEntity
  8
1
 62
     4
420
    65535
100
AcDbSpline
210
0.0
220
0.0
230
1.0
 70
     8
 71
     3
 72
    10
 73
     6
 74
     0
 42
0.00000001
 43
0.00000001
 12
1.0
 22
0.0
 32
0.0
 13
1.0
 23
0.0
 33
0.0
 40
0.0
 40
0.0
 40
0.0
 40
0.0
 40
0.5
 40
0.5
 40
1.0
 40
1.0
 40
1.0
 40
1.0
 10
153.7598416378738
 20
58.56348340371918
 30
0.0
 10
153.7989063045609
 20
58.56466623403873
 30
0.0
 10
153.8381021404727
 20
58.54588514988345
 30
0.0
 10
153.8981366079628
 20
58.47387273880933
 30
0.0
 10
153.9173592625935
 20
58.42071580093173
 30
0.0
 10
153.9173592625935
 20
58.36512106472144
 30
0.0
  0
LINE
  5
AA
330
1F
100
AcDbEntity
  8
1
 62
     4
420
    65535
100
AcDbLine
 10
150.4730232361
 20
58.494016626
 30
0.0
 11
153.7598416379
 21
58.5634834037
 31
0.0
  0
LINE
  5
AB
330
1F
100
AcDbEntity
  8
1
 62
     4
420
    65535
100
AcDbLine
 10
150.9926607532
 20
56.833135283
 30
0.0
 11
153.9173592626
 21
56.7713218949
 31
0.0
  0
LINE
  5
AC
330
1F
100
AcDbEntity
  8
1
 62
     4
420
    65535
100
AcDbLine
 10
153.9173592626
 20
56.7713218949
 30
0.0
 11
153.9173592626
 21
58.3651210647
 31
0.0
  0
LINE
  5
AD
330
1F
100
AcDbEntity
  8
1
 62
     4
420
    65535
100
AcDbLine
 10
151.0079586169
 20
56.7682214798
 30
0.0
 11
150.9645160332
 21
56.7682214798
 31
0.0
  0
SPLINE
  5
AE
330
1F
100
AcDbEntity
  8
1
 62
     4
420
    65535
100
AcDbSpline
210
0.0
220
0.0
230
1.0
 70
     8
 71
     3
 72
    10
 73
     6
 74
     0
 42
0.00000001
 43
0.00000001
 12
1.0
 22
0.0
 32
0.0
 13
1.0
 23
0.0
 33
0.0
 40
0.0
 40
0.0
 40
0.0
 40
0.0
 40
0.5
 40
0.5
 40
1.0
 40
1.0
 40
1.0
 40
1.0
 10
153.9173592625935
 20
56.77132189491064
 30
0.0
 10
153.9173592625935
 20
56.71581473527019
 30
0.0
 10
153.8980259865522
 20
56.66247795365944
 30
0.0
 10
153.8383415706818
 20
56.59080467248288
 30
0.0
 10
153.7988658560643
 20
56.57177795032435
 30
0.0
 10
153.7598416378738
 20
56.57295955591291
 30
0.0
  0
LINE
  5
AF
330
1F
100
AcDbEntity
  8
1
 62
     4
420
    65535
100
AcDbLine
 10
153.7598416379
 20
56.5729595559
 30
0.0
 11
151.2656688636
 21
56.6256737995
 31
0.0
  0
SPLINE
  5
B0
330
1F
100
AcDbEntity
  8
1
 62
     4
420
    65535
100
AcDbSpline
210
0.0
220
0.0
230
1.0
 70
     8
 71
     3
 72
    12
 73
     8
 74
     0
 42
0.00000001
 43
0.00000001
 12
1.0
 22
0.0
 32
0.0
 13
1.0
 23
0.0
 33
0.0
 40
0.0
 40
0.0
 40
0.0
 40
0.0
 40
0.499999999999993
 40
0.499999999999993
 40
0.7499999999999964
 40
0.7499999999999964
 40
1.0
 40
1.0
 40
1.0
 40
1.0
 10
151.2656688635985
 20
56.62567379947097
 30
0.0
 10
151.2198278367507
 20
56.62638999628765
 30
0.0
 10
151.1743538101414
 20
56.63624477811438
 30
0.0
 10
151.1071426555393
 20
56.66752547624188
 30
0.0
 10
151.0847097290353
 20
56.68094558040838
 30
0.0
 10
151.0427517221126
 20
56.71618348116866
 30
0.0
 10
151.0225259261605
 20
56.73785121634382
 30
0.0
 10
151.0079586169455
 20
56.76822147981605
 30
0.0
  0
LINE
  5
B1
330
1F
100
AcDbEntity
  8
1
 62
     4
420
    65535
100
AcDbLine
 10
136.0534329672
 20
58.5144226017
 30
0.0
 11
136.3427816115
 21
58.8762388003
 31
0.0
  0
SPLINE
  5
B2
330
1F
100
AcDbEntity
  8
1
 62
     4
420
    65535
100
AcDbSpline
210
0.0
220
0.0
230
1.0
 70
     8
 71
     3
 72
     9
 73
     5
 74
     0
 42
0.00000001
 43
0.00000001
 12
1.0
 22
0.0
 32
0.0
 13
1.0
 23
0.0
 33
0.0
 40
0.0
 40
0.0
 40
0.0
 40
0.0
 40
0.6685956889870593
 40
1.0
 40
1.0
 40
1.0
 40
1.0
 10
136.3427793668894
 20
58.87624087553409
 30
0.0
 10
136.4140381309023
 20
58.88213317167259
 30
0.0
 10
136.5206178848352
 20
58.89094611533278
 30
0.0
 10
136.587691161387
 20
58.90053157562225
 30
0.0
 10
136.60991953439
 20
58.90370823848522
 30
0.0
  0
LINE
  5
B3
330
1F
100
AcDbEntity
  8
1
 62
     4
420
    65535
100
AcDbLine
 10
136.3427793666
 20
59.2682214798
 30
0.0
 11
136.3427793666
 21
58.8762409737
 31
0.0
  0
LINE
  5
B4
330
1F
100
AcDbEntity
  8
1
 62
     4
420
    65535
100
AcDbLine
 10
136.7083923244
 20
59.2682214798
 30
0.0
 11
136.3427793666
 21
59.2682214798
 31
0.0
  0
LINE
  5
B5
330
1F
100
AcDbEntity
  8
1
 62
     4
420
    65535
100
AcDbLine
 10
142.4314653092
 20
56.5729595559
 30
0.0
 11
144.5954245086
 21
56.6256737995
 31
0.0
  0
SPLINE
  5
B6
330
1F
100
AcDbEntity
  8
1
 62
     4
420
    65535
100
AcDbSpline
210
0.0
220
0.0
230
1.0
 70
     8
 71
     3
 72
    12
 73
     8
 74
     0
 42
0.00000001
 43
0.00000001
 12
1.0
 22
0.0
 32
0.0
 13
1.0
 23
0.0
 33
0.0
 40
0.0
 40
0.0
 40
0.0
 40
0.0
 40
0.5000000000000056
 40
0.5000000000000056
 40
0.7500000000000028
 40
0.7500000000000028
 40
1.0
 40
1.0
 40
1.0
 40
1.0
 10
144.5954245086366
 20
56.62567379947097
 30
0.0
 10
144.6694503685864
 20
56.62638999628765
 30
0.0
 10
144.7417229308394
 20
56.63624477811437
 30
0.0
 10
144.8470309312696
 20
56.66752547624186
 30
0.0
 10
144.8819138119415
 20
56.68094558040834
 30
0.0
 10
144.9467362527221
 20
56.71618348116858
 30
0.0
 10
144.9777424674765
 20
56.73785121634382
 30
0.0
 10
144.9999868420727
 20
56.76822147981603
 30
0.0
  0
ELLIPSE
  5
B7
330
1F
100
AcDbEntity
  8
1
 62
     4
420
    65535
100
AcDbEllipse
 10
143.2025816956
 20
56.8579585419
 30
0.0
 11
10.21006020055614
 21
0.06529268040563353
 31
0.0
210
0.0
220
0.0
230
1.0
 40
0.023844417
 41
4.569831975978479
 42
4.84908187296875
  0
LINE
  5
B8
330
1F
100
AcDbEntity
  8
1
 62
     4
420
    65535
100
AcDbLine
 10
141.7535321171
 20
56.6076987741
 30
0.0
 11
141.7535321171
 21
56.7682214798
 31
0.0
  0
ELLIPSE
  5
B9
330
1F
100
AcDbEntity
  8
1
 62
     4
420
    65535
100
AcDbEllipse
 10
135.6763489133
 20
56.4860216381
 30
0.0
 11
6.999999918620688
 21
0.04476455070275875
 31
0.0
210
0.0
220
0.0
230
1.0
 40
0.023844417
 41
0.2651370535607489
 42
0.5191429907686551
  0
SPLINE
  5
BA
330
1F
100
AcDbEntity
  8
1
  6
SLD-Gestrichelt
 62
   131
420
  8454143
370
     0
100
AcDbSpline
210
0.0
220
0.0
230
1.0
 70
     8
 71
     3
 72
    17
 73
    13
 74
     0
 42
0.00000001
 43
0.00000001
 12
1.0
 22
0.0
 32
0.0
 13
1.0
 23
0.0
 33
0.0
 40
0.0
 40
0.0
 40
0.0
 40
0.0
 40
0.0625088569507262
 40
0.1250044973359195
 40
0.1875008459220449
 40
0.2500118270022957
 40
0.3749894267425555
 40
0.5000124217492029
 40
0.6249502689848906
 40
0.7500085820053707
 40
0.8749567663161912
 40
1.0
 40
1.0
 40
1.0
 40
1.0
 10
152.2195106483507
 20
58.51172344038853
 30
0.0
 10
152.0869301320047
 20
58.50896725334576
 30
0.0
 10
151.8217971314856
 20
58.50345546201486
 30
0.0
 10
151.427766218566
 20
58.49532312059119
 30
0.0
 10
151.0365197568609
 20
58.48729193460397
 30
0.0
 10
150.5190742461741
 20
58.47673456083778
 30
0.0
 10
149.8800581027716
 20
58.4638157839118
 30
0.0
 10
149.126787854801
 20
58.44878112081639
 30
0.0
 10
148.3872909089928
 20
58.4342173447298
 30
0.0
 10
147.6629579556816
 20
58.42015693094228
 30
0.0
 10
146.9525479076134
 20
58.40655678289844
 30
0.0
 10
146.4926203188608
 20
58.39792842508481
 30
0.0
 10
146.2625690898251
 20
58.39361260588169
 30
0.0
  0
LINE
  5
BB
330
1F
100
AcDbEntity
  8
1
  6
SLD-Gestrichelt
 62
   131
420
  8454143
370
     0
100
AcDbLine
 10
152.2131075373
 20
58.5307932393
 30
0.0
 11
152.2195109334
 21
58.5117234333
 31
0.0
  0
LINE
  5
BC
330
1F
100
AcDbEntity
  8
1
  6
SLD-Gestrichelt
 62
   131
420
  8454143
370
     0
100
AcDbLine
 10
133.5917745019
 20
56.833135283
 30
0.0
 11
133.2045618917
 21
56.7713218949
 31
0.0
  0
LINE
  5
BD
330
1F
100
AcDbEntity
  8
1
  6
SLD-Gestrichelt
 62
   131
420
  8454143
370
     0
100
AcDbLine
 10
133.2045618917
 20
58.3651210647
 30
0.0
 11
133.5917745019
 21
58.3033076767
 31
0.0
  0
LINE
  5
BE
330
1F
100
AcDbEntity
  8
1
  6
SLD-Gestrichelt
 62
   131
420
  8454143
370
     0
100
AcDbLine
 10
151.0079586169
 20
56.7682214798
 30
0.0
 11
152.6797740944
 21
56.7682214798
 31
0.0
  0
LINE
  5
BF
330
1F
100
AcDbEntity
  8
1
  6
SLD-Gestrichelt
 62
   131
420
  8454143
370
     0
100
AcDbLine
 10
133.8515932604
 20
58.494016626
 30
0.0
 11
133.4164381398
 21
58.5634834037
 31
0.0
  0
LINE
  5
C0
330
1F
100
AcDbEntity
  8
1
  6
SLD-Gestrichelt
 62
   131
420
  8454143
370
     0
100
AcDbLine
 10
133.4164381398
 20
56.5729595559
 30
0.0
 11
133.7466517147
 21
56.6256737995
 31
0.0
  0
LINE
  5
C1
330
1F
100
AcDbEntity
  8
1
  6
SLD-Gestrichelt
 62
   131
420
  8454143
370
     0
100
AcDbLine
 10
135.9568201853
 20
58.3936130863
 30
0.0
 11
136.0534329672
 21
58.5144226017
 31
0.0
  0
SPLINE
  5
C2
330
1F
100
AcDbEntity
  8
1
  6
SLD-Gestrichelt
 62
   131
420
  8454143
370
     0
100
AcDbSpline
210
0.0
220
0.0
230
1.0
 70
     8
 71
     3
 72
    10
 73
     6
 74
     0
 42
0.00000001
 43
0.00000001
 12
1.0
 22
0.0
 32
0.0
 13
1.0
 23
0.0
 33
0.0
 40
0.0
 40
0.0
 40
0.0
 40
0.0
 40
0.2259062116268723
 40
0.673944014763172
 40
1.0
 40
1.0
 40
1.0
 40
1.0
 10
136.60991953439
 20
58.90370823848522
 30
0.0
 10
136.635876110001
 20
58.90697524945205
 30
0.0
 10
136.7133121337862
 20
58.91672169454271
 30
0.0
 10
136.7800384203487
 20
58.93209955978271
 30
0.0
 10
136.795550605334
 20
58.94463669708557
 30
0.0
 10
136.802084491582
 20
58.94991746372747
 30
0.0
  0
SPLINE
  5
C3
330
1F
100
AcDbEntity
  8
1
  6
SLD-Gestrichelt
 62
   131
420
  8454143
370
     0
100
AcDbSpline
210
0.0
220
0.0
230
1.0
 70
     8
 71
     3
 72
     9
 73
     5
 74
     0
 42
0.00000001
 43
0.00000001
 12
1.0
 22
0.0
 32
0.0
 13
1.0
 23
0.0
 33
0.0
 40
0.0
 40
0.0
 40
0.0
 40
0.0
 40
0.4621499270573677
 40
0.9999999999999999
 40
0.9999999999999999
 40
0.9999999999999999
 40
0.9999999999999999
 10
136.8094647639013
 20
58.95909616117221
 30
0.0
 10
136.8071070346435
 20
58.96576014165822
 30
0.0
 10
136.8020053801376
 20
58.98017966245843
 30
0.0
 10
136.7411326998177
 20
58.99552212872837
 30
0.0
 10
136.7083923242675
 20
59.00377407533079
 30
0.0
  0
SPLINE
  5
C4
330
1F
100
AcDbEntity
  8
1
  6
SLD-Gestrichelt
 62
   131
420
  8454143
370
     0
100
AcDbSpline
210
0.0
220
0.0
230
1.0
 70
     8
 71
     3
 72
    17
 73
    13
 74
     0
 42
0.00000001
 43
0.00000001
 12
1.0
 22
0.0
 32
0.0
 13
1.0
 23
0.0
 33
0.0
 40
0.0
 40
0.0
 40
0.0
 40
0.0
 40
0.0625088569528308
 40
0.1250044973387255
 40
0.1875008459241496
 40
0.2500118270022986
 40
0.3749894267433895
 40
0.5000124217492012
 40
0.62495026898156
 40
0.750008582005369
 40
0.8749567663148227
 40
1.0
 40
1.0
 40
1.0
 40
1.0
 10
136.2241562083288
 20
58.51172344038853
 30
0.0
 10
136.2354864716951
 20
58.50896725334567
 30
0.0
 10
136.2581446028123
 20
58.50345546201464
 30
0.0
 10
136.2838083373543
 20
58.49532312059088
 30
0.0
 10
136.3033676533552
 20
58.48729193460375
 30
0.0
 10
136.3205152357928
 20
58.47673456083766
 30
0.0
 10
136.3255595891232
 20
58.46381578391178
 30
0.0
 10
136.3052104129766
 20
58.44878112081648
 30
0.0
 10
136.2586623777993
 20
58.43421734472993
 30
0.0
 10
136.185313364212
 20
58.42015693094245
 30
0.0
 10
136.087614369021
 20
58.40655678289848
 30
0.0
 10
136.0004289068744
 20
58.39792842508486
 30
0.0
 10
135.9568196013847
 20
58.39361260588169
 30
0.0
  0
ELLIPSE
  5
C5
330
1F
100
AcDbEntity
  8
1
  6
SLD-Gestrichelt
 62
   131
420
  8454143
370
     0
100
AcDbEllipse
 10
143.2025816956
 20
56.8579585419
 30
0.0
 11
10.21005984521275
 21
0.1782715731706972
 31
0.0
210
0.0
220
0.0
230
1.0
 40
0.0174524048
 41
3.528041327394515
 42
3.8072912243846
  0
LINE
  5
C6
330
1F
100
AcDbEntity
  8
1
  6
SLD-Gestrichelt
 62
   131
420
  8454143
370
     0
100
AcDbLine
 10
133.5997996279
 20
56.7682214798
 30
0.0
 11
135.1744388755
 21
56.7682214798
 31
0.0
  0
SPLINE
  5
C7
330
1F
100
AcDbEntity
  8
1
  6
SLD-Gestrichelt
 62
   131
420
  8454143
370
     0
100
AcDbSpline
210
0.0
220
0.0
230
1.0
 70
     8
 71
     3
 72
    12
 73
     8
 74
     0
 42
0.00000001
 43
0.00000001
 12
1.0
 22
0.0
 32
0.0
 13
1.0
 23
0.0
 33
0.0
 40
0.0
 40
0.0
 40
0.0
 40
0.0
 40
0.5
 40
0.5
 40
0.75
 40
0.75
 40
1.0
 40
1.0
 40
1.0
 40
1.0
 10
133.7466517147019
 20
56.62567379947097
 30
0.0
 10
133.7184668816
 20
56.62638999628765
 30
0.0
 10
133.6916683459563
 20
56.63624477811437
 30
0.0
 10
133.653571500128
 20
56.66752547624187
 30
0.0
 10
133.6411215459601
 20
56.68094558040836
 30
0.0
 10
133.6182571121023
 20
56.71618348116862
 30
0.0
 10
133.6074766933
 20
56.73785121634381
 30
0.0
 10
133.5997996279189
 20
56.76822147981602
 30
0.0
  0
ELLIPSE
  5
C8
330
1F
100
AcDbEntity
  8
1
  6
SLD-Gestrichelt
 62
   131
420
  8454143
370
     0
100
AcDbEllipse
 10
143.2025816956
 20
56.8579585419
 30
0.0
 11
10.21006020093142
 21
-0.2434827490688889
 31
0.0
210
0.0
220
0.0
230
1.0
 40
0.0063840373
 41
5.622893397771531
 42
5.902143294762388
  0
ELLIPSE
  5
C9
330
1F
100
AcDbEntity
  8
1
  6
SLD-Gestrichelt
 62
   131
420
  8454143
370
     0
100
AcDbEllipse
 10
158.7268342819
 20
56.4860216381
 30
0.0
 11
6.999999918878017
 21
-0.1669313588939403
 31
0.0
210
0.0
220
0.0
230
1.0
 40
0.0063840373
 41
3.669646972792199
 42
3.923652909999628
  0
LINE
  5
CA
330
1F
100
AcDbEntity
  8
1
  6
SLD-Gestrichelt
 62
   131
420
  8454143
370
     0
100
AcDbLine
 10
152.6797740944
 20
56.6076987741
 30
0.0
 11
152.6797740944
 21
56.7682214798
 31
0.0
  0
ELLIPSE
  5
CB
330
1F
100
AcDbEntity
  8
1
  6
SLD-Gestrichelt
 62
   131
420
  8454143
370
     0
100
AcDbEllipse
 10
158.7268342819
 20
58.6504213216
 30
0.0
 11
6.999999918878017
 21
0.1669313588939403
 31
0.0
210
0.0
220
0.0
230
1.0
 40
0.0063840373
 41
2.359532397180987
 42
2.764017975371515
  0
LINE
  5
CC
330
1F
100
AcDbEntity
  8
1
  6
SLD-Gestrichelt
 62
   131
420
  8454143
370
     0
100
AcDbLine
 10
135.9568203335
 20
58.3936126005
 30
0.0
 11
133.8515932604
 21
58.494016626
 31
0.0
  0
LINE
  5
CD
330
1F
100
AcDbEntity
  8
1
  6
SLD-Gestrichelt
 62
   131
420
  8454143
370
     0
100
AcDbLine
 10
133.5917745019
 20
58.3033076767
 30
0.0
 11
133.5917745019
 21
56.833135283
 31
0.0
  0
ELLIPSE
  5
CE
330
1F
100
AcDbEntity
  8
1
  6
SLD-Gestrichelt
 62
   131
420
  8454143
370
     0
100
AcDbEllipse
 10
133.8477049684
 20
56.8423018263
 30
0.0
 11
0.2552815287506291
 21
0.02337943976903745
 31
0.0
210
0.0
220
0.0
230
1.0
 40
0.7790546877
 41
3.070365212819842
 42
3.403521350394716
  0
ELLIPSE
  5
CF
330
1F
100
AcDbEntity
  8
1
  6
SLD-Gestrichelt
 62
   131
420
  8454143
370
     0
100
AcDbEllipse
 10
133.8477049684
 20
58.2941411334
 30
0.0
 11
0.2552815287506291
 21
-0.02337943976903745
 31
0.0
210
0.0
220
0.0
230
1.0
 40
0.7790546877
 41
1.626830415778191
 42
3.212820094359801
  0
LINE
  5
D0
330
1F
100
AcDbEntity
  8
1
  6
SLD-Gestrichelt
 62
   131
420
  8454143
370
     0
100
AcDbLine
 10
151.9173592626
 20
59.2682214798
 30
0.0
 11
151.9173592626
 21
56.7682214798
 31
0.0
  0
SPLINE
  5
D1
330
1F
100
AcDbEntity
  8
1
  6
SLD-Gestrichelt
 62
   131
420
  8454143
370
     0
100
AcDbSpline
210
0.0
220
0.0
230
1.0
 70
     8
 71
     3
 72
     9
 73
     5
 74
     0
 42
0.00000001
 43
0.00000001
 12
1.0
 22
0.0
 32
0.0
 13
1.0
 23
0.0
 33
0.0
 40
0.0
 40
0.0
 40
0.0
 40
0.0
 40
0.4970984442665916
 40
1.0
 40
1.0
 40
1.0
 40
1.0
 10
147.388355515252
 20
58.39361308628566
 30
0.0
 10
147.4524784763012
 20
58.47304216318678
 30
0.0
 10
147.5814729678125
 20
58.63282756951266
 30
0.0
 10
147.7097874092176
 20
58.79478843107001
 30
0.0
 10
147.7743169414233
 20
58.87623880031513
 30
0.0
  0
SPLINE
  5
D2
330
1F
100
AcDbEntity
  8
1
  6
SLD-Gestrichelt
 62
   131
420
  8454143
370
     0
100
AcDbSpline
210
0.0
220
0.0
230
1.0
 70
     8
 71
     3
 72
    21
 73
    17
 74
     0
 42
0.00000001
 43
0.00000001
 12
1.0
 22
0.0
 32
0.0
 13
1.0
 23
0.0
 33
0.0
 40
0.0
 40
0.0
 40
0.0
 40
0.0
 40
0.0687995420959693
 40
0.1380035177925186
 40
0.2076119356019349
 40
0.2776248038845407
 40
0.3480421308521557
 40
0.4188639245714678
 40
0.4900901929672916
 40
0.5617209438257528
 40
0.6337561847973718
 40
0.7061959234000661
 40
0.7790401670220658
 40
0.8522889229247581
 40
0.9259421982454374
 40
1.0
 40
1.0
 40
1.0
 40
1.0
 10
147.7743146953244
 20
58.8762408755341
 30
0.0
 10
147.6059185580424
 20
58.87874916640067
 30
0.0
 10
147.2681363778186
 20
58.88378049295733
 30
0.0
 10
146.7643335206575
 20
58.89159516552073
 30
0.0
 10
146.2610252166816
 20
58.89963325559
 30
0.0
 10
145.7587448927979
 20
58.90791270712681
 30
0.0
 10
145.2576471444473
 20
58.91642866972457
 30
0.0
 10
144.7579951886231
 20
58.92518245588719
 30
0.0
 10
144.2600287418121
 20
58.93417370578749
 30
0.0
 10
143.7640007854231
 20
58.94340253649047
 30
0.0
 10
143.2701632873267
 20
58.95286884237841
 30
0.0
 10
142.7787869974187
 20
58.96257293103228
 30
0.0
 10
142.2900956756359
 20
58.97251366978022
 30
0.0
 10
141.8045107708874
 20
58.98269531500455
 30
0.0
 10
141.3217309004567
 20
58.99310185181741
 30
0.0
 10
141.0042432065554
 20
59.00021017846031
 30
0.0
 10
140.8450646184629
 20
59.0037740753308
 30
0.0
  0
LINE
  5
D3
330
1F
100
AcDbEntity
  8
1
  6
SLD-Gestrichelt
 62
   131
420
  8454143
370
     0
100
AcDbLine
 10
147.7743146966
 20
59.2682214798
 30
0.0
 11
147.7743146966
 21
58.8762409737
 31
0.0
  0
ELLIPSE
  5
D4
330
1F
100
AcDbEntity
  8
1
  6
SLD-Gestrichelt
 62
   131
420
  8454143
370
     0
100
AcDbEllipse
 10
135.6763489133
 20
58.6504213216
 30
0.0
 11
6.999999918620688
 21
-0.04476455070275165
 31
0.0
210
0.0
220
0.0
230
1.0
 40
0.023844417
 41
5.613562675428541
 42
6.018048253619336
  0
LINE
  5
D5
330
1F
100
AcDbEntity
  8
1
  6
SLD-Gestrichelt
 62
   131
420
  8454143
370
     0
100
AcDbLine
 10
145.2831285904
 20
58.494016626
 30
0.0
 11
142.4314653092
 21
58.5634834037
 31
0.0
  0
SPLINE
  5
D6
330
1F
100
AcDbEntity
  8
1
  6
SLD-Gestrichelt
 62
   131
420
  8454143
370
     0
100
AcDbSpline
210
0.0
220
0.0
230
1.0
 70
     8
 71
     3
 72
    17
 73
    13
 74
     0
 42
0.00000001
 43
0.00000001
 12
1.0
 22
0.0
 32
0.0
 13
1.0
 23
0.0
 33
0.0
 40
0.0
 40
0.0
 40
0.0
 40
0.0
 40
0.0625088569490046
 40
0.1250044973336243
 40
0.1875008459203233
 40
0.2500118270022945
 40
0.3749894267408606
 40
0.5000124217492039
 40
0.624950268988284
 40
0.7500085820053726
 40
0.8749567663189798
 40
1.0
 40
1.0
 40
1.0
 40
1.0
 10
141.1640782302576
 20
58.51172344038853
 30
0.0
 10
141.2853284832343
 20
58.50896725334583
 30
0.0
 10
141.5278033526324
 20
58.50345546201504
 30
0.0
 10
141.8961705310071
 20
58.49532312059145
 30
0.0
 10
142.2678576767146
 20
58.48729193460415
 30
0.0
 10
142.7681556049629
 20
58.47673456083791
 30
0.0
 10
143.4021273950367
 20
58.46381578391185
 30
0.0
 10
144.1757468191635
 20
58.44878112081633
 30
0.0
 10
144.9617918001524
 20
58.43421734472966
 30
0.0
 10
145.7594737670576
 20
58.42015693094205
 30
0.0
 10
146.5675828103098
 20
58.40655678289836
 30
0.0
 10
147.1146958612086
 20
58.39792842508472
 30
0.0
 10
147.3883563957272
 20
58.39361260588169
 30
0.0
  0
LINE
  5
D7
330
1F
100
AcDbEntity
  8
1
  6
SLD-Gestrichelt
 62
   131
420
  8454143
370
     0
100
AcDbLine
 10
147.3883556635
 20
58.3936126005
 30
0.0
 11
145.2831285904
 21
58.494016626
 31
0.0
  0
LINE
  5
D8
330
1F
100
AcDbEntity
  8
1
  6
SLD-Gestrichelt
 62
   131
420
  8454143
370
     0
100
AcDbLine
 10
140.8450646196
 20
59.0037741525
 30
0.0
 11
140.8450646196
 21
59.2682214798
 31
0.0
  0
SPLINE
  5
D9
330
1F
100
AcDbEntity
  8
1
  6
SLD-Gestrichelt
 62
   131
420
  8454143
370
     0
100
AcDbSpline
210
0.0
220
0.0
230
1.0
 70
     8
 71
     3
 72
     9
 73
     5
 74
     0
 42
0.00000001
 43
0.00000001
 12
1.0
 22
0.0
 32
0.0
 13
1.0
 23
0.0
 33
0.0
 40
0.0
 40
0.0
 40
0.0
 40
0.0
 40
0.4647533777040212
 40
1.0
 40
1.0
 40
1.0
 40
1.0
 10
140.8450613044416
 20
59.00377403783825
 30
0.0
 10
140.8961012909575
 20
58.92762632820367
 30
0.0
 10
141.0059229489904
 20
58.76378091408151
 30
0.0
 10
141.1089389934241
 20
58.59960046441527
 30
0.0
 10
141.1640779832496
 20
58.51172343328439
 30
0.0
  0
LINE
  5
DA
330
1F
100
AcDbEntity
  8
1
  6
SLD-Gestrichelt
 62
   131
420
  8454143
370
     0
100
AcDbLine
 10
140.4858239326
 20
59.2682214798
 30
0.0
 11
140.4858239326
 21
56.7682214798
 31
0.0
  0
LINE
  5
DB
330
1F
100
AcDbEntity
  8
1
  6
SLD-Gestrichelt
 62
   131
420
  8454143
370
     0
100
AcDbLine
 10
142.4858239326
 20
58.3651210647
 30
0.0
 11
145.0233098319
 21
58.3033076767
 31
0.0
  0
SPLINE
  5
DC
330
1F
100
AcDbEntity
  8
1
  6
SLD-Gestrichelt
 62
   131
420
  8454143
370
     0
100
AcDbSpline
210
0.0
220
0.0
230
1.0
 70
     8
 71
     3
 72
    10
 73
     6
 74
     0
 42
0.00000001
 43
0.00000001
 12
1.0
 22
0.0
 32
0.0
 13
1.0
 23
0.0
 33
0.0
 40
0.0
 40
0.0
 40
0.0
 40
0.0
 40
0.5
 40
0.5
 40
1.0
 40
1.0
 40
1.0
 40
1.0
 10
142.4314653092272
 20
58.56348340371918
 30
0.0
 10
142.4460009481144
 20
58.56466623403873
 30
0.0
 10
142.4596696466226
 20
58.54588514988345
 30
0.0
 10
142.4797822911989
 20
58.47387273880933
 30
0.0
 10
142.485823932639
 20
58.42071580093173
 30
0.0
 10
142.485823932639
 20
58.36512106472144
 30
0.0
  0
ELLIPSE
  5
DD
330
1F
100
AcDbEntity
  8
1
  6
SLD-Gestrichelt
 62
   131
420
  8454143
370
     0
100
AcDbEllipse
 10
145.2792402984
 20
58.2941411334
 30
0.0
 11
0.2552815287506291
 21
-0.02337943976903745
 31
0.0
210
0.0
220
0.0
230
1.0
 40
0.7790546877
 41
1.626830415778193
 42
3.212820094359828
  0
LINE
  5
DE
330
1F
100
AcDbEntity
  8
1
  6
SLD-Gestrichelt
 62
   131
420
  8454143
370
     0
100
AcDbLine
 10
145.0233098319
 20
56.833135283
 30
0.0
 11
142.4858239326
 21
56.7713218949
 31
0.0
  0
SPLINE
  5
DF
330
1F
100
AcDbEntity
  8
1
  6
SLD-Gestrichelt
 62
   131
420
  8454143
370
     0
100
AcDbSpline
210
0.0
220
0.0
230
1.0
 70
     8
 71
     3
 72
    10
 73
     6
 74
     0
 42
0.00000001
 43
0.00000001
 12
1.0
 22
0.0
 32
0.0
 13
1.0
 23
0.0
 33
0.0
 40
0.0
 40
0.0
 40
0.0
 40
0.0
 40
0.5
 40
0.5
 40
1.0
 40
1.0
 40
1.0
 40
1.0
 10
142.485823932639
 20
56.77132189491064
 30
0.0
 10
142.485823932639
 20
56.71581473527019
 30
0.0
 10
142.4797445929375
 20
56.66247795365944
 30
0.0
 10
142.4597504968117
 20
56.59080467248288
 30
0.0
 10
142.4459858975638
 20
56.57177795032435
 30
0.0
 10
142.4314653092272
 20
56.57295955591291
 30
0.0
  0
ELLIPSE
  5
E0
330
1F
100
AcDbEntity
  8
1
  6
SLD-Gestrichelt
 62
   131
420
  8454143
370
     0
100
AcDbEllipse
 10
145.2792402984
 20
56.8423018263
 30
0.0
 11
0.2552815287506291
 21
0.02337943976903745
 31
0.0
210
0.0
220
0.0
230
1.0
 40
0.7790546877
 41
3.07036521281981
 42
3.40352135039465
  0
LINE
  5
E1
330
1F
100
AcDbEntity
  8
1
  6
SLD-Gestrichelt
 62
   131
420
  8454143
370
     0
100
AcDbLine
 10
142.4858239326
 20
56.7713218949
 30
0.0
 11
142.4858239326
 21
58.3651210647
 31
0.0
  0
LINE
  5
E2
330
1F
100
AcDbEntity
  8
1
  6
SLD-Gestrichelt
 62
   131
420
  8454143
370
     0
100
AcDbLine
 10
145.0233098319
 20
58.3033076767
 30
0.0
 11
145.0233098319
 21
56.833135283
 31
0.0
  0
LINE
  5
E3
330
1F
100
AcDbEntity
  8
1
  6
SLD-Gestrichelt
 62
   131
420
  8454143
370
     0
100
AcDbLine
 10
136.3171219878
 20
58.4586527396
 30
0.0
 11
136.8078808803
 21
58.9498035425
 31
0.0
  0
LINE
  5
E4
330
1F
100
AcDbEntity
  8
1
  6
SLD-Gestrichelt
 62
   131
420
  8454143
370
     0
100
AcDbLine
 10
136.8127867523
 20
58.9590961612
 30
0.0
 11
136.8127867523
 21
59.2682214798
 31
0.0
  0
LINE
  5
E5
330
1F
100
AcDbEntity
  8
1
  6
SLD-Gestrichelt
 62
   131
420
  8454143
370
     0
100
AcDbLine
 10
145.7525816956
 20
56.7682214798
 30
0.0
 11
145.7525816956
 21
59.2682214798
 31
0.0
  0
LINE
  5
E6
330
1F
100
AcDbEntity
  8
1
  6
SLD-Gestrichelt
 62
   131
420
  8454143
370
     0
100
AcDbLine
 10
140.6525816956
 20
59.2682214798
 30
0.0
 11
140.6525816956
 21
56.7682214798
 31
0.0
  0
LINE
  5
E7
330
1F
100
AcDbEntity
  8
1
  6
SLD-Gestrichelt
 62
   131
420
  8454143
370
     0
100
AcDbLine
 10
145.2754894017
 20
58.4942918382
 30
0.0
 11
142.4331881345
 21
58.5635305564
 31
0.0
  0
DIMENSION
  5
E8
330
1F
100
AcDbEntity
  8
2
 62
     7
420
 16777215
100
AcDbDimension
  2
_D_2
 10
127.1907770538
 20
56.5682214798
 30
0.0
 11
127.1907770538
 21
48.9821102863
 31
0.0
 70
   160
  1
<>
 71
     2
 42
-1.0
 73
     0
 74
     0
 75
     0
  3
SLDDIMSTYLE1
100
AcDbAlignedDimension
 13
133.2045618917
 23
58.5682214798
 33
0.0
 14
133.2045618917
 24
56.5682214798
 34
0.0
 50
90.0
100
AcDbRotatedDimension
  0
DIMENSION
  5
F4
330
1F
100
AcDbEntity
  8
2
 62
     7
420
 16777215
100
AcDbDimension
  2
_D_3
 10
133.2045618917
 20
38.5619680048
 30
0.0
 11
122.3858116481
 21
38.5619680048
 31
0.0
 70
   160
  1
<>
 71
     2
 42
-1.0
 73
     0
 74
     0
 75
     0
  3
SLDDIMSTYLE1
100
AcDbAlignedDimension
 13
136.2241561633
 23
58.5117234465
 33
0.0
 14
133.2045618917
 24
58.5682214798
 34
0.0
100
AcDbRotatedDimension
  0
DIMENSION
  5
100
330
1F
100
AcDbEntity
  8
2
 62
     7
420
 16777215
100
AcDbDimension
  2
_D_4
 10
159.9311441005
 20
59.2682214798
 30
0.0
 11
159.9311441005
 21
70.0869717235
 31
0.0
 70
   160
  1
<>
 71
     2
 42
-1.0
 73
     0
 74
     0
 75
     0
  3
SLDDIMSTYLE1
100
AcDbAlignedDimension
 13
133.2045618917
 23
56.5682214798
 33
0.0
 14
136.3427793666
 24
59.2682214798
 34
0.0
 50
90.0
100
AcDbRotatedDimension
  0
ENDSEC
  0
SECTION
  2
OBJECTS
  0
DICTIONARY
  5
C
330
0
100
AcDbDictionary
281
     1
  3
ACAD_GROUP
350
D
  3
ACAD_LAYOUT
350
1A
  3
ACAD_MATERIAL
350
3B
  3
ACAD_MLEADERSTYLE
350
10D
  3
ACAD_MLINESTYLE
350
17
  3
ACAD_PLOTSETTINGS
350
19
  3
ACAD_PLOTSTYLENAME
350
E
  3
ACAD_TABLESTYLE
350
10C
  3
ACAD_VISUALSTYLE
350
2A
  0
DICTIONARY
  5
D
102
{ACAD_REACTORS
330
C
102
}
330
C
100
AcDbDictionary
281
     1
  0
DICTIONARY
  5
1A
102
{ACAD_REACTORS
330
C
102
}
330
C
100
AcDbDictionary
281
     1
  3
Layout1
350
1E
  3
Layout2
350
26
  3
Model
350
22
  0
DICTIONARY
  5
3B
102
{ACAD_REACTORS
330
C
102
}
330
C
100
AcDbDictionary
281
     1
  3
ByBlock
350
3D
  3
ByLayer
350
3C
  3
Global
350
3E
  0
DICTIONARY
  5
10D
102
{ACAD_REACTORS
330
C
102
}
330
C
100
AcDbDictionary
281
     1
  0
DICTIONARY
  5
17
102
{ACAD_REACTORS
330
C
102
}
330
C
100
AcDbDictionary
281
     1
  3
Standard
350
18
  0
DICTIONARY
  5
19
102
{ACAD_REACTORS
330
C
102
}
330
C
100
AcDbDictionary
281
     1
  0
ACDBDICTIONARYWDFLT
  5
E
102
{ACAD_REACTORS
330
C
102
}
330
C
100
AcDbDictionary
281
     1
  3
Normal
350
F
100
AcDbDictionaryWithDefault
340
F
  0
DICTIONARY
  5
10C
102
{ACAD_REACTORS
330
C
102
}
330
C
100
AcDbDictionary
281
     1
  0
DICTIONARY
  5
2A
102
{ACAD_REACTORS
330
C
102
}
330
C
100
AcDbDictionary
281
     1
  3
2dWireframe
350
2F
  3
3D Hidden
350
31
  3
3dWireframe
350
30
  3
Basic
350
32
  3
Brighten
350
36
  3
ColorChange
350
3A
  3
Conceptual
350
34
  3
Dim
350
35
  3
Facepattern
350
39
  3
Flat
350
2B
  3
FlatWithEdges
350
2C
  3
Gouraud
350
2D
  3
GouraudWithEdges
350
2E
  3
Linepattern
350
38
  3
Realistic
350
33
  3
Thicken
350
37
  0
LAYOUT
  5
1E
102
{ACAD_REACTORS
330
1A
102
}
330
1A
100
AcDbPlotSettings
  1

  2
none_device
  4

  6

 40
0.0
 41
0.0
 42
0.0
 43
0.0
 44
0.0
 45
0.0
 46
0.0
 47
0.0
 48
0.0
 49
0.0
140
0.0
141
0.0
142
1.0
143
1.0
 70
   688
 72
     0
 73
     0
 74
     5
  7

 75
    16
 76
     0
 77
     2
 78
   300
147
1.0
148
0.0
149
0.0
100
AcDbLayout
  1
Layout1
 70
     1
 71
     1
 10
0.0
 20
0.0
 11
420.0
 21
297.0
 12
0.0
 22
0.0
 32
0.0
 14
1.0000000000E+20
 24
1.0000000000E+20
 34
1.0000000000E+20
 15
-1.0000000000E+20
 25
-1.0000000000E+20
 35
-1.0000000000E+20
146
0.0
 13
0.0
 23
0.0
 33
0.0
 16
1.0
 26
0.0
 36
0.0
 17
0.0
 27
1.0
 37
0.0
 76
     0
330
1B
  0
LAYOUT
  5
26
102
{ACAD_REACTORS
330
1A
102
}
330
1A
100
AcDbPlotSettings
  1

  2
none_device
  4

  6

 40
0.0
 41
0.0
 42
0.0
 43
0.0
 44
0.0
 45
0.0
 46
0.0
 47
0.0
 48
0.0
 49
0.0
140
0.0
141
0.0
142
1.0
143
1.0
 70
   688
 72
     0
 73
     0
 74
     5
  7

 75
    16
 76
     0
 77
     2
 78
   300
147
1.0
148
0.0
149
0.0
100
AcDbLayout
  1
Layout2
 70
     1
 71
     2
 10
0.0
 20
0.0
 11
0.0
 21
0.0
 12
0.0
 22
0.0
 32
0.0
 14
0.0
 24
0.0
 34
0.0
 15
0.0
 25
0.0
 35
0.0
146
0.0
 13
0.0
 23
0.0
 33
0.0
 16
1.0
 26
0.0
 36
0.0
 17
0.0
 27
1.0
 37
0.0
 76
     0
330
23
  0
LAYOUT
  5
22
102
{ACAD_REACTORS
330
1A
102
}
330
1A
100
AcDbPlotSettings
  1

  2
none_device
  4

  6

 40
0.0
 41
0.0
 42
0.0
 43
0.0
 44
0.0
 45
0.0
 46
0.0
 47
0.0
 48
0.0
 49
0.0
140
0.0
141
0.0
142
1.0
143
1.0
 70
  1712
 72
     0
 73
     0
 74
     0
  7

 75
     0
 76
     0
 77
     2
 78
   300
147
1.0
148
0.0
149
0.0
100
AcDbLayout
  1
Model
 70
     1
 71
     0
 10
0.0
 20
0.0
 11
297.0
 21
210.0
 12
0.0
 22
0.0
 32
0.0
 14
0.0
 24
0.0
 34
0.0
 15
297.0
 25
210.0
 35
0.0
146
0.0
 13
0.0
 23
0.0
 33
0.0
 16
1.0
 26
0.0
 36
0.0
 17
0.0
 27
1.0
 37
0.0
 76
     0
330
1F
331
29
  0
MATERIAL
  5
3D
102
{ACAD_REACTORS
330
3B
102
}
330
3B
100
AcDbMaterial
  1
ByBlock
 72
     1
 94
      127
  0
MATERIAL
  5
3C
102
{ACAD_REACTORS
330
3B
102
}
330
3B
100
AcDbMaterial
  1
ByLayer
 72
     1
 94
      127
  0
MATERIAL
  5
3E
102
{ACAD_REACTORS
330
3B
102
}
330
3B
100
AcDbMaterial
  1
Global
 72
     1
 94
      127
  0
MLINESTYLE
  5
18
102
{ACAD_REACTORS
330
17
102
}
330
17
100
AcDbMlineStyle
  2
Standard
 70
     0
  3

 62
   256
 51
90.0
 52
90.0
 71
     2
 49
0.5
 62
   256
  6
BYLAYER
 49
-0.5
 62
   256
  6
BYLAYER
  0
ACDBPLACEHOLDER
  5
F
102
{ACAD_REACTORS
330
E
102
}
330
E
  0
VISUALSTYLE
  5
2F
102
{ACAD_REACTORS
330
2A
102
}
330
2A
100
AcDbVisualStyle
  2
2dWireframe
 70
     4
 71
     0
 72
     2
 73
     0
 90
        0
 40
-0.6
 41
-30.0
 62
     5
 63
     7
421
 16777215
 74
     1
 91
        4
 64
     7
 65
   257
 75
     1
175
     1
 42
1.0
 92
        0
 66
   257
 43
1.0
 76
     1
 77
     6
 78
     2
 67
     7
 79
     5
170
     0
171
     0
290
     0
174
     0
 93
        1
 44
0.0
173
     0
291
     0
 45
0.0
  0
VISUALSTYLE
  5
31
102
{ACAD_REACTORS
330
2A
102
}
330
2A
100
AcDbVisualStyle
  2
3D Hidden
 70
     6
 71
     1
 72
     2
 73
     2
 90
        0
 40
-0.6
 41
-30.0
 62
     5
 63
     7
421
 16777215
 74
     2
 91
        2
 64
     7
 65
   257
 75
     2
175
     1
 42
40.0
 92
        0
 66
   257
 43
1.0
 76
     1
 77
     6
 78
     2
 67
     7
 79
     3
170
     0
171
     0
290
     0
174
     0
 93
        1
 44
0.0
173
     0
291
     0
 45
0.0
  0
VISUALSTYLE
  5
30
102
{ACAD_REACTORS
330
2A
102
}
330
2A
100
AcDbVisualStyle
  2
3dWireframe
 70
     5
 71
     0
 72
     2
 73
     0
 90
        0
 40
-0.6
 41
-30.0
 62
     5
 63
     7
421
 16777215
 74
     1
 91
        4
 64
     7
 65
   257
 75
     1
175
     1
 42
1.0
 92
        0
 66
   257
 43
1.0
 76
     1
 77
     6
 78
     2
 67
     7
 79
     5
170
     0
171
     0
290
     0
174
     0
 93
        1
 44
0.0
173
     0
291
     0
 45
0.0
  0
VISUALSTYLE
  5
32
102
{ACAD_REACTORS
330
2A
102
}
330
2A
100
AcDbVisualStyle
  2
Basic
 70
     7
 71
     1
 72
     0
 73
     1
 90
        0
 40
-0.6
 41
-30.0
 62
     5
 63
     7
421
 16777215
 74
     0
 91
        4
 64
     7
 65
   257
 75
     1
175
     1
 42
1.0
 92
        8
 66
     7
 43
1.0
 76
     1
 77
     6
 78
     2
 67
     7
 79
     5
170
     0
171
     0
290
     0
174
     0
 93
        1
 44
0.0
173
     0
291
     1
 45
0.0
  0
VISUALSTYLE
  5
36
102
{ACAD_REACTORS
330
2A
102
}
330
2A
100
AcDbVisualStyle
  2
Brighten
 70
    12
 71
     2
 72
     2
 73
     0
 90
        0
 40
-0.6
 41
-30.0
 62
     5
 63
     7
421
 16777215
 74
     1
 91
        4
 64
     7
 65
   257
 75
     1
175
     1
 42
1.0
 92
        8
 66
     7
 43
1.0
 76
     1
 77
     6
 78
     2
 67
     7
 79
     5
170
     0
171
     0
290
     0
174
     0
 93
        1
 44
50.0
173
     0
291
     1
 45
0.0
  0
VISUALSTYLE
  5
3A
102
{ACAD_REACTORS
330
2A
102
}
330
2A
100
AcDbVisualStyle
  2
ColorChange
 70
    16
 71
     2
 72
     2
 73
     3
 90
        0
 40
-0.6
 41
-30.0
 62
     5
 63
     8
421
  8421504
 74
     1
 91
        4
 64
     7
 65
   257
 75
     1
175
     1
 42
1.0
 92
        8
 66
     8
424
  8421504
 43
1.0
 76
     1
 77
     6
 78
     2
 67
     7
 79
     5
170
     0
171
     0
290
     0
174
     0
 93
        1
 44
0.0
173
     0
291
     1
 45
0.0
  0
VISUALSTYLE
  5
34
102
{ACAD_REACTORS
330
2A
102
}
330
2A
100
AcDbVisualStyle
  2
Conceptual
 70
     9
 71
     3
 72
     2
 73
     0
 90
        0
 40
-0.6
 41
-30.0
 62
     5
 63
     7
421
 16777215
 74
     2
 91
        2
 64
     7
 65
   257
 75
     1
175
     1
 42
40.0
 92
        8
 66
     7
 43
1.0
 76
     1
 77
     6
 78
     2
 67
     7
 79
     3
170
     0
171
     0
290
     0
174
     0
 93
        1
 44
0.0
173
     0
291
     0
 45
0.0
  0
VISUALSTYLE
  5
35
102
{ACAD_REACTORS
330
2A
102
}
330
2A
100
AcDbVisualStyle
  2
Dim
 70
    11
 71
     2
 72
     2
 73
     0
 90
        0
 40
-0.6
 41
-30.0
 62
     5
 63
     7
421
 16777215
 74
     1
 91
        4
 64
     7
 65
   257
 75
     1
175
     1
 42
1.0
 92
        8
 66
     7
 43
1.0
 76
     1
 77
     6
 78
     2
 67
     7
 79
     5
170
     0
171
     0
290
     0
174
     0
 93
        1
 44
-50.0
173
     0
291
     1
 45
0.0
  0
VISUALSTYLE
  5
39
102
{ACAD_REACTORS
330
2A
102
}
330
2A
100
AcDbVisualStyle
  2
Facepattern
 70
    15
 71
     2
 72
     2
 73
     0
 90
        0
 40
-0.6
 41
-30.0
 62
     5
 63
     7
421
 16777215
 74
     1
 91
        4
 64
     7
 65
   257
 75
     1
175
     1
 42
1.0
 92
        8
 66
     7
 43
1.0
 76
     1
 77
     6
 78
     2
 67
     7
 79
     5
170
     0
171
     0
290
     0
174
     0
 93
        1
 44
0.0
173
     0
291
     1
 45
0.0
  0
VISUALSTYLE
  5
2B
102
{ACAD_REACTORS
330
2A
102
}
330
2A
100
AcDbVisualStyle
  2
Flat
 70
     0
 71
     2
 72
     1
 73
     1
 90
        2
 40
-0.6
 41
30.0
 62
     5
 63
     7
421
 16777215
 74
     0
 91
        4
 64
     7
 65
   257
 75
     1
175
     1
 42
1.0
 92
        8
 66
     7
 43
1.0
 76
     1
 77
     6
 78
     2
 67
     7
 79
     5
170
     0
171
     0
290
     0
174
     0
 93
       13
 44
0.0
173
     0
291
     1
 45
0.0
  0
VISUALSTYLE
  5
2C
102
{ACAD_REACTORS
330
2A
102
}
330
2A
100
AcDbVisualStyle
  2
FlatWithEdges
 70
     1
 71
     2
 72
     1
 73
     1
 90
        2
 40
-0.6
 41
30.0
 62
     5
 63
     7
421
 16777215
 74
     1
 91
        4
 64
     7
 65
   257
 75
     1
175
     1
 42
1.0
 92
        0
 66
   257
 43
1.0
 76
     1
 77
     6
 78
     2
 67
     7
 79
     5
170
     0
171
     0
290
     0
174
     0
 93
       13
 44
0.0
173
     0
291
     1
 45
0.0
  0
VISUALSTYLE
  5
2D
102
{ACAD_REACTORS
330
2A
102
}
330
2A
100
AcDbVisualStyle
  2
Gouraud
 70
     2
 71
     2
 72
     2
 73
     1
 90
        2
 40
-0.6
 41
30.0
 62
     5
 63
     7
421
 16777215
 74
     0
 91
        4
 64
     7
 65
   257
 75
     1
175
     1
 42
1.0
 92
        0
 66
     7
 43
1.0
 76
     1
 77
     6
 78
     2
 67
     7
 79
     5
170
     0
171
     0
290
     0
174
     0
 93
       13
 44
0.0
173
     0
291
     1
 45
0.0
  0
VISUALSTYLE
  5
2E
102
{ACAD_REACTORS
330
2A
102
}
330
2A
100
AcDbVisualStyle
  2
GouraudWithEdges
 70
     3
 71
     2
 72
     2
 73
     1
 90
        2
 40
-0.6
 41
30.0
 62
     5
 63
     7
421
 16777215
 74
     1
 91
        4
 64
     7
 65
   257
 75
     1
175
     1
 42
1.0
 92
        0
 66
   257
 43
1.0
 76
     1
 77
     6
 78
     2
 67
     7
 79
     5
170
     0
171
     0
290
     0
174
     0
 93
       13
 44
0.0
173
     0
291
     1
 45
0.0
  0
VISUALSTYLE
  5
38
102
{ACAD_REACTORS
330
2A
102
}
330
2A
100
AcDbVisualStyle
  2
Linepattern
 70
    14
 71
     2
 72
     2
 73
     0
 90
        0
 40
-0.6
 41
-30.0
 62
     5
 63
     7
421
 16777215
 74
     1
 91
        4
 64
     7
 65
   257
 75
     7
175
     7
 42
1.0
 92
        8
 66
     7
 43
1.0
 76
     1
 77
     6
 78
     2
 67
     7
 79
     5
170
     0
171
     0
290
     0
174
     0
 93
        1
 44
0.0
173
     0
291
     1
 45
0.0
  0
VISUALSTYLE
  5
33
102
{ACAD_REACTORS
330
2A
102
}
330
2A
100
AcDbVisualStyle
  2
Realistic
 70
     8
 71
     2
 72
     2
 73
     0
 90
        0
 40
-0.6
 41
-30.0
 62
     5
 63
     7
421
 16777215
 74
     1
 91
        0
 64
     7
 65
   257
 75
     1
175
     1
 42
1.0
 92
        8
 66
     8
424
  7895160
 43
1.0
 76
     1
 77
     6
 78
     2
 67
     7
 79
     5
170
     0
171
     0
290
     0
174
     0
 93
       13
 44
0.0
173
     0
291
     0
 45
0.0
  0
VISUALSTYLE
  5
37
102
{ACAD_REACTORS
330
2A
102
}
330
2A
100
AcDbVisualStyle
  2
Thicken
 70
    13
 71
     2
 72
     2
 73
     0
 90
        0
 40
-0.6
 41
-30.0
 62
     5
 63
     7
421
 16777215
 74
     1
 91
        4
 64
     7
 65
   257
 75
     1
175
     1
 42
1.0
 92
       12
 66
     7
 43
1.0
 76
     1
 77
     6
 78
     2
 67
     7
 79
     5
170
     0
171
     0
290
     0
174
     0
 93
        1
 44
0.0
173
     0
291
     1
 45
0.0
  0
ENDSEC
  0
EOF
