  0
SECTION
  2
HEADER
  9
$ACADVER
  1
AC1021
  9
$ACADMAINTVER
 70
    25
  9
$DWGCODEPAGE
  3
ANSI_1252
  9
$INSBASE
 10
0.0
 20
0.0
 30
0.0
  9
$EXTMIN
 10
0.0
 20
0.0
 30
0.0
  9
$EXTMAX
 10
297.0
 20
210.0
 30
0.0
  9
$LIMMIN
 10
0.0
 20
0.0
  9
$LIMMAX
 10
297.0
 20
210.0
  9
$ORTHOMODE
 70
     0
  9
$REGENMODE
 70
     1
  9
$FILLMODE
 70
     1
  9
$QTEXTMODE
 70
     0
  9
$MIRRTEXT
 70
     1
  9
$LTSCALE
 40
1.0
  9
$ATTMODE
 70
     1
  9
$TEXTSIZE
 40
3.5
  9
$TRACEWID
 40
1.0
  9
$TEXTSTYLE
  7
Standard
  9
$CLAYER
  8
0
  9
$CELTYPE
  6
ByLayer
  9
$CECOLOR
 62
   256
  9
$CELTSCALE
 40
1.0
  9
$DISPSILH
 70
     0
  9
$DIMSCALE
 40
1.0
  9
$DIMASZ
 40
3.302
  9
$DIMEXO
 40
1.0
  9
$DIMDLI
 40
3.75
  9
$DIMRND
 40
0.0
  9
$DIMDLE
 40
0.0
  9
$DIMEXE
 40
1.0
  9
$DIMTP
 40
0.0
  9
$DIMTM
 40
0.0
  9
$DIMTXT
 40
3.5
  9
$DIMCEN
 40
2.5
  9
$DIMTSZ
 40
0.0
  9
$DIMTOL
 70
     0
  9
$DIMLIM
 70
     0
  9
$DIMTIH
 70
     1
  9
$DIMTOH
 70
     1
  9
$DIMSE1
 70
     0
  9
$DIMSE2
 70
     0
  9
$DIMTAD
 70
     1
  9
$DIMZIN
 70
     0
  9
$DIMBLK
  1

  9
$DIMASO
 70
     1
  9
$DIMSHO
 70
     1
  9
$DIMPOST
  1

  9
$DIMAPOST
  1

  9
$DIMALT
 70
     0
  9
$DIMALTD
 70
     3
  9
$DIMALTF
 40
0.0393700787
  9
$DIMLFAC
 40
1.0
  9
$DIMTOFL
 70
     1
  9
$DIMTVP
 40
0.0
  9
$DIMTIX
 70
     0
  9
$DIMSOXD
 70
     0
  9
$DIMSAH
 70
     0
  9
$DIMBLK1
  1

  9
$DIMBLK2
  1

  9
$DIMSTYLE
  2
ISO-25
  9
$DIMCLRD
 70
     0
  9
$DIMCLRE
 70
     0
  9
$DIMCLRT
 70
     0
  9
$DIMTFAC
 40
1.0
  9
$DIMGAP
 40
1.524
  9
$DIMJUST
 70
     0
  9
$DIMSD1
 70
     0
  9
$DIMSD2
 70
     0
  9
$DIMTOLJ
 70
     0
  9
$DIMTZIN
 70
     0
  9
$DIMALTZ
 70
     0
  9
$DIMALTTZ
 70
     0
  9
$DIMUPT
 70
     0
  9
$DIMDEC
 70
     2
  9
$DIMTDEC
 70
     2
  9
$DIMALTU
 70
     2
  9
$DIMALTTD
 70
     3
  9
$DIMTXSTY
  7
Standard
  9
$DIMAUNIT
 70
     0
  9
$DIMADEC
 70
     2
  9
$DIMALTRND
 40
0.0
  9
$DIMAZIN
 70
     0
  9
$DIMDSEP
 70
    44
  9
$DIMATFIT
 70
     3
  9
$DIMFRAC
 70
     0
  9
$DIMLDRBLK
  1

  9
$DIMLUNIT
 70
     2
  9
$DIMLWD
 70
    -2
  9
$DIMLWE
 70
    -2
  9
$DIMTMOVE
 70
     0
  9
$DIMFXL
 40
1.0
  9
$DIMFXLON
 70
     0
  9
$DIMJOGANG
 40
0.7853981634
  9
$DIMTFILL
 70
     0
  9
$DIMTFILLCLR
 70
     0
  9
$DIMARCSYM
 70
     0
  9
$DIMLTYPE
  6

  9
$DIMLTEX1
  6

  9
$DIMLTEX2
  6

  9
$LUNITS
 70
     2
  9
$LUPREC
 70
     2
  9
$SKETCHINC
 40
1.0
  9
$FILLETRAD
 40
10.0
  9
$AUNITS
 70
     0
  9
$AUPREC
 70
     2
  9
$MENU
  1
.
  9
$ELEVATION
 40
0.0
  9
$PELEVATION
 40
0.0
  9
$THICKNESS
 40
0.0
  9
$LIMCHECK
 70
     0
  9
$CHAMFERA
 40
10.0
  9
$CHAMFERB
 40
10.0
  9
$CHAMFERC
 40
20.0
  9
$CHAMFERD
 40
0.0
  9
$SKPOLY
 70
     0
  9
$TDCREATE
 40
2456553.603593391
  9
$TDUCREATE
 40
2456553.520260058
  9
$TDUPDATE
 40
2456553.603593935
  9
$TDUUPDATE
 40
2456553.520260602
  9
$TDINDWG
 40
0.0000000116
  9
$TDUSRTIMER
 40
0.0000000116
  9
$USRTIMER
 70
     1
  9
$ANGBASE
 50
0.0
  9
$ANGDIR
 70
     0
  9
$PDMODE
 70
     0
  9
$PDSIZE
 40
-1.0
  9
$PLINEWID
 40
0.0
  9
$SPLFRAME
 70
     0
  9
$SPLINETYPE
 70
     6
  9
$SPLINESEGS
 70
     8
  9
$HANDSEED
  5
110
  9
$SURFTAB1
 70
     6
  9
$SURFTAB2
 70
     6
  9
$SURFTYPE
 70
     6
  9
$SURFU
 70
     6
  9
$SURFV
 70
     6
  9
$UCSBASE
  2

  9
$UCSNAME
  2

  9
$UCSORG
 10
0.0
 20
0.0
 30
0.0
  9
$UCSXDIR
 10
1.0
 20
0.0
 30
0.0
  9
$UCSYDIR
 10
0.0
 20
1.0
 30
0.0
  9
$UCSORTHOREF
  2

  9
$UCSORTHOVIEW
 70
     0
  9
$UCSORGTOP
 10
0.0
 20
0.0
 30
0.0
  9
$UCSORGBOTTOM
 10
0.0
 20
0.0
 30
0.0
  9
$UCSORGLEFT
 10
0.0
 20
0.0
 30
0.0
  9
$UCSORGRIGHT
 10
0.0
 20
0.0
 30
0.0
  9
$UCSORGFRONT
 10
0.0
 20
0.0
 30
0.0
  9
$UCSORGBACK
 10
0.0
 20
0.0
 30
0.0
  9
$PUCSBASE
  2

  9
$PUCSNAME
  2

  9
$PUCSORG
 10
0.0
 20
0.0
 30
0.0
  9
$PUCSXDIR
 10
1.0
 20
0.0
 30
0.0
  9
$PUCSYDIR
 10
0.0
 20
1.0
 30
0.0
  9
$PUCSORTHOREF
  2

  9
$PUCSORTHOVIEW
 70
     0
  9
$PUCSORGTOP
 10
0.0
 20
0.0
 30
0.0
  9
$PUCSORGBOTTOM
 10
0.0
 20
0.0
 30
0.0
  9
$PUCSORGLEFT
 10
0.0
 20
0.0
 30
0.0
  9
$PUCSORGRIGHT
 10
0.0
 20
0.0
 30
0.0
  9
$PUCSORGFRONT
 10
0.0
 20
0.0
 30
0.0
  9
$PUCSORGBACK
 10
0.0
 20
0.0
 30
0.0
  9
$USERI1
 70
     0
  9
$USERI2
 70
     0
  9
$USERI3
 70
     0
  9
$USERI4
 70
     0
  9
$USERI5
 70
     0
  9
$USERR1
 40
0.0
  9
$USERR2
 40
0.0
  9
$USERR3
 40
0.0
  9
$USERR4
 40
0.0
  9
$USERR5
 40
0.0
  9
$WORLDVIEW
 70
     1
  9
$SHADEDGE
 70
     3
  9
$SHADEDIF
 70
    70
  9
$TILEMODE
 70
     1
  9
$MAXACTVP
 70
    64
  9
$PINSBASE
 10
0.0
 20
0.0
 30
0.0
  9
$PLIMCHECK
 70
     0
  9
$PEXTMIN
 10
1.0000000000E+20
 20
1.0000000000E+20
 30
1.0000000000E+20
  9
$PEXTMAX
 10
-1.0000000000E+20
 20
-1.0000000000E+20
 30
-1.0000000000E+20
  9
$PLIMMIN
 10
0.0
 20
0.0
  9
$PLIMMAX
 10
420.0
 20
297.0
  9
$UNITMODE
 70
     0
  9
$VISRETAIN
 70
     1
  9
$PLINEGEN
 70
     0
  9
$PSLTSCALE
 70
     1
  9
$TREEDEPTH
 70
  3020
  9
$CMLSTYLE
  2
Standard
  9
$CMLJUST
 70
     0
  9
$CMLSCALE
 40
20.0
  9
$PROXYGRAPHICS
 70
     1
  9
$MEASUREMENT
 70
     1
  9
$CELWEIGHT
370
    -1
  9
$ENDCAPS
280
     0
  9
$JOINSTYLE
280
     0
  9
$LWDISPLAY
290
     1
  9
$INSUNITS
 70
     4
  9
$HYPERLINKBASE
  1

  9
$STYLESHEET
  1

  9
$XEDIT
290
     1
  9
$CEPSNTYPE
380
     0
  9
$PSTYLEMODE
290
     1
  9
$FINGERPRINTGUID
  2
{74A4F757-321A-4D4F-B884-578A058B501D}
  9
$VERSIONGUID
  2
{FAEB1C32-E019-11D5-929B-00C0DF256EC4}
  9
$EXTNAMES
290
     1
  9
$PSVPSCALE
 40
0.0
  9
$OLESTARTUP
290
     0
  9
$SORTENTS
280
   127
  9
$INDEXCTL
280
     0
  9
$HIDETEXT
280
     1
  9
$XCLIPFRAME
290
     0
  9
$HALOGAP
280
     0
  9
$OBSCOLOR
 70
   257
  9
$OBSLTYPE
280
     0
  9
$INTERSECTIONDISPLAY
280
     0
  9
$INTERSECTIONCOLOR
 70
   257
  9
$DIMASSOC
280
     2
  9
$PROJECTNAME
  1

  9
$CAMERADISPLAY
290
     0
  9
$LENSLENGTH
 40
50.0
  9
$CAMERAHEIGHT
 40
0.0
  9
$STEPSPERSEC
 40
2.0
  9
$STEPSIZE
 40
6.0
  9
$3DDWFPREC
 40
2.0
  9
$PSOLWIDTH
 40
5.0
  9
$PSOLHEIGHT
 40
80.0
  9
$LOFTANG1
 40
1.5707963268
  9
$LOFTANG2
 40
1.5707963268
  9
$LOFTMAG1
 40
0.0
  9
$LOFTMAG2
 40
0.0
  9
$LOFTPARAM
 70
     7
  9
$LOFTNORMALS
280
     1
  9
$LATITUDE
 40
37.795
  9
$LONGITUDE
 40
-122.394
  9
$NORTHDIRECTION
 40
0.0
  9
$TIMEZONE
 70
 -8000
  9
$LIGHTGLYPHDISPLAY
280
     1
  9
$TILEMODELIGHTSYNCH
280
     1
  9
$SOLIDHIST
280
     1
  9
$SHOWHIST
280
     1
  9
$DWFFRAME
280
     2
  9
$DGNFRAME
280
     2
  9
$REALWORLDSCALE
290
     1
  9
$INTERFERECOLOR
 62
   256
  9
$CSHADOW
280
     0
  9
$SHADOWPLANELOCATION
 40
0.0
  0
ENDSEC
  0
SECTION
  2
CLASSES
  0
CLASS
  1
ACDBDICTIONARYWDFLT
  2
AcDbDictionaryWithDefault
  3
ObjectDBX Classes
 90
        0
 91
        4
280
     0
281
     0
  0
CLASS
  1
VISUALSTYLE
  2
AcDbVisualStyle
  3
ObjectDBX Classes
 90
     4095
 91
        4
280
     0
281
     0
  0
CLASS
  1
MATERIAL
  2
AcDbMaterial
  3
ObjectDBX Classes
 90
     1153
 91
        4
280
     0
281
     0
  0
ENDSEC
  0
SECTION
  2
TABLES
  0
TABLE
  2
VPORT
  5
8
330
0
100
AcDbSymbolTable
 70
     1
  0
VPORT
  5
29
330
8
100
AcDbSymbolTableRecord
100
AcDbViewportTableRecord
  2
*Active
 70
     0
 10
0.0
 20
0.0
 11
1.0
 21
1.0
 12
148.5
 22
105.0
 13
0.0
 23
0.0
 14
10.0
 24
10.0
 15
10.0
 25
10.0
 16
0.0
 26
0.0
 36
1.0
 17
0.0
 27
0.0
 37
0.0
 40
210.0
 41
1.4142857143
 42
50.0
 43
0.0
 44
0.0
 50
0.0
 51
0.0
 71
     0
 72
  2000
 73
     1
 74
     3
 75
     0
 76
     0
 77
     0
 78
     0
281
     0
 65
     1
110
0.0
120
0.0
130
0.0
111
1.0
121
0.0
131
0.0
112
0.0
122
1.0
132
0.0
 79
     0
146
0.0
 60
     3
 61
     5
292
     1
282
     1
141
0.0
142
0.0
 63
   250
  0
ENDTAB
  0
TABLE
  2
LTYPE
  5
5
330
0
100
AcDbSymbolTable
 70
     8
  0
LTYPE
  5
14
330
5
100
AcDbSymbolTableRecord
100
AcDbLinetypeTableRecord
  2
ByBlock
 70
     0
  3

 72
    65
 73
     0
 40
0.0
  0
LTYPE
  5
15
330
5
100
AcDbSymbolTableRecord
100
AcDbLinetypeTableRecord
  2
ByLayer
 70
     0
  3

 72
    65
 73
     0
 40
0.0
  0
LTYPE
  5
16
330
5
100
AcDbSymbolTableRecord
100
AcDbLinetypeTableRecord
  2
Continuous
 70
     0
  3
Solid line
 72
    65
 73
     0
 40
0.0
  0
LTYPE
  5
3F
330
5
100
AcDbSymbolTableRecord
100
AcDbLinetypeTableRecord
  2
SLD-Durchgehend
 70
     0
  3
SolidWorks Line Style
 72
    65
 73
     0
 40
0.0
  0
LTYPE
  5
40
330
5
100
AcDbSymbolTableRecord
100
AcDbLinetypeTableRecord
  2
SLD-Gestrichelt
 70
     0
  3
SolidWorks Line Style
 72
    65
 73
     2
 40
1.905
 49
1.27
 74
     0
 49
-0.635
 74
     0
  0
LTYPE
  5
41
330
5
100
AcDbSymbolTableRecord
100
AcDbLinetypeTableRecord
  2
SLD-Phantom
 70
     0
  3
SolidWorks Line Style
 72
    65
 73
     6
 40
12.7
 49
6.35
 74
     0
 49
-1.27
 74
     0
 49
1.27
 74
     0
 49
-1.27
 74
     0
 49
1.27
 74
     0
 49
-1.27
 74
     0
  0
LTYPE
  5
42
330
5
100
AcDbSymbolTableRecord
100
AcDbLinetypeTableRecord
  2
SLD-Kette
 70
     0
  3
SolidWorks Line Style
 72
    65
 73
     4
 40
10.16
 49
6.35
 74
     0
 49
-1.27
 74
     0
 49
1.27
 74
     0
 49
-1.27
 74
     0
  0
LTYPE
  5
43
330
5
100
AcDbSymbolTableRecord
100
AcDbLinetypeTableRecord
  2
SLD-Punktstrich
 70
     0
  3
SolidWorks Line Style
 72
    65
 73
     4
 40
19.05
 49
15.24
 74
     0
 49
-1.27
 74
     0
 49
1.27
 74
     0
 49
-1.27
 74
     0
  0
LTYPE
  5
44
330
5
100
AcDbSymbolTableRecord
100
AcDbLinetypeTableRecord
  2
SLD-Naht
 70
     0
  3
SolidWorks Line Style
 72
    65
 73
     2
 40
0.635
 49
0.0
 74
     0
 49
-0.635
 74
     0
  0
LTYPE
  5
45
330
5
100
AcDbSymbolTableRecord
100
AcDbLinetypeTableRecord
  2
SLD-Dicke-Dünne-Kette
 70
     0
  3
SolidWorks Line Style
 72
    65
 73
     4
 40
10.16
 49
6.35
 74
     0
 49
-1.27
 74
     0
 49
1.27
 74
     0
 49
-1.27
 74
     0
  0
ENDTAB
  0
TABLE
  2
LAYER
  5
2
330
0
100
AcDbSymbolTable
 70
     3
  0
LAYER
  5
10
330
2
100
AcDbSymbolTableRecord
100
AcDbLayerTableRecord
  2
0
 70
     0
 62
     7
  6
Continuous
370
    -3
390
F
347
3E
  0
LAYER
  5
46
330
2
100
AcDbSymbolTableRecord
100
AcDbLayerTableRecord
  2
1
 70
     0
 62
     4
  6
Continuous
370
    -1
390
F
347
3E
  0
LAYER
  5
47
330
2
100
AcDbSymbolTableRecord
100
AcDbLayerTableRecord
  2
2
 70
     0
 62
     7
  6
SLD-Durchgehend
370
    -3
390
F
347
3E
  0
ENDTAB
  0
TABLE
  2
STYLE
  5
3
330
0
100
AcDbSymbolTable
 70
     2
  0
STYLE
  5
11
330
3
100
AcDbSymbolTableRecord
100
AcDbTextStyleTableRecord
  2
Standard
 70
     0
 40
0.0
 41
1.0
 50
0.0
 71
     0
 42
3.5
  3
txt
  4

  0
STYLE
  5
E4
330
3
100
AcDbSymbolTableRecord
100
AcDbTextStyleTableRecord
  2
SLDTEXTSTYLE0
 70
     0
 40
0.0
 41
0.75
 50
0.0
 71
     0
 42
0.2
  3
TXT
  4

  0
ENDTAB
  0
TABLE
  2
VIEW
  5
6
330
0
100
AcDbSymbolTable
 70
     0
  0
ENDTAB
  0
TABLE
  2
UCS
  5
7
330
0
100
AcDbSymbolTable
 70
     0
  0
ENDTAB
  0
TABLE
  2
APPID
  5
9
330
0
100
AcDbSymbolTable
 70
     1
  0
APPID
  5
12
330
9
100
AcDbSymbolTableRecord
100
AcDbRegAppTableRecord
  2
ACAD
 70
     0
  0
ENDTAB
  0
TABLE
  2
DIMSTYLE
  5
A
330
0
100
AcDbSymbolTable
 70
     2
100
AcDbDimStyleTable
  0
DIMSTYLE
105
27
330
A
100
AcDbSymbolTableRecord
100
AcDbDimStyleTableRecord
  2
ISO-25
 70
     0
 41
2.5
 42
0.625
 43
3.75
 44
1.25
 73
     0
 74
     0
 77
     1
 78
     8
140
2.5
141
2.5
143
0.0393700787
147
0.625
171
     3
172
     1
178
     0
271
     2
272
     2
274
     3
278
    44
283
     0
284
     8
340
11
  0
DIMSTYLE
105
E5
102
{ACAD_REACTORS
330
E3
330
EF
330
F9
330
103
102
}
330
A
100
AcDbSymbolTableRecord
100
AcDbDimStyleTableRecord
  2
SLDDIMSTYLE0
 70
     0
 41
3.302
 44
0.0
 45
0.000000001
 73
     0
 74
     0
 77
     1
 78
    12
 79
     3
140
3.5
147
0.875
173
     1
178
     0
271
     2
272
     2
276
     2
284
    12
340
E4
  0
ENDTAB
  0
TABLE
  2
BLOCK_RECORD
  5
1
330
0
100
AcDbSymbolTable
 70
     5
  0
BLOCK_RECORD
  5
1F
330
1
100
AcDbSymbolTableRecord
100
AcDbBlockTableRecord
  2
*Model_Space
340
22
 70
     0
280
     1
281
     0
  0
BLOCK_RECORD
  5
1B
330
1
100
AcDbSymbolTableRecord
100
AcDbBlockTableRecord
  2
*Paper_Space
340
1E
 70
     0
280
     1
281
     0
  0
BLOCK_RECORD
  5
23
330
1
100
AcDbSymbolTableRecord
100
AcDbBlockTableRecord
  2
*Paper_Space0
340
26
 70
     0
280
     1
281
     0
  0
BLOCK_RECORD
  5
E6
330
1
100
AcDbSymbolTableRecord
100
AcDbBlockTableRecord
  2
_D
340
0
 70
     0
280
     1
281
     0
  0
BLOCK_RECORD
  5
F0
330
1
100
AcDbSymbolTableRecord
100
AcDbBlockTableRecord
  2
_D_1
340
0
 70
     0
280
     1
281
     0
  0
BLOCK_RECORD
  5
FA
330
1
100
AcDbSymbolTableRecord
100
AcDbBlockTableRecord
  2
_D_2
340
0
 70
     0
280
     1
281
     0
  0
BLOCK_RECORD
  5
104
330
1
100
AcDbSymbolTableRecord
100
AcDbBlockTableRecord
  2
_D_3
340
0
 70
     0
280
     1
281
     0
  0
ENDTAB
  0
ENDSEC
  0
SECTION
  2
BLOCKS
  0
BLOCK
  5
20
330
1F
100
AcDbEntity
  8
0
100
AcDbBlockBegin
  2
*Model_Space
 70
     0
 10
0.0
 20
0.0
 30
0.0
  3
*Model_Space
  1

  0
ENDBLK
  5
21
330
1F
100
AcDbEntity
  8
0
100
AcDbBlockEnd
  0
BLOCK
  5
1C
330
1B
100
AcDbEntity
 67
     1
  8
0
100
AcDbBlockBegin
  2
*Paper_Space
 70
     0
 10
0.0
 20
0.0
 30
0.0
  3
*Paper_Space
  1

  0
ENDBLK
  5
1D
330
1B
100
AcDbEntity
 67
     1
  8
0
100
AcDbBlockEnd
  0
BLOCK
  5
24
330
23
100
AcDbEntity
  8
0
100
AcDbBlockBegin
  2
*Paper_Space0
 70
     0
 10
0.0
 20
0.0
 30
0.0
  3
*Paper_Space0
  1

  0
ENDBLK
  5
25
330
23
100
AcDbEntity
  8
0
100
AcDbBlockEnd
  0
BLOCK
  5
E7
330
E6
100
AcDbEntity
  8
0
100
AcDbBlockBegin
  2
_D
 70
     0
 10
0.0
 20
0.0
 30
0.0
  3
_D
  1

  0
SOLID
  5
E9
330
E6
100
AcDbEntity
  8
2
 62
     7
420
 16777215
100
AcDbTrace
 10
-0.0009770333
 20
56.1748747789
 30
0.0
 11
3.3010229667
 21
55.6668747789
 31
0.0
 12
3.3010229667
 22
56.6828747789
 32
0.0
 13
3.3010229667
 23
56.6828747789
 33
0.0
  0
SOLID
  5
EA
330
E6
100
AcDbEntity
  8
2
 62
     7
420
 16777215
100
AcDbTrace
 10
66.9916944837
 20
56.1748747789
 30
0.0
 11
63.6896944837
 21
56.6828747789
 31
0.0
 12
63.6896944837
 22
55.6668747789
 32
0.0
 13
63.6896944837
 23
55.6668747789
 33
0.0
  0
LINE
  5
EB
330
E6
100
AcDbEntity
  8
2
 62
     7
420
 16777215
100
AcDbLine
 10
-0.0009770333
 20
32.4997717012
 30
0.0
 11
-0.0009770333
 21
57.1748747789
 31
0.0
  0
LINE
  5
EC
330
E6
100
AcDbEntity
  8
2
 62
     7
420
 16777215
100
AcDbLine
 10
66.9916944837
 20
45.1747717012
 30
0.0
 11
66.9916944837
 21
57.1748747789
 31
0.0
  0
LINE
  5
ED
330
E6
100
AcDbEntity
  8
2
 62
     7
420
 16777215
100
AcDbLine
 10
-0.0009770333
 20
56.1748747789
 30
0.0
 11
66.9916944837
 21
56.1748747789
 31
0.0
  0
MTEXT
  5
EE
330
E6
100
AcDbEntity
  8
2
 62
     7
420
 16777215
100
AcDbMText
 10
26.2547336269
 20
60.6866116935
 30
0.002328483
 40
3.5
 41
0.0
 46
0.0
 71
     1
 72
     1
  1
66,99
  7
SLDTEXTSTYLE0
 73
     1
 44
1.0
  0
ENDBLK
  5
E8
330
E6
100
AcDbEntity
  8
0
100
AcDbBlockEnd
  0
BLOCK
  5
F1
330
F0
100
AcDbEntity
  8
0
100
AcDbBlockBegin
  2
_D_1
 70
     0
 10
0.0
 20
0.0
 30
0.0
  3
_D_1
  1

  0
SOLID
  5
F3
330
F0
100
AcDbEntity
  8
2
 62
     7
420
 16777215
100
AcDbTrace
 10
-0.0009770333
 20
50.1748747789
 30
0.0
 11
3.3010229667
 21
49.6668747789
 31
0.0
 12
3.3010229667
 22
50.6828747789
 32
0.0
 13
3.3010229667
 23
50.6828747789
 33
0.0
  0
SOLID
  5
F4
330
F0
100
AcDbEntity
  8
2
 62
     7
420
 16777215
100
AcDbTrace
 10
41.9990229667
 20
50.1748747789
 30
0.0
 11
38.6970229667
 21
50.6828747789
 31
0.0
 12
38.6970229667
 22
49.6668747789
 32
0.0
 13
38.6970229667
 23
49.6668747789
 33
0.0
  0
LINE
  5
F5
330
F0
100
AcDbEntity
  8
2
 62
     7
420
 16777215
100
AcDbLine
 10
-0.0009770333
 20
32.4997717012
 30
0.0
 11
-0.0009770333
 21
51.1748747789
 31
0.0
  0
LINE
  5
F6
330
F0
100
AcDbEntity
  8
2
 62
     7
420
 16777215
100
AcDbLine
 10
41.9990229667
 20
40.9053681205
 30
0.0
 11
41.9990229667
 21
51.1748747789
 31
0.0
  0
LINE
  5
F7
330
F0
100
AcDbEntity
  8
2
 62
     7
420
 16777215
100
AcDbLine
 10
-0.0009770333
 20
50.1748747789
 30
0.0
 11
41.9990229667
 21
50.1748747789
 31
0.0
  0
MTEXT
  5
F8
330
F0
100
AcDbEntity
  8
2
 62
     7
420
 16777215
100
AcDbMText
 10
16.9910366856
 20
54.6866116935
 30
0.002328483
 40
3.5
 41
0.0
 46
0.0
 71
     1
 72
     1
  1
42
  7
SLDTEXTSTYLE0
 73
     1
 44
1.0
  0
ENDBLK
  5
F2
330
F0
100
AcDbEntity
  8
0
100
AcDbBlockEnd
  0
BLOCK
  5
FB
330
FA
100
AcDbEntity
  8
0
100
AcDbBlockBegin
  2
_D_2
 70
     0
 10
0.0
 20
0.0
 30
0.0
  3
_D_2
  1

  0
SOLID
  5
FD
330
FA
100
AcDbEntity
  8
2
 62
     7
420
 16777215
100
AcDbTrace
 10
78.4917975615
 20
-0.0002282988
 30
0.0
 11
78.9997975615
 21
3.3017717012
 31
0.0
 12
77.9837975615
 22
3.3017717012
 32
0.0
 13
77.9837975615
 23
3.3017717012
 33
0.0
  0
SOLID
  5
FE
330
FA
100
AcDbEntity
  8
2
 62
     7
420
 16777215
100
AcDbTrace
 10
78.4917975615
 20
38.6747717012
 30
0.0
 11
77.9837975615
 21
35.3727717012
 31
0.0
 12
78.9997975615
 22
35.3727717012
 32
0.0
 13
78.9997975615
 23
35.3727717012
 33
0.0
  0
LINE
  5
FF
330
FA
100
AcDbEntity
  8
2
 62
     7
420
 16777215
100
AcDbLine
 10
0.9990229667
 20
-0.0002282988
 30
0.0
 11
79.4917975615
 21
-0.0002282988
 31
0.0
  0
LINE
  5
100
330
FA
100
AcDbEntity
  8
2
 62
     7
420
 16777215
100
AcDbLine
 10
67.4916944837
 20
38.6747717012
 30
0.0
 11
79.4917975615
 21
38.6747717012
 31
0.0
  0
LINE
  5
101
330
FA
100
AcDbEntity
  8
2
 62
     7
420
 16777215
100
AcDbLine
 10
78.4917975615
 20
-0.0002282988
 30
0.0
 11
78.4917975615
 21
38.6747717012
 31
0.0
  0
MTEXT
  5
102
330
FA
100
AcDbEntity
  8
2
 62
     7
420
 16777215
100
AcDbMText
 10
73.980060647
 20
12.0966466029
 30
0.002328483
 40
3.5
 41
0.0
 46
0.0
 71
     1
 72
     1
  1
38,68
  7
SLDTEXTSTYLE0
 11
3.169856808907806E-15
 21
1.0
 31
0.0
 73
     1
 44
1.0
  0
ENDBLK
  5
FC
330
FA
100
AcDbEntity
  8
0
100
AcDbBlockEnd
  0
BLOCK
  5
105
330
104
100
AcDbEntity
  8
0
100
AcDbBlockBegin
  2
_D_3
 70
     0
 10
0.0
 20
0.0
 30
0.0
  3
_D_3
  1

  0
SOLID
  5
107
330
104
100
AcDbEntity
  8
2
 62
     7
420
 16777215
100
AcDbTrace
 10
-38.2606177509
 20
31.4997717012
 30
0.0
 11
-38.7686177509
 21
28.1977717012
 31
0.0
 12
-37.7526177509
 22
28.1977717012
 32
0.0
 13
-37.7526177509
 23
28.1977717012
 33
0.0
  0
SOLID
  5
108
330
104
100
AcDbEntity
  8
2
 62
     7
420
 16777215
100
AcDbTrace
 10
-38.2606177509
 20
-31.5002282988
 30
0.0
 11
-37.7526177509
 21
-28.1982282988
 31
0.0
 12
-38.7686177509
 22
-28.1982282988
 32
0.0
 13
-38.7686177509
 23
-28.1982282988
 33
0.0
  0
LINE
  5
109
330
104
100
AcDbEntity
  8
2
 62
     7
420
 16777215
100
AcDbLine
 10
-1.0009770333
 20
31.4997717012
 30
0.0
 11
-39.2606177509
 21
31.4997717012
 31
0.0
  0
LINE
  5
10A
330
104
100
AcDbEntity
  8
2
 62
     7
420
 16777215
100
AcDbLine
 10
-1.0009770333
 20
-31.5002282988
 30
0.0
 11
-39.2606177509
 21
-31.5002282988
 31
0.0
  0
LINE
  5
10B
330
104
100
AcDbEntity
  8
2
 62
     7
420
 16777215
100
AcDbLine
 10
-38.2606177509
 20
31.4997717012
 30
0.0
 11
-38.2606177509
 21
-31.5002282988
 31
0.0
  0
MTEXT
  5
10C
330
104
100
AcDbEntity
  8
2
 62
     7
420
 16777215
100
AcDbMText
 10
-42.7723548401
 20
-6.647433279
 30
0.002328483
 40
3.5
 41
0.0
 46
0.0
 71
     1
 72
     1
  1
%%c
  7
SLDTEXTSTYLE0
 11
-7.044195017643634E-15
 21
1.0
 31
0.0
 73
     1
 44
1.0
  0
MTEXT
  5
10D
330
104
100
AcDbEntity
  8
2
 62
     7
420
 16777215
100
AcDbMText
 10
-42.8258270167
 20
-1.3689958806
 30
0.002328483
 40
3.5
 41
0.0
 46
0.0
 71
     1
 72
     1
  1
63
  7
SLDTEXTSTYLE0
 11
-7.044195017643634E-15
 21
1.0
 31
0.0
 73
     1
 44
1.0
  0
ENDBLK
  5
106
330
104
100
AcDbEntity
  8
0
100
AcDbBlockEnd
  0
ENDSEC
  0
SECTION
  2
ENTITIES
  0
LINE
  5
48
330
1F
100
AcDbEntity
  8
1
 62
     4
420
    65535
100
AcDbLine
 10
-0.0009770333
 20
-31.5002282988
 30
0.0
 11
4.9990229667
 21
-31.5002282988
 31
0.0
  0
LINE
  5
49
330
1F
100
AcDbEntity
  8
1
 62
     4
420
    65535
100
AcDbLine
 10
4.9975916495
 20
31.4997717012
 30
0.0
 11
-0.0009770333
 21
31.4997717012
 31
0.0
  0
ARC
  5
4A
330
1F
100
AcDbEntity
  8
1
 62
     4
420
    65535
100
AcDbCircle
 10
40.9990229667
 20
27.2997717012
 30
0.0
 40
1.0
100
AcDbArc
 50
270.0
 51
0.0
  0
LINE
  5
4B
330
1F
100
AcDbEntity
  8
1
 62
     4
420
    65535
100
AcDbLine
 10
26.4318788575
 20
-26.3002282988
 30
0.0
 11
41.1709193377
 21
-26.3002282988
 31
0.0
  0
LINE
  5
4C
330
1F
100
AcDbEntity
  8
1
 62
     4
420
    65535
100
AcDbLine
 10
40.9990229667
 20
26.2997717012
 30
0.0
 11
26.4318788575
 21
26.2997717012
 31
0.0
  0
LINE
  5
4D
330
1F
100
AcDbEntity
  8
1
 62
     4
420
    65535
100
AcDbLine
 10
-13.2410950841
 20
23.6581290032
 30
0.0
 11
-25.9009770334
 21
23.0267095284
 31
0.0
  0
LINE
  5
4E
330
1F
100
AcDbEntity
  8
1
 62
     4
420
    65535
100
AcDbLine
 10
-0.0009770333
 20
24.3184881139
 30
0.0
 11
-4.8000669318
 21
24.0791305247
 31
0.0
  0
LINE
  5
4F
330
1F
100
AcDbEntity
  8
1
 62
     4
420
    65535
100
AcDbLine
 10
-4.8022866732
 20
-24.0794764113
 30
0.0
 11
-0.0009770333
 21
-24.3189447115
 31
0.0
  0
LINE
  5
50
330
1F
100
AcDbEntity
  8
1
 62
     4
420
    65535
100
AcDbLine
 10
-21.9009770333
 20
-23.2266686102
 30
0.0
 11
-13.2379077191
 21
-23.6587445725
 31
0.0
  0
LINE
  5
51
330
1F
100
AcDbEntity
  8
1
 62
     4
420
    65535
100
AcDbLine
 10
57.1425018727
 20
14.1514818784
 30
0.0
 11
58.2650493275
 21
14.8259764371
 31
0.0
  0
ARC
  5
52
330
1F
100
AcDbEntity
  8
1
 62
     4
420
    65535
100
AcDbCircle
 10
53.0319026263
 20
18.681385054
 30
0.0
 40
5.000000000189717
100
AcDbArc
 50
62.1277776805
 51
70.9703566006
  0
ARC
  5
53
330
1F
100
AcDbEntity
  8
1
 62
     4
420
    65535
100
AcDbCircle
 10
53.0319026263
 20
18.681385054
 30
0.0
 40
5.000000000189678
100
AcDbArc
 50
331.0956134963
 51
359.8722223196
  0
ARC
  5
54
330
1F
100
AcDbEntity
  8
1
 62
     4
420
    65535
100
AcDbCircle
 10
-23.3009770333
 20
-22.2702282988
 30
0.0
 40
1.399999999999999
100
AcDbArc
 50
41.3625504683
 51
90.0
  0
LINE
  5
55
330
1F
100
AcDbEntity
  8
1
 62
     4
420
    65535
100
AcDbLine
 10
-30.0009770333
 20
-20.8702282988
 30
0.0
 11
-23.3009770333
 21
-20.8702282988
 31
0.0
  0
LINE
  5
56
330
1F
100
AcDbEntity
  8
1
 62
     4
420
    65535
100
AcDbLine
 10
-31.9992849755
 20
-19.716504672
 30
0.0
 11
-30.0009770333
 21
-20.8702282987
 31
0.0
  0
ARC
  5
57
330
1F
100
AcDbEntity
  8
1
 62
     4
420
    65535
100
AcDbCircle
 10
-27.3009770333
 20
22.2697717012
 30
0.0
 40
1.399999999999999
100
AcDbArc
 50
270.0
 51
302.8883266078
  0
LINE
  5
58
330
1F
100
AcDbEntity
  8
1
 62
     4
420
    65535
100
AcDbLine
 10
-27.3009770333
 20
20.8697717012
 30
0.0
 11
-30.7094520744
 21
20.8697717012
 31
0.0
  0
LINE
  5
59
330
1F
100
AcDbEntity
  8
1
 62
     4
420
    65535
100
AcDbLine
 10
-30.8681440782
 20
20.8598603032
 30
0.0
 11
-31.7356973831
 21
20.3589781697
 31
0.0
  0
SPLINE
  5
5A
330
1F
100
AcDbEntity
  8
1
 62
     4
420
    65535
100
AcDbSpline
210
0.0
220
0.0
230
1.0
 70
     8
 71
     3
 72
     9
 73
     5
 74
     0
 42
0.00000001
 43
0.00000001
 12
1.0
 22
0.0
 32
0.0
 13
1.0
 23
0.0
 33
0.0
 40
0.0
 40
0.0
 40
0.0
 40
0.0
 40
0.5000793241810868
 40
1.0
 40
1.0
 40
1.0
 40
1.0
 10
25.99902296670253
 20
-26.40022829876031
 30
0.0
 10
26.06927497326118
 20
-26.37106898883961
 30
0.0
 10
26.20975669918274
 20
-26.31275961968415
 30
0.0
 10
26.36166052074444
 20
-26.3044048661979
 30
0.0
 10
26.43760038187904
 20
-26.30022815218874
 30
0.0
  0
SPLINE
  5
5B
330
1F
100
AcDbEntity
  8
1
 62
     4
420
    65535
100
AcDbSpline
210
0.0
220
0.0
230
1.0
 70
     8
 71
     3
 72
     9
 73
     5
 74
     0
 42
0.00000001
 43
0.00000001
 12
1.0
 22
0.0
 32
0.0
 13
1.0
 23
0.0
 33
0.0
 40
0.0
 40
0.0
 40
0.0
 40
0.0
 40
0.4999206758189158
 40
1.0
 40
1.0
 40
1.0
 40
1.0
 10
26.43760038187987
 20
26.29977155466813
 30
0.0
 10
26.36166052074513
 20
26.30394826867724
 30
0.0
 10
26.20975669918314
 20
26.31230302216342
 30
0.0
 10
26.06927497326132
 20
26.37061239131897
 30
0.0
 10
25.99902296670253
 20
26.39977170123969
 30
0.0
  0
LINE
  5
5C
330
1F
100
AcDbEntity
  8
1
 62
     4
420
    65535
100
AcDbLine
 10
-31.7356973832
 20
20.3589781698
 30
0.0
 11
-31.7408923798
 21
20.3559788372
 31
0.0
  0
SPLINE
  5
5D
330
1F
100
AcDbEntity
  8
1
 62
     4
420
    65535
100
AcDbSpline
210
0.0
220
0.0
230
1.0
 70
     8
 71
     3
 72
    22
 73
    18
 74
     0
 42
0.00000001
 43
0.00000001
 12
1.0
 22
0.0
 32
0.0
 13
1.0
 23
0.0
 33
0.0
 40
0.0
 40
0.0
 40
0.0
 40
0.0
 40
0.1249999999999999
 40
0.1249999999999999
 40
0.2499999999999998
 40
0.2499999999999998
 40
0.3749999999999997
 40
0.3749999999999997
 40
0.4999999999999996
 40
0.4999999999999996
 40
0.6249999999999994
 40
0.6249999999999994
 40
0.7499999999999993
 40
0.7499999999999993
 40
0.8749999999999997
 40
0.8749999999999997
 40
1.0
 40
1.0
 40
1.0
 40
1.0
 10
1.516694483702497
 20
7.545198772594714
 30
0.0
 10
1.516694483702497
 20
7.778797285986179
 30
0.0
 10
1.541583174540149
 20
8.00757701690491
 30
0.0
 10
1.638524944366091
 20
8.456073039694248
 30
0.0
 10
1.711901876422655
 20
8.678197200071626
 30
0.0
 10
1.902001102474123
 20
9.09728612248814
 30
0.0
 10
2.01819578138673
 20
9.294991029327456
 30
0.0
 10
2.293757235093369
 20
9.666660396756125
 30
0.0
 10
2.453075362189493
 20
9.83937617378431
 30
0.0
 10
2.801586292234818
 20
10.1441280104503
 30
0.0
 10
2.993592722272846
 20
10.27916932607224
 30
0.0
 10
3.408275744472
 20
10.50715477709063
 30
0.0
 10
3.625301104836828
 20
10.59733900020671
 30
0.0
 10
4.078804253605961
 20
10.73034332907251
 30
0.0
 10
4.317878255966044
 20
10.77280544157042
 30
0.0
 10
4.791760923392469
 20
10.80376478995519
 30
0.0
 10
5.029048173765417
 20
10.79350839752891
 30
0.0
 10
5.266694483702497
 20
10.75650691725501
 30
0.0
  0
LINE
  5
5E
330
1F
100
AcDbEntity
  8
1
 62
     4
420
    65535
100
AcDbLine
 10
1.5166944837
 20
-7.5456553697
 30
0.0
 11
1.5166944837
 21
7.5451987726
 31
0.0
  0
SPLINE
  5
5F
330
1F
100
AcDbEntity
  8
1
 62
     4
420
    65535
100
AcDbSpline
210
0.0
220
0.0
230
1.0
 70
     8
 71
     3
 72
    22
 73
    18
 74
     0
 42
0.00000001
 43
0.00000001
 12
1.0
 22
0.0
 32
0.0
 13
1.0
 23
0.0
 33
0.0
 40
0.0
 40
0.0
 40
0.0
 40
0.0
 40
0.125
 40
0.125
 40
0.25
 40
0.25
 40
0.375
 40
0.375
 40
0.5
 40
0.5
 40
0.625
 40
0.625
 40
0.75
 40
0.75
 40
0.875
 40
0.875
 40
1.0
 40
1.0
 40
1.0
 40
1.0
 10
5.2666944837025
 20
-10.75696351440966
 30
0.0
 10
5.029430791071865
 20
-10.7939054212499
 30
0.0
 10
4.792325212567071
 20
-10.8042176201036
 30
0.0
 10
4.318420218923793
 20
-10.77333798382914
 30
0.0
 10
4.079891067438255
 20
-10.73102291553517
 30
0.0
 10
3.626634860771194
 20
-10.5982820076629
 30
0.0
 10
3.407778667101419
 20
-10.50735852689865
 30
0.0
 10
2.993657895401021
 20
-10.27964129586917
 30
0.0
 10
2.803095179228221
 20
-10.14580840384534
 30
0.0
 10
2.453079071421342
 20
-9.839931236620448
 30
0.0
 10
2.293659120679633
 20
-9.66685551236584
 30
0.0
 10
2.019585854074454
 20
-9.297451056701625
 30
0.0
 10
1.9023972619613
 20
-9.098692816451997
 30
0.0
 10
1.711137884329753
 20
-8.67689263636094
 30
0.0
 10
1.639360766597261
 20
-8.459363543048672
 30
0.0
 10
1.542048490344401
 20
-8.01120560508977
 30
0.0
 10
1.516694483702497
 20
-7.778910406433035
 30
0.0
 10
1.516694483702497
 20
-7.545655369737419
 30
0.0
  0
SPLINE
  5
60
330
1F
100
AcDbEntity
  8
1
 62
     4
420
    65535
100
AcDbSpline
210
0.0
220
0.0
230
1.0
 70
     8
 71
     3
 72
    22
 73
    18
 74
     0
 42
0.00000001
 43
0.00000001
 12
1.0
 22
0.0
 32
0.0
 13
1.0
 23
0.0
 33
0.0
 40
0.0
 40
0.0
 40
0.0
 40
0.0
 40
0.125
 40
0.125
 40
0.25
 40
0.25
 40
0.375
 40
0.375
 40
0.5
 40
0.5
 40
0.625
 40
0.625
 40
0.75
 40
0.75
 40
0.875
 40
0.875
 40
1.0
 40
1.0
 40
1.0
 40
1.0
 10
9.016694483702496
 20
-7.545655369737421
 30
0.0
 10
9.016694483702496
 20
-7.779253883129554
 30
0.0
 10
8.991805792864731
 20
-8.008033614049864
 30
0.0
 10
8.89486402303869
 20
-8.456529636840596
 30
0.0
 10
8.82148709098208
 20
-8.6786537972187
 30
0.0
 10
8.631387864930558
 20
-9.097742719636605
 30
0.0
 10
8.51519318601793
 20
-9.295447626476617
 30
0.0
 10
8.23963173231126
 20
-9.667116993906625
 30
0.0
 10
8.080313605215137
 20
-9.839832770935438
 30
0.0
 10
7.731802675169815
 20
-10.14458460760257
 30
0.0
 10
7.539796245131791
 20
-10.27962592322504
 30
0.0
 10
7.125113222932688
 20
-10.50761137424431
 30
0.0
 10
6.908087862567893
 20
-10.59779559736076
 30
0.0
 10
6.454584713798818
 20
-10.73079992622709
 30
0.0
 10
6.21551071143878
 20
-10.77326203872517
 30
0.0
 10
5.741628044012441
 20
-10.80422138711004
 30
0.0
 10
5.504340793639539
 20
-10.79396499468372
 30
0.0
 10
5.2666944837025
 20
-10.75696351440966
 30
0.0
  0
LINE
  5
61
330
1F
100
AcDbEntity
  8
1
 62
     4
420
    65535
100
AcDbLine
 10
9.0166944837
 20
7.5451987726
 30
0.0
 11
9.0166944837
 21
-7.5456553697
 31
0.0
  0
SPLINE
  5
62
330
1F
100
AcDbEntity
  8
1
 62
     4
420
    65535
100
AcDbSpline
210
0.0
220
0.0
230
1.0
 70
     8
 71
     3
 72
    22
 73
    18
 74
     0
 42
0.00000001
 43
0.00000001
 12
1.0
 22
0.0
 32
0.0
 13
1.0
 23
0.0
 33
0.0
 40
0.0
 40
0.0
 40
0.0
 40
0.0
 40
0.125
 40
0.125
 40
0.25
 40
0.25
 40
0.375
 40
0.375
 40
0.5
 40
0.5
 40
0.625
 40
0.625
 40
0.75
 40
0.75
 40
0.875
 40
0.875
 40
1.0
 40
1.0
 40
1.0
 40
1.0
 10
5.266694483702497
 20
10.75650691725501
 30
0.0
 10
5.503958176333136
 20
10.79344882409509
 30
0.0
 10
5.741063754837931
 20
10.80376102294875
 30
0.0
 10
6.214968748481219
 20
10.77288138667441
 30
0.0
 10
6.453497899966758
 20
10.73056631838064
 30
0.0
 10
6.906754106633825
 20
10.59782541050894
 30
0.0
 10
7.125610300303606
 20
10.50690192974509
 30
0.0
 10
7.539731072004001
 20
10.27918469871658
 30
0.0
 10
7.730293788176799
 20
10.14535180669331
 30
0.0
 10
8.080309895983675
 20
9.839474639469673
 30
0.0
 10
8.239729846725385
 20
9.666398915215758
 30
0.0
 10
8.51380311333056
 20
9.29699445955297
 30
0.0
 10
8.63099170544371
 20
9.098236219304086
 30
0.0
 10
8.822251083075246
 20
8.676436039214554
 30
0.0
 10
8.894028200807742
 20
8.458906945903035
 30
0.0
 10
8.991340477060598
 20
8.010749007945627
 30
0.0
 10
9.016694483702498
 20
7.77845380928962
 30
0.0
 10
9.016694483702498
 20
7.545198772594714
 30
0.0
  0
SPLINE
  5
63
330
1F
100
AcDbEntity
  8
1
 62
     4
420
    65535
100
AcDbSpline
210
0.0
220
0.0
230
1.0
 70
     8
 71
     3
 72
    30
 73
    26
 74
     0
 42
0.00000001
 43
0.00000001
 12
1.0
 22
0.0
 32
0.0
 13
1.0
 23
0.0
 33
0.0
 40
0.0
 40
0.0
 40
0.0
 40
0.0
 40
0.1250000000000001
 40
0.1250000000000001
 40
0.1875000000000002
 40
0.1875000000000002
 40
0.2500000000000003
 40
0.2500000000000003
 40
0.3750000000000004
 40
0.3750000000000004
 40
0.4375000000000004
 40
0.4375000000000004
 40
0.5000000000000004
 40
0.5000000000000004
 40
0.6250000000000004
 40
0.6250000000000004
 40
0.6875000000000003
 40
0.6875000000000003
 40
0.7500000000000001
 40
0.7500000000000001
 40
0.8125
 40
0.8125
 40
0.8749999999999999
 40
0.8749999999999999
 40
1.0
 40
1.0
 40
1.0
 40
1.0
 10
4.999022966702547
 20
-31.48379057735262
 30
0.0
 10
4.999022966702547
 20
-31.46661555830936
 30
0.0
 10
5.051442971367968
 20
-31.43630623186898
 30
0.0
 10
5.204823398931246
 20
-31.37306438184653
 30
0.0
 10
5.268504404292412
 20
-31.34901769126905
 30
0.0
 10
5.421457223479316
 20
-31.29529893115915
 30
0.0
 10
5.511028146671844
 20
-31.2655510156299
 30
0.0
 10
5.812246273483718
 20
-31.17069004042362
 30
0.0
 10
6.057554092030213
 20
-31.09940121113854
 30
0.0
 10
6.491633877659515
 20
-30.98501304039583
 30
0.0
 10
6.648295903589981
 20
-30.94543582198589
 30
0.0
 10
6.980279035160645
 20
-30.86567813754586
 30
0.0
 10
7.154979158913301
 20
-30.82562879343259
 30
0.0
 10
7.704631819670706
 20
-30.70636717575902
 30
0.0
 10
8.104870310101274
 20
-30.62800460013797
 30
0.0
 10
8.758438945334191
 20
-30.5180288122898
 30
0.0
 10
8.984118708748834
 20
-30.48286334981317
 30
0.0
 10
9.443832686069195
 20
-30.41746926106687
 30
0.0
 10
9.67888730510918
 20
-30.38706433076981
 30
0.0
 10
10.15939775305773
 20
-30.33159955129749
 30
0.0
 10
10.40485316151695
 20
-30.30653858819477
 30
0.0
 10
10.90647315518239
 20
-30.26256069582039
 30
0.0
 10
11.16396775965879
 20
-30.24357501259006
 30
0.0
 10
11.94207971782577
 20
-30.19775290375108
 30
0.0
 10
12.46726550149338
 20
-30.18192297864874
 30
0.0
 10
12.99902296670253
 20
-30.18192297864874
 30
0.0
  0
LINE
  5
64
330
1F
100
AcDbEntity
  8
1
 62
     4
420
    65535
100
AcDbLine
 10
4.9990229667
 20
-31.5002282988
 30
0.0
 11
4.9990229667
 21
-31.4837905774
 31
0.0
  0
SPLINE
  5
65
330
1F
100
AcDbEntity
  8
1
 62
     4
420
    65535
100
AcDbSpline
210
0.0
220
0.0
230
1.0
 70
     8
 71
     3
 72
    28
 73
    24
 74
     0
 42
0.00000001
 43
0.00000001
 12
1.0
 22
0.0
 32
0.0
 13
1.0
 23
0.0
 33
0.0
 40
0.0
 40
0.0
 40
0.0
 40
0.0
 40
0.1250000000000005
 40
0.1250000000000005
 40
0.1875000000000006
 40
0.1875000000000006
 40
0.2500000000000007
 40
0.2500000000000007
 40
0.3750000000000008
 40
0.3750000000000008
 40
0.4375000000000009
 40
0.4375000000000009
 40
0.500000000000001
 40
0.500000000000001
 40
0.6250000000000007
 40
0.6250000000000007
 40
0.7500000000000004
 40
0.7500000000000004
 40
0.8125000000000003
 40
0.8125000000000003
 40
0.8750000000000002
 40
0.8750000000000002
 40
1.0
 40
1.0
 40
1.0
 40
1.0
 10
12.99902296670253
 20
30.46236669493639
 30
0.0
 10
12.46843074315328
 20
30.46236669493639
 30
0.0
 10
11.94715668961488
 20
30.4762556659384
 30
0.0
 10
11.17854132089538
 20
30.51576049908396
 30
0.0
 10
10.92456798229432
 20
30.53204137781035
 30
0.0
 10
10.42115844399164
 20
30.57045812049072
 30
0.0
 10
10.17154974873214
 20
30.59265206205768
 30
0.0
 10
9.446124847283182
 20
30.66554602266081
 30
0.0
 10
8.987713581989162
 20
30.72294071713791
 30
0.0
 10
8.337016556325858
 20
30.8171403902923
 30
0.0
 10
8.12525654418212
 20
30.85007459307808
 30
0.0
 10
7.720343552485897
 20
30.91681684607215
 30
0.0
 10
7.527462167456998
 20
30.95054904785083
 30
0.0
 10
6.97664045665985
 20
31.05139410982035
 30
0.0
 10
6.646239892626034
 20
31.11817000217331
 30
0.0
 10
6.061160369827647
 20
31.2433526240427
 30
0.0
 10
5.813879857913522
 20
31.30015080446339
 30
0.0
 10
5.513755463180487
 20
31.37125945790947
 30
0.0
 10
5.425273942540748
 20
31.39268811992984
 30
0.0
 10
5.271943755078518
 20
31.43031151057
 30
0.0
 10
5.206884366519771
 20
31.44656035690052
 30
0.0
 10
5.05128669202666
 20
31.48578795181899
 30
0.0
 10
4.999022966702547
 20
31.49947208073921
 30
0.0
 10
4.999022966702547
 20
31.49976684012821
 30
0.0
  0
LINE
  5
66
330
1F
100
AcDbEntity
  8
1
 62
     4
420
    65535
100
AcDbLine
 10
14.6215238957
 20
30.4623666949
 30
0.0
 11
12.9990229667
 21
30.4623666949
 31
0.0
  0
LINE
  5
67
330
1F
100
AcDbEntity
  8
1
 62
     4
420
    65535
100
AcDbLine
 10
14.621523895
 20
24.458461365
 30
0.0
 11
14.6215238957
 21
30.4623666949
 31
0.0
  0
LINE
  5
68
330
1F
100
AcDbEntity
  8
1
 62
     4
420
    65535
100
AcDbLine
 10
12.2446433124
 20
24.4584613636
 30
0.0
 11
14.621523895
 21
24.458461365
 31
0.0
  0
SPLINE
  5
69
330
1F
100
AcDbEntity
  8
1
 62
     4
420
    65535
100
AcDbSpline
210
0.0
220
0.0
230
1.0
 70
     8
 71
     3
 72
    20
 73
    16
 74
     0
 42
0.00000001
 43
0.00000001
 12
1.0
 22
0.0
 32
0.0
 13
1.0
 23
0.0
 33
0.0
 40
0.0
 40
0.0
 40
0.0
 40
0.0
 40
0.2499999999999999
 40
0.2499999999999999
 40
0.3749999999999999
 40
0.3749999999999999
 40
0.5
 40
0.5
 40
0.6250000000000001
 40
0.6250000000000001
 40
0.75
 40
0.75
 40
0.875
 40
0.875
 40
1.0
 40
1.0
 40
1.0
 40
1.0
 10
4.999022966702224
 20
19.84977170123945
 30
0.0
 10
5.24739670099029
 20
20.50363412953686
 30
0.0
 10
5.566966793335567
 20
21.10741991153403
 30
0.0
 10
6.189273026540247
 20
21.93425864770263
 30
0.0
 10
6.420697286971008
 20
22.19668728565555
 30
0.0
 10
6.941911626620723
 20
22.69334993976051
 30
0.0
 10
7.228532109255797
 20
22.92393681878206
 30
0.0
 10
7.848016850563402
 20
23.34049104336468
 30
0.0
 10
8.182317230050367
 20
23.52798884533219
 30
0.0
 10
8.907577702675157
 20
23.8593858229686
 30
0.0
 10
9.289492760065631
 20
23.99888981046387
 30
0.0
 10
10.08428093623731
 20
24.22434331793482
 30
0.0
 10
10.49843913044369
 20
24.31096942947848
 30
0.0
 10
11.36398547102507
 20
24.4289502183326
 30
0.0
 10
11.8018730860369
 20
24.45846136360693
 30
0.0
 10
12.24464331239151
 20
24.45846136360693
 30
0.0
  0
LINE
  5
6A
330
1F
100
AcDbEntity
  8
1
 62
     4
420
    65535
100
AcDbLine
 10
14.6215238957
 20
19.8497717012
 30
0.0
 11
4.9990229667
 21
19.8497717012
 31
0.0
  0
LINE
  5
6B
330
1F
100
AcDbEntity
  8
1
 62
     4
420
    65535
100
AcDbLine
 10
14.6215238957
 20
-30.1819229786
 30
0.0
 11
14.6215238957
 21
19.8497717012
 31
0.0
  0
LINE
  5
6C
330
1F
100
AcDbEntity
  8
1
 62
     4
420
    65535
100
AcDbLine
 10
12.9990229667
 20
-30.1819229786
 30
0.0
 11
14.6215238957
 21
-30.1819229786
 31
0.0
  0
LINE
  5
6D
330
1F
100
AcDbEntity
  8
1
 62
     4
420
    65535
100
AcDbLine
 10
-0.0009770333
 20
-0.0002282988
 30
0.0
 11
-0.0009770333
 21
31.4997717012
 31
0.0
  0
LINE
  5
6E
330
1F
100
AcDbEntity
  8
1
 62
     4
420
    65535
100
AcDbLine
 10
-0.0009770333
 20
-31.5002282988
 30
0.0
 11
-0.0009770333
 21
-0.0002282988
 31
0.0
  0
LINE
  5
6F
330
1F
100
AcDbEntity
  8
1
 62
     4
420
    65535
100
AcDbLine
 10
21.3765220431
 20
19.8497717012
 30
0.0
 11
21.376522043
 21
-30.1819229778
 31
0.0
  0
LINE
  5
70
330
1F
100
AcDbEntity
  8
1
 62
     4
420
    65535
100
AcDbLine
 10
25.9990229667
 20
19.8497717012
 30
0.0
 11
21.3765220431
 21
19.8497717012
 31
0.0
  0
LINE
  5
71
330
1F
100
AcDbEntity
  8
1
 62
     4
420
    65535
100
AcDbLine
 10
21.376522043
 20
-30.1819229778
 30
0.0
 11
25.9990229667
 21
-30.1819229786
 31
0.0
  0
LINE
  5
72
330
1F
100
AcDbEntity
  8
1
 62
     4
420
    65535
100
AcDbLine
 10
25.9990229667
 20
19.8497717012
 30
0.0
 11
25.9990229667
 21
-30.1819229786
 31
0.0
  0
SPLINE
  5
73
330
1F
100
AcDbEntity
  8
1
 62
     4
420
    65535
100
AcDbSpline
210
0.0
220
0.0
230
1.0
 70
     8
 71
     3
 72
     8
 73
     4
 74
     0
 42
0.00000001
 43
0.00000001
 12
1.0
 22
0.0
 32
0.0
 13
1.0
 23
0.0
 33
0.0
 40
0.0
 40
0.0
 40
0.0
 40
0.0
 40
1.0
 40
1.0
 40
1.0
 40
1.0
 10
21.37652204405788
 20
19.84977170241611
 30
0.0
 10
20.87564655538675
 20
19.84977170241613
 30
0.0
 10
20.38607487888394
 20
19.84977170123946
 30
0.0
 10
19.9115229667025
 20
19.84977170123947
 30
0.0
  0
SPLINE
  5
74
330
1F
100
AcDbEntity
  8
1
 62
     4
420
    65535
100
AcDbSpline
210
0.0
220
0.0
230
1.0
 70
     8
 71
     3
 72
     8
 73
     4
 74
     0
 42
0.00000001
 43
0.00000001
 12
1.0
 22
0.0
 32
0.0
 13
1.0
 23
0.0
 33
0.0
 40
0.0
 40
0.0
 40
0.0
 40
0.0
 40
0.0030356290272454
 40
0.0030356290272454
 40
0.0030356290272454
 40
0.0030356290272454
 10
19.91152296670251
 20
-27.52319747532441
 30
0.0
 10
20.39824757763423
 20
-28.41032367009793
 30
0.0
 10
20.88671441324253
 20
-29.29649527427611
 30
0.0
 10
21.37652204456345
 20
-30.18192297693725
 30
0.0
  0
LINE
  5
75
330
1F
100
AcDbEntity
  8
1
 62
     4
420
    65535
100
AcDbLine
 10
19.9115229667
 20
19.8497717012
 30
0.0
 11
19.9115229667
 21
-27.5231974753
 31
0.0
  0
SPLINE
  5
76
330
1F
100
AcDbEntity
  8
1
 62
     4
420
    65535
100
AcDbSpline
210
0.0
220
0.0
230
1.0
 70
     8
 71
     3
 72
     8
 73
     4
 74
     0
 42
0.00000001
 43
0.00000001
 12
1.0
 22
0.0
 32
0.0
 13
1.0
 23
0.0
 33
0.0
 40
0.0
 40
0.0
 40
0.0
 40
0.0
 40
1.0
 40
1.0
 40
1.0
 40
1.0
 10
16.08652297496469
 20
19.84977169894082
 30
0.0
 10
15.6119710645244
 20
19.8497716989408
 30
0.0
 10
15.12239938495161
 20
19.84977170123944
 30
0.0
 10
14.62152389813552
 20
19.84977170123944
 30
0.0
  0
LINE
  5
77
330
1F
100
AcDbEntity
  8
1
 62
     4
420
    65535
100
AcDbLine
 10
16.086522971
 20
-27.5231974884
 30
0.0
 11
16.0865229716
 21
19.8497717012
 31
0.0
  0
SPLINE
  5
78
330
1F
100
AcDbEntity
  8
1
 62
     4
420
    65535
100
AcDbSpline
210
0.0
220
0.0
230
1.0
 70
     8
 71
     3
 72
     8
 73
     4
 74
     0
 42
0.00000001
 43
0.00000001
 12
1.0
 22
0.0
 32
0.0
 13
1.0
 23
0.0
 33
0.0
 40
0.0000000000017977
 40
0.0000000000017977
 40
0.0000000000017977
 40
0.0000000000017977
 40
0.0030356290178901
 40
0.0030356290178901
 40
0.0030356290178901
 40
0.0030356290178901
 10
14.62152389588555
 20
-30.18192298082957
 30
0.0
 10
15.11133152722147
 20
-29.29649527816914
 30
0.0
 10
15.59979836457149
 20
-28.41032367494308
 30
0.0
 10
16.08652297551277
 20
-27.52319748016723
 30
0.0
  0
SPLINE
  5
79
330
1F
100
AcDbEntity
  8
1
 62
     4
420
    65535
100
AcDbSpline
210
0.0
220
0.0
230
1.0
 70
    24
 71
     3
 72
    14
 73
    10
 74
     0
 42
0.00000001
 43
0.00000001
 12
1.0
 22
0.0
 32
0.0
 13
1.0
 23
0.0
 33
0.0
 40
0.0
 40
0.0
 40
0.0
 40
0.0
 40
0.1250000000000006
 40
0.1250000000000006
 40
0.2500000000000013
 40
0.2500000000000013
 40
0.5000000000000026
 40
0.5000000000000026
 40
1.0
 40
1.0
 40
1.0
 40
1.0
 10
19.16152296670252
 20
-26.40022829876039
 30
0.0
 10
19.23139100964498
 20
-26.40022829876039
 30
0.0
 10
19.2948538255365
 20
-26.40022829876038
 30
0.0
 10
19.39704844813377
 20
-26.40022829876038
 30
0.0
 10
19.43801445026836
 20
-26.4002282987604
 30
0.0
 10
19.54667633620059
 20
-26.4002282987604
 30
0.0
 10
19.59900858190153
 20
-26.4002282987604
 30
0.0
 10
19.73502071078268
 20
-26.40022829876039
 30
0.0
 10
19.79396797180544
 20
-26.40022829876038
 30
0.0
 10
19.83628225092716
 20
-26.4002282987604
 30
0.0
  0
LINE
  5
7A
330
1F
100
AcDbEntity
  8
1
 62
     4
420
    65535
100
AcDbLine
 10
19.1615229667
 20
-26.4002282988
 30
0.0
 11
19.1615229667
 21
26.3997717012
 31
0.0
  0
SPLINE
  5
7B
330
1F
100
AcDbEntity
  8
1
 62
     4
420
    65535
100
AcDbSpline
210
0.0
220
0.0
230
1.0
 70
    24
 71
     3
 72
    12
 73
     8
 74
     0
 42
0.00000001
 43
0.00000001
 12
1.0
 22
0.0
 32
0.0
 13
1.0
 23
0.0
 33
0.0
 40
0.0
 40
0.0
 40
0.0
 40
0.0
 40
0.4999999999999911
 40
0.4999999999999911
 40
0.7499999999999956
 40
0.7499999999999956
 40
1.0
 40
1.0
 40
1.0
 40
1.0
 10
19.56154283771683
 20
26.39977170123961
 30
0.0
 10
19.51981882033645
 20
26.39977170123961
 30
0.0
 10
19.47264762903169
 20
26.39977170124013
 30
0.0
 10
19.37978150267508
 20
26.39977170124013
 30
0.0
 10
19.34427953009619
 20
26.39977170123963
 30
0.0
 10
19.26130356076139
 20
26.39977170123963
 30
0.0
 10
19.21248641475461
 20
26.39977170123961
 30
0.0
 10
19.16152296670253
 20
26.39977170123961
 30
0.0
  0
SPLINE
  5
7C
330
1F
100
AcDbEntity
  8
1
 62
     4
420
    65535
100
AcDbSpline
210
0.0
220
0.0
230
1.0
 70
     8
 71
     3
 72
     8
 73
     4
 74
     0
 42
0.00000001
 43
0.00000001
 12
1.0
 22
0.0
 32
0.0
 13
1.0
 23
0.0
 33
0.0
 40
0.0
 40
0.0
 40
0.0
 40
0.0
 40
1.0
 40
1.0
 40
1.0
 40
1.0
 10
19.56154283771734
 20
26.39977170124006
 30
0.0
 10
19.78083697721617
 20
26.54427946689759
 30
0.0
 10
19.9115229667019
 20
26.79970665062478
 30
0.0
 10
19.91152296670252
 20
27.0621130402645
 30
0.0
  0
SPLINE
  5
7D
330
1F
100
AcDbEntity
  8
1
 62
     4
420
    65535
100
AcDbSpline
210
0.0
220
0.0
230
1.0
 70
     8
 71
     3
 72
     8
 73
     4
 74
     0
 42
0.00000001
 43
0.00000001
 12
1.0
 22
0.0
 32
0.0
 13
1.0
 23
0.0
 33
0.0
 40
0.0
 40
0.0
 40
0.0
 40
0.0
 40
1.0
 40
1.0
 40
1.0
 40
1.0
 10
19.9115229667025
 20
20.06536725681667
 30
0.0
 10
19.9115229667025
 20
19.99311888971349
 30
0.0
 10
19.90630259463473
 20
19.92125171540422
 30
0.0
 10
19.89578012862204
 20
19.84977170123949
 30
0.0
  0
SPLINE
  5
7E
330
1F
100
AcDbEntity
  8
1
 62
     4
420
    65535
100
AcDbSpline
210
0.0
220
0.0
230
1.0
 70
     8
 71
     3
 72
     8
 73
     4
 74
     0
 42
0.00000001
 43
0.00000001
 12
1.0
 22
0.0
 32
0.0
 13
1.0
 23
0.0
 33
0.0
 40
0.0
 40
0.0
 40
0.0
 40
0.0
 40
1.0
 40
1.0
 40
1.0
 40
1.0
 10
16.10226580478298
 20
19.84977170123949
 30
0.0
 10
16.09174333877028
 20
19.92125171540422
 30
0.0
 10
16.08652296670251
 20
19.99311888971349
 30
0.0
 10
16.08652296670251
 20
20.06536725681668
 30
0.0
  0
SPLINE
  5
7F
330
1F
100
AcDbEntity
  8
1
 62
     4
420
    65535
100
AcDbSpline
210
0.0
220
0.0
230
1.0
 70
     8
 71
     3
 72
     8
 73
     4
 74
     0
 42
0.00000001
 43
0.00000001
 12
1.0
 22
0.0
 32
0.0
 13
1.0
 23
0.0
 33
0.0
 40
0.0
 40
0.0
 40
0.0
 40
0.0
 40
1.0
 40
1.0
 40
1.0
 40
1.0
 10
16.4365030956884
 20
26.39977170123961
 30
0.0
 10
16.21720895618916
 20
26.54427946689706
 30
0.0
 10
16.08652296670315
 20
26.79970665062454
 30
0.0
 10
16.08652296670253
 20
27.06211304026451
 30
0.0
  0
SPLINE
  5
80
330
1F
100
AcDbEntity
  8
1
 62
     4
420
    65535
100
AcDbSpline
210
0.0
220
0.0
230
1.0
 70
    24
 71
     3
 72
    12
 73
     8
 74
     0
 42
0.00000001
 43
0.00000001
 12
1.0
 22
0.0
 32
0.0
 13
1.0
 23
0.0
 33
0.0
 40
0.0
 40
0.0
 40
0.0
 40
0.0
 40
0.2500000000000017
 40
0.2500000000000017
 40
0.5000000000000033
 40
0.5000000000000033
 40
1.0
 40
1.0
 40
1.0
 40
1.0
 10
16.83652296670254
 20
26.39977170123961
 30
0.0
 10
16.78583251905484
 20
26.39977170123961
 30
0.0
 10
16.73778250164392
 20
26.39977170123961
 30
0.0
 10
16.65540248855933
 20
26.39977170123961
 30
0.0
 10
16.62005097770268
 20
26.39977170123961
 30
0.0
 10
16.52650184896802
 20
26.39977170123962
 30
0.0
 10
16.47833453556954
 20
26.39977170123962
 30
0.0
 10
16.4365030956884
 20
26.39977170123961
 30
0.0
  0
LINE
  5
81
330
1F
100
AcDbEntity
  8
1
 62
     4
420
    65535
100
AcDbLine
 10
16.8365229667
 20
26.3997717012
 30
0.0
 11
16.8365229667
 21
-26.4002282988
 31
0.0
  0
SPLINE
  5
82
330
1F
100
AcDbEntity
  8
1
 62
     4
420
    65535
100
AcDbSpline
210
0.0
220
0.0
230
1.0
 70
    24
 71
     3
 72
    14
 73
    10
 74
     0
 42
0.00000001
 43
0.00000001
 12
1.0
 22
0.0
 32
0.0
 13
1.0
 23
0.0
 33
0.0
 40
0.0
 40
0.0
 40
0.0
 40
0.0
 40
0.5000000000000043
 40
0.5000000000000043
 40
0.7500000000000039
 40
0.7500000000000039
 40
0.875000000000002
 40
0.875000000000002
 40
1.0
 40
1.0
 40
1.0
 40
1.0
 10
16.1617636824779
 20
-26.4002282987604
 30
0.0
 10
16.20409376051753
 20
-26.4002282987604
 30
0.0
 10
16.26286088912883
 20
-26.40022829876038
 30
0.0
 10
16.39955356154185
 20
-26.40022829876038
 30
0.0
 10
16.4526578473372
 20
-26.40022829876042
 30
0.0
 10
16.56121896714357
 20
-26.40022829876042
 30
0.0
 10
16.6024176017993
 20
-26.4002282987604
 30
0.0
 10
16.70369159344121
 20
-26.4002282987604
 30
0.0
 10
16.76734691175353
 20
-26.40022829876039
 30
0.0
 10
16.83652296670253
 20
-26.40022829876039
 30
0.0
  0
LINE
  5
83
330
1F
100
AcDbEntity
  8
1
 62
     4
420
    65535
100
AcDbLine
 10
16.8365229667
 20
-26.4002282988
 30
0.0
 11
19.1615229667
 21
-26.4002282988
 31
0.0
  0
LINE
  5
84
330
1F
100
AcDbEntity
  8
1
 62
     4
420
    65535
100
AcDbLine
 10
19.1615229667
 20
26.3997717012
 30
0.0
 11
16.8365229667
 21
26.3997717012
 31
0.0
  0
SPLINE
  5
85
330
1F
100
AcDbEntity
  8
1
 62
     4
420
    65535
100
AcDbSpline
210
0.0
220
0.0
230
1.0
 70
     8
 71
     3
 72
    17
 73
    13
 74
     0
 42
0.00000001
 43
0.00000001
 12
1.0
 22
0.0
 32
0.0
 13
1.0
 23
0.0
 33
0.0
 40
0.0
 40
0.0
 40
0.0
 40
0.0
 40
0.0476956371953788
 40
0.0963762985951361
 40
0.1460598595306694
 40
0.1967631346341984
 40
0.2485019443546179
 40
0.3679606183219837
 40
0.4974110969177882
 40
0.7478769056033961
 40
0.8737506289348557
 40
1.0
 40
1.0
 40
1.0
 40
1.0
 10
41.9990229667025
 20
7.320973788334111
 30
0.0
 10
41.99831563966679
 20
7.203298486619426
 30
0.0
 10
41.9968863776712
 20
6.965517618552401
 30
0.0
 10
41.98569076298749
 20
6.605301291421265
 30
0.0
 10
41.967917348048
 20
6.237940107603063
 30
0.0
 10
41.94287592843114
 20
5.863433467498951
 30
0.0
 10
41.89696893993088
 20
5.317870186836866
 30
0.0
 10
41.81459095149317
 20
4.58054417082345
 30
0.0
 10
41.63966295465764
 20
3.360813531106702
 30
0.0
 10
41.41722481757168
 20
2.132620480099403
 30
0.0
 10
41.17904135546761
 20
0.9157663598493614
 30
0.0
 10
41.05908867030494
 20
0.3054063869152301
 30
0.0
 10
40.9990229667025
 20
-0.000228298755638
 30
0.0
  0
ARC
  5
86
330
1F
100
AcDbEntity
  8
1
 62
     4
420
    65535
100
AcDbCircle
 10
26.9828111565
 20
26.4165361868
 30
0.0
 40
0.9839310191410271
100
AcDbArc
 50
180.976268384
 51
270.9440807493
  0
LINE
  5
87
330
1F
100
AcDbEntity
  8
1
 62
     4
420
    65535
100
AcDbLine
 10
26.9990229667
 20
25.4327387342
 30
0.0
 11
26.9990229667
 21
-25.4331953317
 31
0.0
  0
ARC
  5
88
330
1F
100
AcDbEntity
  8
1
 62
     4
420
    65535
100
AcDbCircle
 10
26.9828111565
 20
-26.4169927843
 30
0.0
 40
0.9839310191409649
100
AcDbArc
 50
89.0559192507
 51
179.023731616
  0
LINE
  5
89
330
1F
100
AcDbEntity
  8
1
 62
     4
420
    65535
100
AcDbLine
 10
56.3536235564
 20
-0.0002282988
 30
0.0
 11
40.9990229667
 21
-0.0002282988
 31
0.0
  0
LINE
  5
8A
330
1F
100
AcDbEntity
  8
1
 62
     4
420
    65535
100
AcDbLine
 10
41.1709193377
 20
-26.3002282988
 30
0.0
 11
56.3536235564
 21
-0.0002282988
 31
0.0
  0
SPLINE
  5
8B
330
1F
100
AcDbEntity
  8
1
 62
     4
420
    65535
100
AcDbSpline
210
0.0
220
0.0
230
1.0
 70
     8
 71
     3
 72
    12
 73
     8
 74
     0
 42
0.00000001
 43
0.00000001
 12
1.0
 22
0.0
 32
0.0
 13
1.0
 23
0.0
 33
0.0
 40
0.0
 40
0.0
 40
0.0
 40
0.0
 40
0.1908691459146087
 40
0.3890491039181346
 40
0.6035227848967314
 40
0.8026321563224302
 40
1.0
 40
1.0
 40
1.0
 40
1.0
 10
26.4361978306875
 20
-26.2994769080943
 30
0.0
 10
26.44767685068876
 20
-26.29357664625746
 30
0.0
 10
26.4710745686591
 20
-26.2815501263634
 30
0.0
 10
26.62727143874566
 20
-26.17585165237313
 30
0.0
 10
26.80309835962514
 20
-26.00068345394239
 30
0.0
 10
26.9611463073518
 20
-25.75663943298793
 30
0.0
 10
26.98643443965961
 20
-25.54069385153842
 30
0.0
 10
26.99902296670252
 20
-25.43319533172741
 30
0.0
  0
SPLINE
  5
8C
330
1F
100
AcDbEntity
  8
1
 62
     4
420
    65535
100
AcDbSpline
210
0.0
220
0.0
230
1.0
 70
     8
 71
     3
 72
    13
 73
     9
 74
     0
 42
0.00000001
 43
0.00000001
 12
1.0
 22
0.0
 32
0.0
 13
1.0
 23
0.0
 33
0.0
 40
0.0
 40
0.0
 40
0.0
 40
0.0
 40
0.194939529029639
 40
0.3919301156858578
 40
0.6042181011222497
 40
0.8007043015778303
 40
0.9955123599444814
 40
1.0
 40
1.0
 40
1.0
 40
1.0
 10
26.99902296670252
 20
25.43273873420666
 30
0.0
 10
26.98658750803735
 20
25.53904161188645
 30
0.0
 10
26.96158575094114
 20
25.75276583372166
 30
0.0
 10
26.80715844764866
 20
25.99462459673027
 30
0.0
 10
26.62764029421111
 20
26.17303597054874
 30
0.0
 10
26.48929498405644
 20
26.27077483252999
 30
0.0
 10
26.41689648621246
 20
26.31036441358879
 30
0.0
 10
26.43577278373688
 20
26.29927012614477
 30
0.0
 10
26.43619783068742
 20
26.29902031057366
 30
0.0
  0
LINE
  5
8D
330
1F
100
AcDbEntity
  8
1
 62
     4
420
    65535
100
AcDbLine
 10
41.9990229667
 20
17.6279474691
 30
0.0
 11
41.9990229667
 21
7.3209737883
 31
0.0
  0
LINE
  5
8E
330
1F
100
AcDbEntity
  8
1
 62
     4
420
    65535
100
AcDbLine
 10
56.2109857251
 20
17.6279474691
 30
0.0
 11
41.9990229667
 21
17.6279474691
 31
0.0
  0
LINE
  5
8F
330
1F
100
AcDbEntity
  8
1
 62
     4
420
    65535
100
AcDbLine
 10
59.4822751562
 20
5.4193291062
 30
0.0
 11
56.2109857251
 21
17.6279474691
 31
0.0
  0
LINE
  5
90
330
1F
100
AcDbEntity
  8
1
 62
     4
420
    65535
100
AcDbLine
 10
56.3536235564
 20
-0.0002282988
 30
0.0
 11
59.4822751562
 21
5.4193291062
 31
0.0
  0
LINE
  5
91
330
1F
100
AcDbEntity
  8
1
 62
     4
420
    65535
100
AcDbLine
 10
50.2417688521
 20
39.9053681205
 30
0.0
 11
41.9990229667
 21
39.9053681205
 31
0.0
  0
LINE
  5
92
330
1F
100
AcDbEntity
  8
1
 62
     4
420
    65535
100
AcDbLine
 10
56.2109857251
 20
17.6279474691
 30
0.0
 11
50.2417688521
 21
39.9053681205
 31
0.0
  0
LINE
  5
93
330
1F
100
AcDbEntity
  8
1
 62
     4
420
    65535
100
AcDbLine
 10
41.9990229667
 20
17.6279474691
 30
0.0
 11
41.9990229667
 21
39.9053681205
 31
0.0
  0
LINE
  5
94
330
1F
100
AcDbEntity
  8
1
 62
     4
420
    65535
100
AcDbLine
 10
12.2446433124
 20
19.8497717012
 30
0.0
 11
12.2446433124
 21
24.4584613636
 31
0.0
  0
SPLINE
  5
95
330
1F
100
AcDbEntity
  8
1
 62
     4
420
    65535
100
AcDbSpline
210
0.0
220
0.0
230
1.0
 70
     8
 71
     3
 72
    27
 73
    23
 74
     0
 42
0.00000001
 43
0.00000001
 12
1.0
 22
0.0
 32
0.0
 13
1.0
 23
0.0
 33
0.0
 40
0.0
 40
0.0
 40
0.0
 40
0.0
 40
0.0345368096380718
 40
0.0900053873474573
 40
0.1439032547923726
 40
0.1993681076584615
 40
0.2531372485807082
 40
0.3085126710567258
 40
0.3614519048755896
 40
0.4160251718031092
 40
0.4673441034244655
 40
0.520205095380672
 40
0.5706700026523233
 40
0.6225580638345654
 40
0.6738212451777651
 40
0.7264867877186381
 40
0.77932094056375
 40
0.8336385823962459
 40
0.8872879229732613
 40
0.9425060319161408
 40
0.995897946005457
 40
1.0
 40
1.0
 40
1.0
 40
1.0
 10
-13.23778082698755
 20
-23.65620040129349
 30
0.0
 10
-13.23843460112966
 20
-23.65628566474341
 30
0.0
 10
-13.24013838313832
 20
-23.65650786737061
 30
0.0
 10
-13.10458335366884
 20
-23.63823389595296
 30
0.0
 10
-12.84884828372025
 20
-23.60605768639126
 30
0.0
 10
-12.47921003277064
 20
-23.56455382142494
 30
0.0
 10
-12.00499035318838
 20
-23.5202413163467
 30
0.0
 10
-11.44869517229604
 20
-23.48099212502468
 30
0.0
 10
-10.81675719929041
 20
-23.45327129401061
 30
0.0
 10
-10.14678930772779
 20
-23.44351107847559
 30
0.0
 10
-9.444919965812131
 20
-23.45497022912834
 30
0.0
 10
-8.749680407605553
 20
-23.48807459224917
 30
0.0
 10
-8.061455822372277
 20
-23.5421126265815
 30
0.0
 10
-7.407865626019823
 20
-23.61278081363583
 30
0.0
 10
-6.790866973898135
 20
-23.6967087186096
 30
0.0
 10
-6.232044286032301
 20
-23.78698134866787
 30
0.0
 10
-5.740250887318822
 20
-23.8775185627693
 30
0.0
 10
-5.33863967270928
 20
-23.95910797803628
 30
0.0
 10
-5.032696757076925
 20
-24.02584310213365
 30
0.0
 10
-4.855618138812652
 20
-24.06624144681974
 30
0.0
 10
-4.781065648290929
 20
-24.08360568848988
 30
0.0
 10
-4.800837307543823
 20
-24.07902703413399
 30
0.0
 10
-4.802247967070728
 20
-24.07870035834492
 30
0.0
  0
SPLINE
  5
96
330
1F
100
AcDbEntity
  8
1
 62
     4
420
    65535
100
AcDbSpline
210
0.0
220
0.0
230
1.0
 70
     8
 71
     3
 72
    26
 73
    22
 74
     0
 42
0.00000001
 43
0.00000001
 12
1.0
 22
0.0
 32
0.0
 13
1.0
 23
0.0
 33
0.0
 40
0.0
 40
0.0
 40
0.0
 40
0.0
 40
0.0529373677607485
 40
0.1059578111917528
 40
0.1604980112405706
 40
0.213864625124993
 40
0.2687592881366723
 40
0.3224065425371325
 40
0.3776474478242625
 40
0.4305498117270791
 40
0.485085736002342
 40
0.536337786541342
 40
0.5891255866627713
 40
0.6396192384404406
 40
0.6915334453026591
 40
0.7428410924875833
 40
0.7955515935223265
 40
0.8484595820719701
 40
0.9028570987207737
 40
0.9565538670501202
 40
0.9999999999999999
 40
0.9999999999999999
 40
0.9999999999999999
 40
0.9999999999999999
 10
-4.800048019765416
 20
24.07875134150453
 30
0.0
 10
-4.81028510358688
 20
24.07635511084803
 30
0.0
 10
-4.830775336490245
 20
24.07155888908234
 30
0.0
 10
-5.011672451764873
 20
24.03010890467873
 30
0.0
 10
-5.29600937664277
 20
23.96773072551132
 30
0.0
 10
-5.691997174379941
 20
23.88648237705685
 30
0.0
 10
-6.180632942114173
 20
23.79539416465574
 30
0.0
 10
-6.758658668476265
 20
23.70086398057509
 30
0.0
 10
-7.397857849428913
 20
23.61324538311939
 30
0.0
 10
-8.090584158303475
 20
23.53861402996708
 30
0.0
 10
-8.796057171595262
 20
23.48455786005579
 30
0.0
 10
-9.508443166213532
 20
23.45258382224876
 30
0.0
 10
-10.19004339551177
 20
23.44327349960668
 30
0.0
 10
-10.84152623946001
 20
23.45385085332262
 30
0.0
 10
-11.43719000936408
 20
23.48013246375782
 30
0.0
 10
-11.97473850376548
 20
23.51746373660291
 30
0.0
 10
-12.43447502373748
 20
23.55959217037313
 30
0.0
 10
-12.80879874211277
 20
23.60082627642598
 30
0.0
 10
-13.07478319297962
 20
23.63389020300752
 30
0.0
 10
-13.23046411586646
 20
23.65472412469777
 30
0.0
 10
-13.2377427659702
 20
23.65573270708456
 30
0.0
 10
-13.24099806508047
 20
23.65618378486678
 30
0.0
  0
LINE
  5
97
330
1F
100
AcDbEntity
  8
1
 62
     4
420
    65535
100
AcDbLine
 10
-21.9009770333
 20
-21.9734111098
 30
0.0
 11
-21.9009770333
 21
-23.2266686102
 31
0.0
  0
SPLINE
  5
98
330
1F
100
AcDbEntity
  8
1
 62
     4
420
    65535
100
AcDbSpline
210
0.0
220
0.0
230
1.0
 70
     8
 71
     3
 72
    12
 73
     8
 74
     0
 42
0.00000001
 43
0.00000001
 12
1.0
 22
0.0
 32
0.0
 13
1.0
 23
0.0
 33
0.0
 40
0.0
 40
0.0
 40
0.0
 40
0.0
 40
0.2500000000000001
 40
0.2500000000000001
 40
0.5000000000000002
 40
0.5000000000000002
 40
1.0
 40
1.0
 40
1.0
 40
1.0
 10
-22.66863373756073
 20
-20.69081879729011
 30
0.0
 10
-22.67036890954665
 20
-20.81670627098863
 30
0.0
 10
-22.59489112544938
 20
-20.93539771092523
 30
0.0
 10
-22.41480756649201
 20
-21.16348965474324
 30
0.0
 10
-22.31179859096365
 20
-21.27272435282346
 30
0.0
 10
-22.04015377546255
 20
-21.59041324008924
 30
0.0
 10
-21.90097703311858
 20
-21.78874874317403
 30
0.0
 10
-21.90097703329747
 20
-21.97341110977023
 30
0.0
  0
SPLINE
  5
99
330
1F
100
AcDbEntity
  8
1
 62
     4
420
    65535
100
AcDbSpline
210
0.0
220
0.0
230
1.0
 70
     8
 71
     3
 72
    18
 73
    14
 74
     0
 42
0.00000001
 43
0.00000001
 12
1.0
 22
0.0
 32
0.0
 13
1.0
 23
0.0
 33
0.0
 40
0.0
 40
0.0
 40
0.0
 40
0.0
 40
0.0312499999999987
 40
0.0312499999999987
 40
0.0624999999999973
 40
0.0624999999999973
 40
0.1249999999999966
 40
0.1249999999999966
 40
0.2499999999999962
 40
0.2499999999999962
 40
0.4999999999999971
 40
0.4999999999999971
 40
1.0
 40
1.0
 40
1.0
 40
1.0
 10
-23.30097703708173
 20
-19.45980511801637
 30
0.0
 10
-23.2753768505622
 20
-19.45409190199937
 30
0.0
 10
-23.24699568472818
 20
-19.4518463919254
 30
0.0
 10
-23.19089550261076
 20
-19.45690230124472
 30
0.0
 10
-23.16397548994834
 20
-19.46400659787344
 30
0.0
 10
-23.09259581999087
 20
-19.49228170414716
 30
0.0
 10
-23.05717491137527
 20
-19.51842136687277
 30
0.0
 10
-22.96704324116947
 20
-19.59807592113014
 30
0.0
 10
-22.92650399859421
 20
-19.65608390227265
 30
0.0
 10
-22.82394687724593
 20
-19.82756610934422
 30
0.0
 10
-22.78296923314046
 20
-19.94133546370761
 30
0.0
 10
-22.68769200286999
 20
-20.27638230636719
 30
0.0
 10
-22.66586533082725
 20
-20.48996969873598
 30
0.0
 10
-22.66863373756069
 20
-20.690818797289
 30
0.0
  0
SPLINE
  5
9A
330
1F
100
AcDbEntity
  8
1
 62
     4
420
    65535
100
AcDbSpline
210
0.0
220
0.0
230
1.0
 70
     8
 71
     3
 72
    16
 73
    12
 74
     0
 42
0.00000001
 43
0.00000001
 12
1.0
 22
0.0
 32
0.0
 13
1.0
 23
0.0
 33
0.0
 40
0.0
 40
0.0
 40
0.0
 40
0.0
 40
0.1250000000000004
 40
0.1250000000000004
 40
0.2500000000000008
 40
0.2500000000000008
 40
0.5000000000000006
 40
0.5000000000000006
 40
0.7500000000000002
 40
0.7500000000000002
 40
1.0
 40
1.0
 40
1.0
 40
1.0
 10
-25.69502134823091
 20
-20.55632708889941
 30
0.0
 10
-25.70367197207509
 20
-20.48776160944695
 30
0.0
 10
-25.68203229254314
 20
-20.42034745250044
 30
0.0
 10
-25.58829005342702
 20
-20.29051955830333
 30
0.0
 10
-25.51900952081722
 20
-20.23071575971467
 30
0.0
 10
-25.26722906982859
 20
-20.06132399563102
 30
0.0
 10
-25.05230479153609
 20
-19.96718052942272
 30
0.0
 10
-24.58824505859761
 20
-19.79638641356953
 30
0.0
 10
-24.34032933409018
 20
-19.72132828928786
 30
0.0
 10
-23.83091779077776
 20
-19.58287385888528
 30
0.0
 10
-23.56841568763281
 20
-19.51948963179956
 30
0.0
 10
-23.300977037086
 20
-19.45980511810138
 30
0.0
  0
SPLINE
  5
9B
330
1F
100
AcDbEntity
  8
1
 62
     4
420
    65535
100
AcDbSpline
210
0.0
220
0.0
230
1.0
 70
     8
 71
     3
 72
    18
 73
    14
 74
     0
 42
0.00000001
 43
0.00000001
 12
1.0
 22
0.0
 32
0.0
 13
1.0
 23
0.0
 33
0.0
 40
0.0
 40
0.0
 40
0.0
 40
0.0
 40
0.499999999999998
 40
0.499999999999998
 40
0.7499999999999971
 40
0.7499999999999971
 40
0.8749999999999977
 40
0.8749999999999977
 40
0.9374999999999982
 40
0.9374999999999982
 40
0.9687499999999991
 40
0.9687499999999991
 40
1.0
 40
1.0
 40
1.0
 40
1.0
 10
-30.00097703381222
 20
-20.86616891440695
 30
0.0
 10
-29.24545704518972
 20
-20.86055097860269
 30
0.0
 10
-28.49117218185044
 20
-20.84973513119994
 30
0.0
 10
-27.36940826440086
 20
-20.80868923747062
 30
0.0
 10
-26.99658153900393
 20
-20.7913230791414
 30
0.0
 10
-26.44813571754987
 20
-20.74704511148223
 30
0.0
 10
-26.26640478603885
 20
-20.72955754309598
 30
0.0
 10
-26.00603169629487
 20
-20.68980919702077
 30
0.0
 10
-25.92083798905475
 20
-20.67447135562001
 30
0.0
 10
-25.80599683667603
 20
-20.64202515586278
 30
0.0
 10
-25.76947029723259
 20
-20.62947870850512
 30
0.0
 10
-25.71219721883025
 20
-20.59793850464455
 30
0.0
 10
-25.69225147931068
 20
-20.57828127672459
 30
0.0
 10
-25.69502134823335
 20
-20.55632708899885
 30
0.0
  0
SPLINE
  5
9C
330
1F
100
AcDbEntity
  8
1
 62
     4
420
    65535
100
AcDbSpline
210
0.0
220
0.0
230
1.0
 70
     8
 71
     3
 72
    12
 73
     8
 74
     0
 42
0.00000001
 43
0.00000001
 12
1.0
 22
0.0
 32
0.0
 13
1.0
 23
0.0
 33
0.0
 40
0.0
 40
0.0
 40
0.0
 40
0.0
 40
0.500000000000002
 40
0.500000000000002
 40
0.750000000000001
 40
0.750000000000001
 40
1.0
 40
1.0
 40
1.0
 40
1.0
 10
-30.00097703158336
 20
-20.86616891543547
 30
0.0
 10
-30.11811046073108
 20
-20.7900863816561
 30
0.0
 10
-30.21929811762628
 20
-20.70981698316907
 30
0.0
 10
-30.32946801439214
 20
-20.57929299611665
 30
0.0
 10
-30.35914422517088
 20
-20.53372591038514
 30
0.0
 10
-30.39860490064408
 20
-20.44153502468279
 30
0.0
 10
-30.40870990792857
 20
-20.39464196087044
 30
0.0
 10
-30.40813059573296
 20
-20.34687777067288
 30
0.0
  0
ELLIPSE
  5
9D
330
1F
100
AcDbEntity
  8
1
 62
     4
420
    65535
100
AcDbEllipse
 10
-66.7619181931
 20
-1.6157805811
 30
0.0
 11
36.13247082423465
 21
-19.63370610117946
 31
0.0
210
0.0
220
0.0
230
1.0
 40
0.2040844192
 41
0.1072970499954127
 42
0.2684401630820316
  0
LINE
  5
9E
330
1F
100
AcDbEntity
  8
1
 62
     4
420
    65535
100
AcDbLine
 10
-30.8607534747
 20
20.8641178215
 30
0.0
 11
-30.8607534756
 21
-18.5905114204
 31
0.0
  0
SPLINE
  5
9F
330
1F
100
AcDbEntity
  8
1
 62
     4
420
    65535
100
AcDbSpline
210
0.0
220
0.0
230
1.0
 70
     8
 71
     3
 72
     8
 73
     4
 74
     0
 42
0.00000001
 43
0.00000001
 12
1.0
 22
0.0
 32
0.0
 13
1.0
 23
0.0
 33
0.0
 40
0.0000000000000018
 40
0.0000000000000018
 40
0.0000000000000018
 40
0.0000000000000018
 40
0.0000161357353385
 40
0.0000161357353385
 40
0.0000161357353385
 40
0.0000161357353385
 10
-30.86075347393006
 20
20.86411782179656
 30
0.0
 10
-30.85750254036413
 20
20.86598486631337
 30
0.0
 10
-30.85424366685874
 20
20.86784876533806
 30
0.0
 10
-30.8509770026578
 20
20.86970953899316
 30
0.0
  0
SPLINE
  5
A0
330
1F
100
AcDbEntity
  8
1
 62
     4
420
    65535
100
AcDbSpline
210
0.0
220
0.0
230
1.0
 70
     8
 71
     3
 72
    10
 73
     6
 74
     0
 42
0.00000001
 43
0.00000001
 12
1.0
 22
0.0
 32
0.0
 13
1.0
 23
0.0
 33
0.0
 40
0.0
 40
0.0
 40
0.0
 40
0.0
 40
0.5
 40
0.5
 40
1.0
 40
1.0
 40
1.0
 40
1.0
 10
-27.30097703419933
 20
20.82342441296305
 30
0.0
 10
-27.88864747978954
 20
20.84419580129553
 30
0.0
 10
-28.47940390888748
 20
20.85484539092947
 30
0.0
 10
-29.66340576083028
 20
20.86806551423746
 30
0.0
 10
-30.25678679168431
 20
20.87018817592172
 30
0.0
 10
-30.85097694165125
 20
20.86970952167835
 30
0.0
  0
SPLINE
  5
A1
330
1F
100
AcDbEntity
  8
1
 62
     4
420
    65535
100
AcDbSpline
210
0.0
220
0.0
230
1.0
 70
     8
 71
     3
 72
    18
 73
    14
 74
     0
 42
0.00000001
 43
0.00000001
 12
1.0
 22
0.0
 32
0.0
 13
1.0
 23
0.0
 33
0.0
 40
0.0
 40
0.0
 40
0.0
 40
0.0
 40
0.2499999999999994
 40
0.2499999999999994
 40
0.4999999999999997
 40
0.4999999999999997
 40
0.7499999999999999
 40
0.7499999999999999
 40
0.8749999999999996
 40
0.8749999999999996
 40
0.9374999999999998
 40
0.9374999999999998
 40
1.0
 40
1.0
 40
1.0
 40
1.0
 10
-25.90097703329747
 20
21.84318828430722
 30
0.0
 10
-25.90097703319194
 20
21.75958628536565
 30
0.0
 10
-25.93647241477838
 20
21.67195560060198
 30
0.0
 10
-26.06152812855564
 20
21.48949103382217
 30
0.0
 10
-26.15188700226037
 20
21.39451558112321
 30
0.0
 10
-26.37387476900673
 20
21.20568862669051
 30
0.0
 10
-26.50527172854839
 20
21.10973866840812
 30
0.0
 10
-26.74575894732338
 20
20.9719783552757
 30
0.0
 10
-26.8326123580856
 20
20.92684024797953
 30
0.0
 10
-26.98742670890438
 20
20.86910384281541
 30
0.0
 10
-27.04395192120365
 20
20.85146856033531
 30
0.0
 10
-27.16857503813758
 20
20.82695489674461
 30
0.0
 10
-27.2354762981035
 20
20.82110926983263
 30
0.0
 10
-27.30097703420256
 20
20.82342441308582
 30
0.0
  0
LINE
  5
A2
330
1F
100
AcDbEntity
  8
1
 62
     4
420
    65535
100
AcDbLine
 10
-25.9009770334
 20
23.0267095284
 30
0.0
 11
-25.9009770334
 21
21.8431882843
 31
0.0
  0
SPLINE
  5
A3
330
1F
100
AcDbEntity
  8
1
 62
     4
420
    65535
100
AcDbSpline
210
0.0
220
0.0
230
1.0
 70
     8
 71
     3
 72
    30
 73
    26
 74
     0
 42
0.00000001
 43
0.00000001
 12
1.0
 22
0.0
 32
0.0
 13
1.0
 23
0.0
 33
0.0
 40
0.0
 40
0.0
 40
0.0
 40
0.0
 40
0.0625000000000119
 40
0.0625000000000119
 40
0.1250000000000238
 40
0.1250000000000238
 40
0.1562500000000285
 40
0.1562500000000285
 40
0.1875000000000331
 40
0.1875000000000331
 40
0.2031250000000341
 40
0.2031250000000341
 40
0.2187500000000349
 40
0.2187500000000349
 40
0.2500000000000339
 40
0.2500000000000339
 40
0.3125000000000316
 40
0.3125000000000316
 40
0.3750000000000293
 40
0.3750000000000293
 40
0.5000000000000234
 40
0.5000000000000234
 40
0.7500000000000118
 40
0.7500000000000118
 40
1.0
 40
1.0
 40
1.0
 40
1.0
 10
-30.86075347555374
 20
-18.59051142269542
 30
0.0
 10
-30.89166335283466
 20
-18.5239493668394
 30
0.0
 10
-30.92590843960062
 20
-18.45634737143822
 30
0.0
 10
-31.0052394459661
 20
-18.31776315188896
 30
0.0
 10
-31.05001560039868
 20
-18.24677921796951
 30
0.0
 10
-31.13257140709157
 20
-18.13779528730763
 30
0.0
 10
-31.16294066902428
 20
-18.10068313435507
 30
0.0
 10
-31.23324716139328
 20
-18.02579792559031
 30
0.0
 10
-31.27333980116406
 20
-17.98762711451929
 30
0.0
 10
-31.34416958871143
 20
-17.9359740503653
 30
0.0
 10
-31.36962643979889
 20
-17.9198750617007
 30
0.0
 10
-31.42092436923266
 20
-17.89382682878758
 30
0.0
 10
-31.44625467130892
 20
-17.88419138193513
 30
0.0
 10
-31.51550232061284
 20
-17.86613569192676
 30
0.0
 10
-31.55155285616264
 20
-17.86764712850256
 30
0.0
 10
-31.64075218374375
 20
-17.88650543513225
 30
0.0
 10
-31.67820689274166
 20
-17.91722324086403
 30
0.0
 10
-31.74083521299717
 20
-17.98537357248657
 30
0.0
 10
-31.76482264058322
 20
-18.0247954838005
 30
0.0
 10
-31.82525254471402
 20
-18.14869019008278
 30
0.0
 10
-31.85087475731337
 20
-18.23964263205048
 30
0.0
 10
-31.91139162576705
 20
-18.52181628129907
 30
0.0
 10
-31.92905615428243
 20
-18.72295407553046
 30
0.0
 10
-31.95185286953985
 20
-19.13191357770345
 30
0.0
 10
-31.9558070362336
 20
-19.34028127003953
 30
0.0
 10
-31.95533408784232
 20
-19.55096114962185
 30
0.0
  0
SPLINE
  5
A4
330
1F
100
AcDbEntity
  8
1
 62
     4
420
    65535
100
AcDbSpline
210
0.0
220
0.0
230
1.0
 70
     8
 71
     3
 72
     9
 73
     5
 74
     0
 42
0.00000001
 43
0.00000001
 12
1.0
 22
0.0
 32
0.0
 13
1.0
 23
0.0
 33
0.0
 40
0.0
 40
0.0
 40
0.0
 40
0.0
 40
0.3827224837794156
 40
1.0
 40
1.0
 40
1.0
 40
1.0
 10
-31.98873713684593
 20
-19.69823527954348
 30
0.0
 10
-31.98380294241911
 20
-19.70591670231228
 30
0.0
 10
-31.97091058663667
 20
-19.72598717920965
 30
0.0
 10
-31.96127927774986
 20
-19.61776454815421
 30
0.0
 10
-31.95533408732225
 20
-19.55096115125744
 30
0.0
  0
SPLINE
  5
A5
330
1F
100
AcDbEntity
  8
1
 62
     4
420
    65535
100
AcDbSpline
210
0.0
220
0.0
230
1.0
 70
    24
 71
     3
 72
    14
 73
    10
 74
     0
 42
0.00000001
 43
0.00000001
 12
1.0
 22
0.0
 32
0.0
 13
1.0
 23
0.0
 33
0.0
 40
0.0
 40
0.0
 40
0.0
 40
0.0
 40
0.25
 40
0.25
 40
0.5
 40
0.5
 40
0.75
 40
0.75
 40
1.0
 40
1.0
 40
1.0
 40
1.0
 10
-32.00097703329747
 20
19.97583553517251
 30
0.0
 10
-32.00097703329747
 20
18.37728215394251
 30
0.0
 10
-32.00097703329749
 20
15.6660936715257
 30
0.0
 10
-32.00097703329749
 20
8.691654561287061
 30
0.0
 10
-32.00097703329749
 20
4.581081967336776
 30
0.0
 10
-32.00097703329749
 20
-3.866083865638343
 30
0.0
 10
-32.00097703329749
 20
-8.017759486087622
 30
0.0
 10
-32.00097703329749
 20
-15.14640451828731
 30
0.0
 10
-32.00097703329747
 20
-17.96732016134303
 30
0.0
 10
-32.00097703329747
 20
-19.69460187203172
 30
0.0
  0
SPLINE
  5
A6
330
1F
100
AcDbEntity
  8
1
 62
     4
420
    65535
100
AcDbSpline
210
0.0
220
0.0
230
1.0
 70
     8
 71
     3
 72
    22
 73
    18
 74
     0
 42
0.00000001
 43
0.00000001
 12
1.0
 22
0.0
 32
0.0
 13
1.0
 23
0.0
 33
0.0
 40
0.0
 40
0.0
 40
0.0
 40
0.0
 40
0.1250000000000036
 40
0.1250000000000036
 40
0.2500000000000072
 40
0.2500000000000072
 40
0.3125000000000058
 40
0.3125000000000058
 40
0.3750000000000044
 40
0.3750000000000044
 40
0.5000000000000031
 40
0.5000000000000031
 40
0.6250000000000018
 40
0.6250000000000018
 40
0.7500000000000006
 40
0.7500000000000006
 40
1.0
 40
1.0
 40
1.0
 40
1.0
 10
-30.86075347548988
 20
20.86411782110727
 30
0.0
 10
-30.92138709929958
 20
20.8292953086077
 30
0.0
 10
-30.98358946610772
 20
20.79078903766844
 30
0.0
 10
-31.11733836828332
 20
20.70484733425429
 30
0.0
 10
-31.1896001046158
 20
20.6565351523178
 30
0.0
 10
-31.31151715681899
 20
20.5801618142581
 30
0.0
 10
-31.3553322058347
 20
20.55373727436227
 30
0.0
 10
-31.44175761339049
 20
20.50520256200899
 30
0.0
 10
-31.48411843586615
 20
20.48325396162006
 30
0.0
 10
-31.59815710611694
 20
20.42684613388437
 30
0.0
 10
-31.65659908006824
 20
20.40048196797812
 30
0.0
 10
-31.75654542415456
 20
20.34832533038173
 30
0.0
 10
-31.79797247920412
 20
20.32315759494322
 30
0.0
 10
-31.87001742723322
 20
20.26803221284091
 30
0.0
 10
-31.90037193860477
 20
20.23816392228517
 30
0.0
 10
-31.97385825266771
 20
20.14073934681791
 30
0.0
 10
-32.00097703322678
 20
20.0645804293486
 30
0.0
 10
-32.00097703329746
 20
19.97583553593922
 30
0.0
  0
LINE
  5
A7
330
1F
100
AcDbEntity
  8
1
 62
     4
420
    65535
100
AcDbLine
 10
21.3765220431
 20
24.4584613629
 30
0.0
 11
25.9990229667
 21
24.4584613636
 31
0.0
  0
SPLINE
  5
A8
330
1F
100
AcDbEntity
  8
1
 62
     4
420
    65535
100
AcDbSpline
210
0.0
220
0.0
230
1.0
 70
     8
 71
     3
 72
     8
 73
     4
 74
     0
 42
0.00000001
 43
0.00000001
 12
1.0
 22
0.0
 32
0.0
 13
1.0
 23
0.0
 33
0.0
 40
0.0
 40
0.0
 40
0.0
 40
0.0
 40
1.0
 40
1.0
 40
1.0
 40
1.0
 10
19.91152296670251
 20
21.09021120695138
 30
0.0
 10
20.38607487888818
 20
22.21895526688783
 30
0.0
 10
20.87564655616043
 20
23.34116657510017
 30
0.0
 10
21.37652204484093
 20
24.45846136211396
 30
0.0
  0
LINE
  5
A9
330
1F
100
AcDbEntity
  8
1
 62
     4
420
    65535
100
AcDbLine
 10
19.9115229667
 20
20.0653672568
 30
0.0
 11
19.9115229667
 21
21.090211207
 31
0.0
  0
LINE
  5
AA
330
1F
100
AcDbEntity
  8
1
 62
     4
420
    65535
100
AcDbLine
 10
25.9990229667
 20
24.4584613636
 30
0.0
 11
25.9990229667
 21
19.8497717012
 31
0.0
  0
SPLINE
  5
AB
330
1F
100
AcDbEntity
  8
1
 62
     4
420
    65535
100
AcDbSpline
210
0.0
220
0.0
230
1.0
 70
     8
 71
     3
 72
     8
 73
     4
 74
     0
 42
0.00000001
 43
0.00000001
 12
1.0
 22
0.0
 32
0.0
 13
1.0
 23
0.0
 33
0.0
 40
0.0
 40
0.0
 40
0.0
 40
0.0
 40
1.0
 40
1.0
 40
1.0
 40
1.0
 10
14.62152389670061
 20
24.45846136573966
 30
0.0
 10
15.12239938353145
 20
23.34116658296583
 30
0.0
 10
15.61197106599802
 20
22.21895526675086
 30
0.0
 10
16.0865229764327
 20
21.09021121108311
 30
0.0
  0
LINE
  5
AC
330
1F
100
AcDbEntity
  8
1
 62
     4
420
    65535
100
AcDbLine
 10
16.086522971
 20
21.090211224
 30
0.0
 11
16.0865229667
 21
20.0653672568
 31
0.0
  0
LINE
  5
AD
330
1F
100
AcDbEntity
  8
1
 62
     4
420
    65535
100
AcDbLine
 10
21.3765220435
 20
30.4623666949
 30
0.0
 11
21.3765220431
 21
24.4584613629
 31
0.0
  0
LINE
  5
AE
330
1F
100
AcDbEntity
  8
1
 62
     4
420
    65535
100
AcDbLine
 10
25.9990229667
 20
30.4623666949
 30
0.0
 11
21.3765220435
 21
30.4623666949
 31
0.0
  0
LINE
  5
AF
330
1F
100
AcDbEntity
  8
1
 62
     4
420
    65535
100
AcDbLine
 10
25.9990229667
 20
30.4623666949
 30
0.0
 11
25.9990229667
 21
24.4584613636
 31
0.0
  0
SPLINE
  5
B0
330
1F
100
AcDbEntity
  8
1
 62
     4
420
    65535
100
AcDbSpline
210
0.0
220
0.0
230
1.0
 70
     8
 71
     3
 72
     8
 73
     4
 74
     0
 42
0.00000001
 43
0.00000001
 12
1.0
 22
0.0
 32
0.0
 13
1.0
 23
0.0
 33
0.0
 40
0.0
 40
0.0
 40
0.0
 40
0.0
 40
0.0030121423994766
 40
0.0030121423994766
 40
0.0030121423994766
 40
0.0030121423994766
 10
21.3765220435809
 20
30.46236669375325
 30
0.0
 10
20.88705189492235
 20
29.58570810083264
 30
0.0
 10
20.39861644458717
 20
28.70847047896857
 30
0.0
 10
19.91152296670253
 20
27.83048912451301
 30
0.0
  0
LINE
  5
B1
330
1F
100
AcDbEntity
  8
1
 62
     4
420
    65535
100
AcDbLine
 10
19.9115229667
 20
27.8304891245
 30
0.0
 11
19.9115229667
 21
21.090211207
 31
0.0
  0
SPLINE
  5
B2
330
1F
100
AcDbEntity
  8
1
 62
     4
420
    65535
100
AcDbSpline
210
0.0
220
0.0
230
1.0
 70
     8
 71
     3
 72
     8
 73
     4
 74
     0
 42
0.00000001
 43
0.00000001
 12
1.0
 22
0.0
 32
0.0
 13
1.0
 23
0.0
 33
0.0
 40
0.0000000000090339
 40
0.0000000000090339
 40
0.0000000000090339
 40
0.0000000000090339
 40
0.0030121423976864
 40
0.0030121423976864
 40
0.0030121423976864
 40
0.0030121423976864
 10
16.08652297341366
 20
27.83048912823626
 30
0.0
 10
15.59942949551284
 20
28.70847048268929
 30
0.0
 10
15.11099404627017
 20
29.58570810516791
 30
0.0
 10
14.62152389760164
 20
30.46236669808941
 30
0.0
  0
LINE
  5
B3
330
1F
100
AcDbEntity
  8
1
 62
     4
420
    65535
100
AcDbLine
 10
16.086522971
 20
21.090211224
 30
0.0
 11
16.0865229711
 21
27.8304891373
 31
0.0
  0
LINE
  5
B4
330
1F
100
AcDbEntity
  8
1
 62
     4
420
    65535
100
AcDbLine
 10
58.2650493275
 20
14.8259764371
 30
0.0
 11
55.9128072615
 21
18.740764645
 31
0.0
  0
LINE
  5
B5
330
1F
100
AcDbEntity
  8
1
 62
     4
420
    65535
100
AcDbLine
 10
58.0318901927
 20
18.6702343571
 30
0.0
 11
55.3694091218
 21
23.1013469755
 31
0.0
  0
LINE
  5
B6
330
1F
100
AcDbEntity
  8
1
 62
     4
420
    65535
100
AcDbLine
 10
-31.9553340876
 20
-19.5509611504
 30
0.0
 11
-30.4081305968
 21
-20.3468778797
 31
0.0
  0
LINE
  5
B7
330
1F
100
AcDbEntity
  8
1
 62
     4
420
    65535
100
AcDbLine
 10
41.9990229667
 20
44.1747717012
 30
0.0
 11
49.0977856105
 21
44.1747717012
 31
0.0
  0
LINE
  5
B8
330
1F
100
AcDbEntity
  8
1
 62
     4
420
    65535
100
AcDbLine
 10
50.2417688521
 20
39.9053681205
 30
0.0
 11
49.0977856105
 21
44.1747717012
 31
0.0
  0
LINE
  5
B9
330
1F
100
AcDbEntity
  8
1
 62
     4
420
    65535
100
AcDbLine
 10
41.9990229667
 20
39.9053681205
 30
0.0
 11
41.9990229667
 21
44.1747717012
 31
0.0
  0
ARC
  5
BA
330
1F
100
AcDbEntity
  8
1
 62
     4
420
    65535
100
AcDbCircle
 10
-23.29814421
 20
-22.0968065474
 30
0.0
 40
1.540482063666354
100
AcDbArc
 50
65.8802485228
 51
90.105362414
  0
LINE
  5
BB
330
1F
100
AcDbEntity
  8
1
 62
     4
420
    65535
100
AcDbLine
 10
-23.3009770333
 20
-20.5563270884
 30
0.0
 11
-23.3009770352
 21
-19.4598051199
 31
0.0
  0
LINE
  5
BC
330
1F
100
AcDbEntity
  8
1
 62
     4
420
    65535
100
AcDbLine
 10
-25.6950213372
 20
-20.5563270887
 30
0.0
 11
-23.3009770333
 21
-20.5563270884
 31
0.0
  0
LINE
  5
BD
330
1F
100
AcDbEntity
  8
1
 62
     4
420
    65535
100
AcDbLine
 10
-30.0009770325
 20
-20.8661689152
 30
0.0
 11
-30.0009770333
 21
-20.8702282988
 31
0.0
  0
SPLINE
  5
BE
330
1F
100
AcDbEntity
  8
1
 62
     4
420
    65535
100
AcDbSpline
210
0.0
220
0.0
230
1.0
 70
     8
 71
     3
 72
    10
 73
     6
 74
     0
 42
0.00000001
 43
0.00000001
 12
1.0
 22
0.0
 32
0.0
 13
1.0
 23
0.0
 33
0.0
 40
0.0
 40
0.0
 40
0.0
 40
0.0
 40
0.5
 40
0.5
 40
1.0
 40
1.0
 40
1.0
 40
1.0
 10
50.99169448370264
 20
39.17477170123953
 30
0.0
 10
50.99169448370265
 20
39.05862942471645
 30
0.0
 10
51.03338594391328
 20
38.94426632453858
 30
0.0
 10
51.179837087119
 20
38.76743349958396
 30
0.0
 10
51.28271514100141
 20
38.70578676390068
 30
0.0
 10
51.39731891345353
 20
38.68375922508424
 30
0.0
  0
LINE
  5
BF
330
1F
100
AcDbEntity
  8
1
 62
     4
420
    65535
100
AcDbLine
 10
49.9260065548
 20
44.1747717012
 30
0.0
 11
50.9916944837
 21
40.1975702057
 31
0.0
  0
LINE
  5
C0
330
1F
100
AcDbEntity
  8
1
 62
     4
420
    65535
100
AcDbLine
 10
50.9916944837
 20
40.1975702057
 30
0.0
 11
50.9916944837
 21
39.1747717012
 31
0.0
  0
LINE
  5
C1
330
1F
100
AcDbEntity
  8
1
 62
     4
420
    65535
100
AcDbLine
 10
49.0977856105
 20
44.1747717012
 30
0.0
 11
49.9260065548
 21
44.1747717012
 31
0.0
  0
LINE
  5
C2
330
1F
100
AcDbEntity
  8
1
 62
     4
420
    65535
100
AcDbLine
 10
60.0479415921
 20
6.3991958711
 30
0.0
 11
59.4822751562
 21
5.4193291062
 31
0.0
  0
LINE
  5
C3
330
1F
100
AcDbEntity
  8
1
 62
     4
420
    65535
100
AcDbLine
 10
50.9916944837
 20
40.1975702057
 30
0.0
 11
50.9916944837
 21
44.1747717012
 31
0.0
  0
LINE
  5
C4
330
1F
100
AcDbEntity
  8
1
 62
     4
420
    65535
100
AcDbLine
 10
49.9260065548
 20
44.1747717012
 30
0.0
 11
50.9916944837
 21
44.1747717012
 31
0.0
  0
LINE
  5
C5
330
1F
100
AcDbEntity
  8
1
 62
     4
420
    65535
100
AcDbLine
 10
66.4916944837
 20
38.6747717012
 30
0.0
 11
65.0916944837
 21
38.6747717012
 31
0.0
  0
LINE
  5
C6
330
1F
100
AcDbEntity
  8
1
 62
     4
420
    65535
100
AcDbLine
 10
66.4916944837
 20
38.6747717012
 30
0.0
 11
66.4916944837
 21
17.5612852202
 31
0.0
  0
LINE
  5
C7
330
1F
100
AcDbEntity
  8
1
 62
     4
420
    65535
100
AcDbLine
 10
65.0916944837
 20
38.6747717012
 30
0.0
 11
65.0916944837
 21
15.1361572937
 31
0.0
  0
LINE
  5
C8
330
1F
100
AcDbEntity
  8
1
 62
     4
420
    65535
100
AcDbLine
 10
65.0916944837
 20
15.1361572937
 30
0.0
 11
66.4916944837
 21
17.5612852202
 31
0.0
  0
LINE
  5
C9
330
1F
100
AcDbEntity
  8
1
 62
     4
420
    65535
100
AcDbLine
 10
51.4916944837
 20
38.6747717012
 30
0.0
 11
65.0916944837
 21
38.6747717012
 31
0.0
  0
ARC
  5
CA
330
1F
100
AcDbEntity
  8
1
 62
     4
420
    65535
100
AcDbCircle
 10
51.4916944837
 20
39.1747717012
 30
0.0
 40
0.5000000000000036
100
AcDbArc
 50
259.1200888427
 51
270.0
  0
LINE
  5
CB
330
1F
100
AcDbEntity
  8
1
 62
     4
420
    65535
100
AcDbLine
 10
60.0479415921
 20
6.3991958711
 30
0.0
 11
65.0916944837
 21
15.1361572937
 31
0.0
  0
LINE
  5
CC
330
1F
100
AcDbEntity
  8
1
 62
     4
420
    65535
100
AcDbLine
 10
72.4916944837
 20
38.6747717012
 30
0.0
 11
72.4916944837
 21
27.9546906193
 31
0.0
  0
LINE
  5
CD
330
1F
100
AcDbEntity
  8
1
 62
     4
420
    65535
100
AcDbLine
 10
66.4943590508
 20
38.6747717012
 30
0.0
 11
66.4943590508
 21
37.1747717012
 31
0.0
  0
LINE
  5
CE
330
1F
100
AcDbEntity
  8
1
 62
     4
420
    65535
100
AcDbLine
 10
66.4943590508
 20
37.1747717012
 30
0.0
 11
67.2594503934
 21
37.1747717012
 31
0.0
  0
LINE
  5
CF
330
1F
100
AcDbEntity
  8
1
 62
     4
420
    65535
100
AcDbLine
 10
67.2594503934
 20
37.1747717012
 30
0.0
 11
67.2594503934
 21
38.6747717012
 31
0.0
  0
LINE
  5
D0
330
1F
100
AcDbEntity
  8
1
 62
     4
420
    65535
100
AcDbLine
 10
66.4916944837
 20
38.6747717012
 30
0.0
 11
66.4943590508
 21
38.6747717012
 31
0.0
  0
LINE
  5
D1
330
1F
100
AcDbEntity
  8
1
 62
     4
420
    65535
100
AcDbLine
 10
67.2594503934
 20
38.6747717012
 30
0.0
 11
72.4916944837
 21
38.6747717012
 31
0.0
  0
LINE
  5
D2
330
1F
100
AcDbEntity
  8
1
 62
     4
420
    65535
100
AcDbLine
 10
66.4916944837
 20
17.5612852202
 30
0.0
 11
72.4916944837
 21
27.9546906193
 31
0.0
  0
LINE
  5
D3
330
1F
100
AcDbEntity
  8
1
 62
     4
420
    65535
100
AcDbLine
 10
66.9916944837
 20
38.6747717012
 30
0.0
 11
66.9916944837
 21
37.1747717012
 31
0.0
  0
LINE
  5
D4
330
1F
100
AcDbEntity
  8
1
 62
     4
420
    65535
100
AcDbLine
 10
66.4943590508
 20
38.6747717012
 30
0.0
 11
66.9916944837
 21
38.6747717012
 31
0.0
  0
LINE
  5
D5
330
1F
100
AcDbEntity
  8
1
 62
     4
420
    65535
100
AcDbLine
 10
66.9916944837
 20
38.6747717012
 30
0.0
 11
67.2594503934
 21
38.6747717012
 31
0.0
  0
ELLIPSE
  5
D6
330
1F
100
AcDbEntity
  8
1
 62
     4
420
    65535
100
AcDbEllipse
 10
65.8988012649
 20
39.1747717012
 30
0.0
 11
0.0
 21
0.5
 31
0.0
210
0.0
220
0.0
230
1.0
 40
0.4142135624
 41
1.570796326794882
 42
3.141592653590101
  0
LINE
  5
D7
330
1F
100
AcDbEntity
  8
1
 62
     4
420
    65535
100
AcDbLine
 10
65.6916944837
 20
39.1747717012
 30
0.0
 11
66.9916944837
 21
39.1747717012
 31
0.0
  0
ARC
  5
D8
330
1F
100
AcDbEntity
  8
1
 62
     4
420
    65535
100
AcDbCircle
 10
67.4916944837
 20
39.1747717012
 30
0.0
 40
0.5
100
AcDbArc
 50
180.0
 51
270.0
  0
LINE
  5
D9
330
1F
100
AcDbEntity
  8
1
 62
     4
420
    65535
100
AcDbLine
 10
50.9916944837
 20
44.1747717012
 30
0.0
 11
65.6916944837
 21
44.1747717012
 31
0.0
  0
LINE
  5
DA
330
1F
100
AcDbEntity
  8
1
 62
     4
420
    65535
100
AcDbLine
 10
65.6916944837
 20
44.1747717012
 30
0.0
 11
65.6916944837
 21
39.1747717012
 31
0.0
  0
LINE
  5
DB
330
1F
100
AcDbEntity
  8
1
 62
     4
420
    65535
100
AcDbLine
 10
65.6916944837
 20
44.1747717012
 30
0.0
 11
66.9916944837
 21
44.1747717012
 31
0.0
  0
LINE
  5
DC
330
1F
100
AcDbEntity
  8
1
 62
     4
420
    65535
100
AcDbLine
 10
66.9916944837
 20
44.1747717012
 30
0.0
 11
66.9916944837
 21
39.1747717012
 31
0.0
  0
LINE
  5
DD
330
1F
100
AcDbEntity
  8
1
 62
     4
420
    65535
100
AcDbLine
 10
40.9990229667
 20
-0.0002282988
 30
0.0
 11
40.9990229667
 21
26.2997717012
 31
0.0
  0
LINE
  5
DE
330
1F
100
AcDbEntity
  8
1
 62
     4
420
    65535
100
AcDbLine
 10
-23.3009770333
 20
-20.8702282988
 30
0.0
 11
-23.3009770333
 21
-20.5563270884
 31
0.0
  0
LINE
  5
DF
330
1F
100
AcDbEntity
  8
1
 62
     4
420
    65535
100
AcDbLine
 10
-27.3009770337
 20
20.8234244134
 30
0.0
 11
-27.3009770333
 21
20.8697717012
 31
0.0
  0
LINE
  5
E0
330
1F
100
AcDbEntity
  8
1
 62
     4
420
    65535
100
AcDbLine
 10
60.0479415921
 20
6.3991958711
 30
0.0
 11
57.8558704001
 21
14.5801169335
 31
0.0
  0
LINE
  5
E1
330
1F
100
AcDbEntity
  8
1
 62
     4
420
    65535
100
AcDbLine
 10
55.736166205
 20
22.4909606869
 30
0.0
 11
51.3973189135
 21
38.6837592251
 31
0.0
  0
LINE
  5
E2
330
1F
100
AcDbEntity
  8
1
 62
     4
420
    65535
100
AcDbLine
 10
65.6916944837
 20
39.1747717012
 30
0.0
 11
50.9916944837
 21
39.1747717012
 31
0.0
  0
DIMENSION
  5
E3
330
1F
100
AcDbEntity
  8
2
 62
     7
420
 16777215
100
AcDbDimension
  2
_D
 10
66.9916944837
 20
56.1748747789
 30
0.0
 11
33.4953587252
 21
56.1748747789
 31
0.0
 70
   160
  1
<>
 71
     2
 42
-1.0
 73
     0
 74
     0
 75
     0
  3
SLDDIMSTYLE0
100
AcDbAlignedDimension
 13
-0.0009770333
 23
31.4997717012
 33
0.0
 14
66.9916944837
 24
44.1747717012
 34
0.0
100
AcDbRotatedDimension
  0
DIMENSION
  5
EF
330
1F
100
AcDbEntity
  8
2
 62
     7
420
 16777215
100
AcDbDimension
  2
_D_1
 10
41.9990229667
 20
50.1748747789
 30
0.0
 11
20.9990229667
 21
50.1748747789
 31
0.0
 70
   160
  1
<>
 71
     2
 42
-1.0
 73
     0
 74
     0
 75
     0
  3
SLDDIMSTYLE0
100
AcDbAlignedDimension
 13
-0.0009770333
 23
31.4997717012
 33
0.0
 14
41.9990229667
 24
39.9053681205
 34
0.0
100
AcDbRotatedDimension
  0
DIMENSION
  5
F9
330
1F
100
AcDbEntity
  8
2
 62
     7
420
 16777215
100
AcDbDimension
  2
_D_2
 10
78.4917975615
 20
38.6747717012
 30
0.0
 11
78.4917975615
 21
19.3372717012
 31
0.0
 70
   160
  1
<>
 71
     2
 42
-1.0
 73
     0
 74
     0
 75
     0
  3
SLDDIMSTYLE0
100
AcDbAlignedDimension
 13
-0.0009770333
 23
-0.0002282988
 33
0.0
 14
66.4916944837
 24
38.6747717012
 34
0.0
 50
90.0
100
AcDbRotatedDimension
  0
DIMENSION
  5
103
330
1F
100
AcDbEntity
  8
2
 62
     7
420
 16777215
100
AcDbDimension
  2
_D_3
 10
-38.2606177509
 20
-31.5002282988
 30
0.0
 11
-38.2606177509
 21
-0.0002282988
 31
0.0
 70
   160
  1
%%c<>
 71
     2
 42
-1.0
 73
     0
 74
     0
 75
     0
  3
SLDDIMSTYLE0
100
AcDbAlignedDimension
 13
-0.0009770333
 23
31.4997717012
 33
0.0
 14
-0.0009770333
 24
-31.5002282988
 34
0.0
 50
90.0
100
AcDbRotatedDimension
  0
ENDSEC
  0
SECTION
  2
OBJECTS
  0
DICTIONARY
  5
C
330
0
100
AcDbDictionary
281
     1
  3
ACAD_GROUP
350
D
  3
ACAD_LAYOUT
350
1A
  3
ACAD_MATERIAL
350
3B
  3
ACAD_MLEADERSTYLE
350
10F
  3
ACAD_MLINESTYLE
350
17
  3
ACAD_PLOTSETTINGS
350
19
  3
ACAD_PLOTSTYLENAME
350
E
  3
ACAD_TABLESTYLE
350
10E
  3
ACAD_VISUALSTYLE
350
2A
  0
DICTIONARY
  5
D
102
{ACAD_REACTORS
330
C
102
}
330
C
100
AcDbDictionary
281
     1
  0
DICTIONARY
  5
1A
102
{ACAD_REACTORS
330
C
102
}
330
C
100
AcDbDictionary
281
     1
  3
Layout1
350
1E
  3
Layout2
350
26
  3
Model
350
22
  0
DICTIONARY
  5
3B
102
{ACAD_REACTORS
330
C
102
}
330
C
100
AcDbDictionary
281
     1
  3
ByBlock
350
3D
  3
ByLayer
350
3C
  3
Global
350
3E
  0
DICTIONARY
  5
10F
102
{ACAD_REACTORS
330
C
102
}
330
C
100
AcDbDictionary
281
     1
  0
DICTIONARY
  5
17
102
{ACAD_REACTORS
330
C
102
}
330
C
100
AcDbDictionary
281
     1
  3
Standard
350
18
  0
DICTIONARY
  5
19
102
{ACAD_REACTORS
330
C
102
}
330
C
100
AcDbDictionary
281
     1
  0
ACDBDICTIONARYWDFLT
  5
E
102
{ACAD_REACTORS
330
C
102
}
330
C
100
AcDbDictionary
281
     1
  3
Normal
350
F
100
AcDbDictionaryWithDefault
340
F
  0
DICTIONARY
  5
10E
102
{ACAD_REACTORS
330
C
102
}
330
C
100
AcDbDictionary
281
     1
  0
DICTIONARY
  5
2A
102
{ACAD_REACTORS
330
C
102
}
330
C
100
AcDbDictionary
281
     1
  3
2dWireframe
350
2F
  3
3D Hidden
350
31
  3
3dWireframe
350
30
  3
Basic
350
32
  3
Brighten
350
36
  3
ColorChange
350
3A
  3
Conceptual
350
34
  3
Dim
350
35
  3
Facepattern
350
39
  3
Flat
350
2B
  3
FlatWithEdges
350
2C
  3
Gouraud
350
2D
  3
GouraudWithEdges
350
2E
  3
Linepattern
350
38
  3
Realistic
350
33
  3
Thicken
350
37
  0
LAYOUT
  5
1E
102
{ACAD_REACTORS
330
1A
102
}
330
1A
100
AcDbPlotSettings
  1

  2
none_device
  4

  6

 40
0.0
 41
0.0
 42
0.0
 43
0.0
 44
0.0
 45
0.0
 46
0.0
 47
0.0
 48
0.0
 49
0.0
140
0.0
141
0.0
142
1.0
143
1.0
 70
   688
 72
     0
 73
     0
 74
     5
  7

 75
    16
 76
     0
 77
     2
 78
   300
147
1.0
148
0.0
149
0.0
100
AcDbLayout
  1
Layout1
 70
     1
 71
     1
 10
0.0
 20
0.0
 11
420.0
 21
297.0
 12
0.0
 22
0.0
 32
0.0
 14
1.0000000000E+20
 24
1.0000000000E+20
 34
1.0000000000E+20
 15
-1.0000000000E+20
 25
-1.0000000000E+20
 35
-1.0000000000E+20
146
0.0
 13
0.0
 23
0.0
 33
0.0
 16
1.0
 26
0.0
 36
0.0
 17
0.0
 27
1.0
 37
0.0
 76
     0
330
1B
  0
LAYOUT
  5
26
102
{ACAD_REACTORS
330
1A
102
}
330
1A
100
AcDbPlotSettings
  1

  2
none_device
  4

  6

 40
0.0
 41
0.0
 42
0.0
 43
0.0
 44
0.0
 45
0.0
 46
0.0
 47
0.0
 48
0.0
 49
0.0
140
0.0
141
0.0
142
1.0
143
1.0
 70
   688
 72
     0
 73
     0
 74
     5
  7

 75
    16
 76
     0
 77
     2
 78
   300
147
1.0
148
0.0
149
0.0
100
AcDbLayout
  1
Layout2
 70
     1
 71
     2
 10
0.0
 20
0.0
 11
0.0
 21
0.0
 12
0.0
 22
0.0
 32
0.0
 14
0.0
 24
0.0
 34
0.0
 15
0.0
 25
0.0
 35
0.0
146
0.0
 13
0.0
 23
0.0
 33
0.0
 16
1.0
 26
0.0
 36
0.0
 17
0.0
 27
1.0
 37
0.0
 76
     0
330
23
  0
LAYOUT
  5
22
102
{ACAD_REACTORS
330
1A
102
}
330
1A
100
AcDbPlotSettings
  1

  2
none_device
  4

  6

 40
0.0
 41
0.0
 42
0.0
 43
0.0
 44
0.0
 45
0.0
 46
0.0
 47
0.0
 48
0.0
 49
0.0
140
0.0
141
0.0
142
1.0
143
1.0
 70
  1712
 72
     0
 73
     0
 74
     0
  7

 75
     0
 76
     0
 77
     2
 78
   300
147
1.0
148
0.0
149
0.0
100
AcDbLayout
  1
Model
 70
     1
 71
     0
 10
0.0
 20
0.0
 11
297.0
 21
210.0
 12
0.0
 22
0.0
 32
0.0
 14
0.0
 24
0.0
 34
0.0
 15
297.0
 25
210.0
 35
0.0
146
0.0
 13
0.0
 23
0.0
 33
0.0
 16
1.0
 26
0.0
 36
0.0
 17
0.0
 27
1.0
 37
0.0
 76
     0
330
1F
331
29
  0
MATERIAL
  5
3D
102
{ACAD_REACTORS
330
3B
102
}
330
3B
100
AcDbMaterial
  1
ByBlock
 72
     1
 94
      127
  0
MATERIAL
  5
3C
102
{ACAD_REACTORS
330
3B
102
}
330
3B
100
AcDbMaterial
  1
ByLayer
 72
     1
 94
      127
  0
MATERIAL
  5
3E
102
{ACAD_REACTORS
330
3B
102
}
330
3B
100
AcDbMaterial
  1
Global
 72
     1
 94
      127
  0
MLINESTYLE
  5
18
102
{ACAD_REACTORS
330
17
102
}
330
17
100
AcDbMlineStyle
  2
Standard
 70
     0
  3

 62
   256
 51
90.0
 52
90.0
 71
     2
 49
0.5
 62
   256
  6
BYLAYER
 49
-0.5
 62
   256
  6
BYLAYER
  0
ACDBPLACEHOLDER
  5
F
102
{ACAD_REACTORS
330
E
102
}
330
E
  0
VISUALSTYLE
  5
2F
102
{ACAD_REACTORS
330
2A
102
}
330
2A
100
AcDbVisualStyle
  2
2dWireframe
 70
     4
 71
     0
 72
     2
 73
     0
 90
        0
 40
-0.6
 41
-30.0
 62
     5
 63
     7
421
 16777215
 74
     1
 91
        4
 64
     7
 65
   257
 75
     1
175
     1
 42
1.0
 92
        0
 66
   257
 43
1.0
 76
     1
 77
     6
 78
     2
 67
     7
 79
     5
170
     0
171
     0
290
     0
174
     0
 93
        1
 44
0.0
173
     0
291
     0
 45
0.0
  0
VISUALSTYLE
  5
31
102
{ACAD_REACTORS
330
2A
102
}
330
2A
100
AcDbVisualStyle
  2
3D Hidden
 70
     6
 71
     1
 72
     2
 73
     2
 90
        0
 40
-0.6
 41
-30.0
 62
     5
 63
     7
421
 16777215
 74
     2
 91
        2
 64
     7
 65
   257
 75
     2
175
     1
 42
40.0
 92
        0
 66
   257
 43
1.0
 76
     1
 77
     6
 78
     2
 67
     7
 79
     3
170
     0
171
     0
290
     0
174
     0
 93
        1
 44
0.0
173
     0
291
     0
 45
0.0
  0
VISUALSTYLE
  5
30
102
{ACAD_REACTORS
330
2A
102
}
330
2A
100
AcDbVisualStyle
  2
3dWireframe
 70
     5
 71
     0
 72
     2
 73
     0
 90
        0
 40
-0.6
 41
-30.0
 62
     5
 63
     7
421
 16777215
 74
     1
 91
        4
 64
     7
 65
   257
 75
     1
175
     1
 42
1.0
 92
        0
 66
   257
 43
1.0
 76
     1
 77
     6
 78
     2
 67
     7
 79
     5
170
     0
171
     0
290
     0
174
     0
 93
        1
 44
0.0
173
     0
291
     0
 45
0.0
  0
VISUALSTYLE
  5
32
102
{ACAD_REACTORS
330
2A
102
}
330
2A
100
AcDbVisualStyle
  2
Basic
 70
     7
 71
     1
 72
     0
 73
     1
 90
        0
 40
-0.6
 41
-30.0
 62
     5
 63
     7
421
 16777215
 74
     0
 91
        4
 64
     7
 65
   257
 75
     1
175
     1
 42
1.0
 92
        8
 66
     7
 43
1.0
 76
     1
 77
     6
 78
     2
 67
     7
 79
     5
170
     0
171
     0
290
     0
174
     0
 93
        1
 44
0.0
173
     0
291
     1
 45
0.0
  0
VISUALSTYLE
  5
36
102
{ACAD_REACTORS
330
2A
102
}
330
2A
100
AcDbVisualStyle
  2
Brighten
 70
    12
 71
     2
 72
     2
 73
     0
 90
        0
 40
-0.6
 41
-30.0
 62
     5
 63
     7
421
 16777215
 74
     1
 91
        4
 64
     7
 65
   257
 75
     1
175
     1
 42
1.0
 92
        8
 66
     7
 43
1.0
 76
     1
 77
     6
 78
     2
 67
     7
 79
     5
170
     0
171
     0
290
     0
174
     0
 93
        1
 44
50.0
173
     0
291
     1
 45
0.0
  0
VISUALSTYLE
  5
3A
102
{ACAD_REACTORS
330
2A
102
}
330
2A
100
AcDbVisualStyle
  2
ColorChange
 70
    16
 71
     2
 72
     2
 73
     3
 90
        0
 40
-0.6
 41
-30.0
 62
     5
 63
     8
421
  8421504
 74
     1
 91
        4
 64
     7
 65
   257
 75
     1
175
     1
 42
1.0
 92
        8
 66
     8
424
  8421504
 43
1.0
 76
     1
 77
     6
 78
     2
 67
     7
 79
     5
170
     0
171
     0
290
     0
174
     0
 93
        1
 44
0.0
173
     0
291
     1
 45
0.0
  0
VISUALSTYLE
  5
34
102
{ACAD_REACTORS
330
2A
102
}
330
2A
100
AcDbVisualStyle
  2
Conceptual
 70
     9
 71
     3
 72
     2
 73
     0
 90
        0
 40
-0.6
 41
-30.0
 62
     5
 63
     7
421
 16777215
 74
     2
 91
        2
 64
     7
 65
   257
 75
     1
175
     1
 42
40.0
 92
        8
 66
     7
 43
1.0
 76
     1
 77
     6
 78
     2
 67
     7
 79
     3
170
     0
171
     0
290
     0
174
     0
 93
        1
 44
0.0
173
     0
291
     0
 45
0.0
  0
VISUALSTYLE
  5
35
102
{ACAD_REACTORS
330
2A
102
}
330
2A
100
AcDbVisualStyle
  2
Dim
 70
    11
 71
     2
 72
     2
 73
     0
 90
        0
 40
-0.6
 41
-30.0
 62
     5
 63
     7
421
 16777215
 74
     1
 91
        4
 64
     7
 65
   257
 75
     1
175
     1
 42
1.0
 92
        8
 66
     7
 43
1.0
 76
     1
 77
     6
 78
     2
 67
     7
 79
     5
170
     0
171
     0
290
     0
174
     0
 93
        1
 44
-50.0
173
     0
291
     1
 45
0.0
  0
VISUALSTYLE
  5
39
102
{ACAD_REACTORS
330
2A
102
}
330
2A
100
AcDbVisualStyle
  2
Facepattern
 70
    15
 71
     2
 72
     2
 73
     0
 90
        0
 40
-0.6
 41
-30.0
 62
     5
 63
     7
421
 16777215
 74
     1
 91
        4
 64
     7
 65
   257
 75
     1
175
     1
 42
1.0
 92
        8
 66
     7
 43
1.0
 76
     1
 77
     6
 78
     2
 67
     7
 79
     5
170
     0
171
     0
290
     0
174
     0
 93
        1
 44
0.0
173
     0
291
     1
 45
0.0
  0
VISUALSTYLE
  5
2B
102
{ACAD_REACTORS
330
2A
102
}
330
2A
100
AcDbVisualStyle
  2
Flat
 70
     0
 71
     2
 72
     1
 73
     1
 90
        2
 40
-0.6
 41
30.0
 62
     5
 63
     7
421
 16777215
 74
     0
 91
        4
 64
     7
 65
   257
 75
     1
175
     1
 42
1.0
 92
        8
 66
     7
 43
1.0
 76
     1
 77
     6
 78
     2
 67
     7
 79
     5
170
     0
171
     0
290
     0
174
     0
 93
       13
 44
0.0
173
     0
291
     1
 45
0.0
  0
VISUALSTYLE
  5
2C
102
{ACAD_REACTORS
330
2A
102
}
330
2A
100
AcDbVisualStyle
  2
FlatWithEdges
 70
     1
 71
     2
 72
     1
 73
     1
 90
        2
 40
-0.6
 41
30.0
 62
     5
 63
     7
421
 16777215
 74
     1
 91
        4
 64
     7
 65
   257
 75
     1
175
     1
 42
1.0
 92
        0
 66
   257
 43
1.0
 76
     1
 77
     6
 78
     2
 67
     7
 79
     5
170
     0
171
     0
290
     0
174
     0
 93
       13
 44
0.0
173
     0
291
     1
 45
0.0
  0
VISUALSTYLE
  5
2D
102
{ACAD_REACTORS
330
2A
102
}
330
2A
100
AcDbVisualStyle
  2
Gouraud
 70
     2
 71
     2
 72
     2
 73
     1
 90
        2
 40
-0.6
 41
30.0
 62
     5
 63
     7
421
 16777215
 74
     0
 91
        4
 64
     7
 65
   257
 75
     1
175
     1
 42
1.0
 92
        0
 66
     7
 43
1.0
 76
     1
 77
     6
 78
     2
 67
     7
 79
     5
170
     0
171
     0
290
     0
174
     0
 93
       13
 44
0.0
173
     0
291
     1
 45
0.0
  0
VISUALSTYLE
  5
2E
102
{ACAD_REACTORS
330
2A
102
}
330
2A
100
AcDbVisualStyle
  2
GouraudWithEdges
 70
     3
 71
     2
 72
     2
 73
     1
 90
        2
 40
-0.6
 41
30.0
 62
     5
 63
     7
421
 16777215
 74
     1
 91
        4
 64
     7
 65
   257
 75
     1
175
     1
 42
1.0
 92
        0
 66
   257
 43
1.0
 76
     1
 77
     6
 78
     2
 67
     7
 79
     5
170
     0
171
     0
290
     0
174
     0
 93
       13
 44
0.0
173
     0
291
     1
 45
0.0
  0
VISUALSTYLE
  5
38
102
{ACAD_REACTORS
330
2A
102
}
330
2A
100
AcDbVisualStyle
  2
Linepattern
 70
    14
 71
     2
 72
     2
 73
     0
 90
        0
 40
-0.6
 41
-30.0
 62
     5
 63
     7
421
 16777215
 74
     1
 91
        4
 64
     7
 65
   257
 75
     7
175
     7
 42
1.0
 92
        8
 66
     7
 43
1.0
 76
     1
 77
     6
 78
     2
 67
     7
 79
     5
170
     0
171
     0
290
     0
174
     0
 93
        1
 44
0.0
173
     0
291
     1
 45
0.0
  0
VISUALSTYLE
  5
33
102
{ACAD_REACTORS
330
2A
102
}
330
2A
100
AcDbVisualStyle
  2
Realistic
 70
     8
 71
     2
 72
     2
 73
     0
 90
        0
 40
-0.6
 41
-30.0
 62
     5
 63
     7
421
 16777215
 74
     1
 91
        0
 64
     7
 65
   257
 75
     1
175
     1
 42
1.0
 92
        8
 66
     8
424
  7895160
 43
1.0
 76
     1
 77
     6
 78
     2
 67
     7
 79
     5
170
     0
171
     0
290
     0
174
     0
 93
       13
 44
0.0
173
     0
291
     0
 45
0.0
  0
VISUALSTYLE
  5
37
102
{ACAD_REACTORS
330
2A
102
}
330
2A
100
AcDbVisualStyle
  2
Thicken
 70
    13
 71
     2
 72
     2
 73
     0
 90
        0
 40
-0.6
 41
-30.0
 62
     5
 63
     7
421
 16777215
 74
     1
 91
        4
 64
     7
 65
   257
 75
     1
175
     1
 42
1.0
 92
       12
 66
     7
 43
1.0
 76
     1
 77
     6
 78
     2
 67
     7
 79
     5
170
     0
171
     0
290
     0
174
     0
 93
        1
 44
0.0
173
     0
291
     1
 45
0.0
  0
ENDSEC
  0
EOF
