  0
SECTION
  2
HEADER
  9
$ACADVER
  1
AC1018
  9
$ACADMAINTVER
 70
     0
  9
$DWGCODEPAGE
  3
ANSI_1252
  9
$INSBASE
 10
0.0
 20
0.0
 30
0.0
  9
$EXTMIN
 10
0.0
 20
0.0
 30
0.0
  9
$EXTMAX
 10
297.0
 20
210.0
 30
0.0
  9
$LIMMIN
 10
0.0
 20
0.0
  9
$LIMMAX
 10
297.0
 20
210.0
  9
$ORTHOMODE
 70
     0
  9
$REGENMODE
 70
     1
  9
$FILLMODE
 70
     1
  9
$QTEXTMODE
 70
     0
  9
$MIRRTEXT
 70
     1
  9
$LTSCALE
 40
1.0
  9
$ATTMODE
 70
     1
  9
$TEXTSIZE
 40
3.5
  9
$TRACEWID
 40
1.0
  9
$TEXTSTYLE
  7
Standard
  9
$CLAYER
  8
0
  9
$CELTYPE
  6
ByLayer
  9
$CECOLOR
 62
   256
  9
$CELTSCALE
 40
1.0
  9
$DISPSILH
 70
     0
  9
$DIMSCALE
 40
1.0
  9
$DIMASZ
 40
3.302
  9
$DIMEXO
 40
1.0
  9
$DIMDLI
 40
3.75
  9
$DIMRND
 40
0.0
  9
$DIMDLE
 40
0.0
  9
$DIMEXE
 40
1.0
  9
$DIMTP
 40
0.0
  9
$DIMTM
 40
0.0
  9
$DIMTXT
 40
3.5
  9
$DIMCEN
 40
2.5
  9
$DIMTSZ
 40
0.0
  9
$DIMTOL
 70
     0
  9
$DIMLIM
 70
     0
  9
$DIMTIH
 70
     1
  9
$DIMTOH
 70
     1
  9
$DIMSE1
 70
     0
  9
$DIMSE2
 70
     0
  9
$DIMTAD
 70
     1
  9
$DIMZIN
 70
     0
  9
$DIMBLK
  1

  9
$DIMASO
 70
     1
  9
$DIMSHO
 70
     1
  9
$DIMPOST
  1

  9
$DIMAPOST
  1

  9
$DIMALT
 70
     0
  9
$DIMALTD
 70
     3
  9
$DIMALTF
 40
0.0393700787
  9
$DIMLFAC
 40
1.0
  9
$DIMTOFL
 70
     1
  9
$DIMTVP
 40
0.0
  9
$DIMTIX
 70
     0
  9
$DIMSOXD
 70
     0
  9
$DIMSAH
 70
     0
  9
$DIMBLK1
  1

  9
$DIMBLK2
  1

  9
$DIMSTYLE
  2
ISO-25
  9
$DIMCLRD
 70
     0
  9
$DIMCLRE
 70
     0
  9
$DIMCLRT
 70
     0
  9
$DIMTFAC
 40
1.0
  9
$DIMGAP
 40
1.524
  9
$DIMJUST
 70
     0
  9
$DIMSD1
 70
     0
  9
$DIMSD2
 70
     0
  9
$DIMTOLJ
 70
     0
  9
$DIMTZIN
 70
     0
  9
$DIMALTZ
 70
     0
  9
$DIMALTTZ
 70
     0
  9
$DIMUPT
 70
     0
  9
$DIMDEC
 70
     2
  9
$DIMTDEC
 70
     2
  9
$DIMALTU
 70
     2
  9
$DIMALTTD
 70
     3
  9
$DIMTXSTY
  7
Standard
  9
$DIMAUNIT
 70
     0
  9
$DIMADEC
 70
     2
  9
$DIMALTRND
 40
0.0
  9
$DIMAZIN
 70
     0
  9
$DIMDSEP
 70
    44
  9
$DIMATFIT
 70
     3
  9
$DIMFRAC
 70
     0
  9
$DIMLDRBLK
  1

  9
$DIMLUNIT
 70
     2
  9
$DIMLWD
 70
    -2
  9
$DIMLWE
 70
    -2
  9
$DIMTMOVE
 70
     0
  9
$LUNITS
 70
     2
  9
$LUPREC
 70
     2
  9
$SKETCHINC
 40
1.0
  9
$FILLETRAD
 40
10.0
  9
$AUNITS
 70
     0
  9
$AUPREC
 70
     2
  9
$MENU
  1
.
  9
$ELEVATION
 40
0.0
  9
$PELEVATION
 40
0.0
  9
$THICKNESS
 40
0.0
  9
$LIMCHECK
 70
     0
  9
$CHAMFERA
 40
0.0
  9
$CHAMFERB
 40
0.0
  9
$CHAMFERC
 40
0.0
  9
$CHAMFERD
 40
0.0
  9
$SKPOLY
 70
     0
  9
$TDCREATE
 40
2457661.418736354
  9
$TDUCREATE
 40
2457661.335403021
  9
$TDUPDATE
 40
2457661.418736782
  9
$TDUUPDATE
 40
2457661.335403449
  9
$TDINDWG
 40
0.0000000116
  9
$TDUSRTIMER
 40
0.0000000116
  9
$USRTIMER
 70
     1
  9
$ANGBASE
 50
0.0
  9
$ANGDIR
 70
     0
  9
$PDMODE
 70
     0
  9
$PDSIZE
 40
-1.0
  9
$PLINEWID
 40
0.0
  9
$SPLFRAME
 70
     0
  9
$SPLINETYPE
 70
     6
  9
$SPLINESEGS
 70
     8
  9
$HANDSEED
  5
160
  9
$SURFTAB1
 70
     6
  9
$SURFTAB2
 70
     6
  9
$SURFTYPE
 70
     6
  9
$SURFU
 70
     6
  9
$SURFV
 70
     6
  9
$UCSBASE
  2

  9
$UCSNAME
  2

  9
$UCSORG
 10
0.0
 20
0.0
 30
0.0
  9
$UCSXDIR
 10
1.0
 20
0.0
 30
0.0
  9
$UCSYDIR
 10
0.0
 20
1.0
 30
0.0
  9
$UCSORTHOREF
  2

  9
$UCSORTHOVIEW
 70
     0
  9
$UCSORGTOP
 10
0.0
 20
0.0
 30
0.0
  9
$UCSORGBOTTOM
 10
0.0
 20
0.0
 30
0.0
  9
$UCSORGLEFT
 10
0.0
 20
0.0
 30
0.0
  9
$UCSORGRIGHT
 10
0.0
 20
0.0
 30
0.0
  9
$UCSORGFRONT
 10
0.0
 20
0.0
 30
0.0
  9
$UCSORGBACK
 10
0.0
 20
0.0
 30
0.0
  9
$PUCSBASE
  2

  9
$PUCSNAME
  2

  9
$PUCSORG
 10
0.0
 20
0.0
 30
0.0
  9
$PUCSXDIR
 10
1.0
 20
0.0
 30
0.0
  9
$PUCSYDIR
 10
0.0
 20
1.0
 30
0.0
  9
$PUCSORTHOREF
  2

  9
$PUCSORTHOVIEW
 70
     0
  9
$PUCSORGTOP
 10
0.0
 20
0.0
 30
0.0
  9
$PUCSORGBOTTOM
 10
0.0
 20
0.0
 30
0.0
  9
$PUCSORGLEFT
 10
0.0
 20
0.0
 30
0.0
  9
$PUCSORGRIGHT
 10
0.0
 20
0.0
 30
0.0
  9
$PUCSORGFRONT
 10
0.0
 20
0.0
 30
0.0
  9
$PUCSORGBACK
 10
0.0
 20
0.0
 30
0.0
  9
$USERI1
 70
     0
  9
$USERI2
 70
     0
  9
$USERI3
 70
     0
  9
$USERI4
 70
     0
  9
$USERI5
 70
     0
  9
$USERR1
 40
0.0
  9
$USERR2
 40
0.0
  9
$USERR3
 40
0.0
  9
$USERR4
 40
0.0
  9
$USERR5
 40
0.0
  9
$WORLDVIEW
 70
     1
  9
$SHADEDGE
 70
     3
  9
$SHADEDIF
 70
    70
  9
$TILEMODE
 70
     1
  9
$MAXACTVP
 70
    64
  9
$PINSBASE
 10
0.0
 20
0.0
 30
0.0
  9
$PLIMCHECK
 70
     0
  9
$PEXTMIN
 10
1.0000000000E+20
 20
1.0000000000E+20
 30
1.0000000000E+20
  9
$PEXTMAX
 10
-1.0000000000E+20
 20
-1.0000000000E+20
 30
-1.0000000000E+20
  9
$PLIMMIN
 10
0.0
 20
0.0
  9
$PLIMMAX
 10
420.0
 20
297.0
  9
$UNITMODE
 70
     0
  9
$VISRETAIN
 70
     1
  9
$PLINEGEN
 70
     0
  9
$PSLTSCALE
 70
     1
  9
$TREEDEPTH
 70
  3020
  9
$CMLSTYLE
  2
Standard
  9
$CMLJUST
 70
     0
  9
$CMLSCALE
 40
20.0
  9
$PROXYGRAPHICS
 70
     1
  9
$MEASUREMENT
 70
     1
  9
$CELWEIGHT
370
    -1
  9
$ENDCAPS
280
     0
  9
$JOINSTYLE
280
     0
  9
$LWDISPLAY
290
     1
  9
$INSUNITS
 70
     4
  9
$HYPERLINKBASE
  1

  9
$STYLESHEET
  1

  9
$XEDIT
290
     1
  9
$CEPSNTYPE
380
     0
  9
$PSTYLEMODE
290
     1
  9
$FINGERPRINTGUID
  2
{4387D7DE-D14F-40E4-B8A3-9D88580EF906}
  9
$VERSIONGUID
  2
{FAEB1C32-E019-11D5-929B-00C0DF256EC4}
  9
$EXTNAMES
290
     1
  9
$PSVPSCALE
 40
0.0
  9
$OLESTARTUP
290
     0
  9
$SORTENTS
280
   127
  9
$INDEXCTL
280
     0
  9
$HIDETEXT
280
     1
  9
$XCLIPFRAME
290
     0
  9
$HALOGAP
280
     0
  9
$OBSCOLOR
 70
   257
  9
$OBSLTYPE
280
     0
  9
$INTERSECTIONDISPLAY
280
     0
  9
$INTERSECTIONCOLOR
 70
   257
  9
$DIMASSOC
280
     2
  9
$PROJECTNAME
  1

  0
ENDSEC
  0
SECTION
  2
CLASSES
  0
CLASS
  1
ACDBDICTIONARYWDFLT
  2
AcDbDictionaryWithDefault
  3
ObjectDBX Classes
 90
        0
 91
        4
280
     0
281
     0
  0
CLASS
  1
VISUALSTYLE
  2
AcDbVisualStyle
  3
ObjectDBX Classes
 90
     4095
 91
        4
280
     0
281
     0
  0
CLASS
  1
MATERIAL
  2
AcDbMaterial
  3
ObjectDBX Classes
 90
     1153
 91
        4
280
     0
281
     0
  0
CLASS
  1
SCALE
  2
AcDbScale
  3
ObjectDBX Classes
 90
     1153
 91
        4
280
     0
281
     0
  0
CLASS
  1
TABLESTYLE
  2
AcDbTableStyle
  3
ObjectDBX Classes
 90
     4095
 91
        4
280
     0
281
     0
  0
CLASS
  1
MLEADERSTYLE
  2
AcDbMLeaderStyle
  3
ACDB_MLEADERSTYLE_CLASS
 90
     4095
 91
        4
280
     0
281
     0
  0
CLASS
  1
SUN
  2
AcDbSun
  3
SCENEOE
 90
     1153
 91
        4
280
     0
281
     0
  0
CLASS
  1
DICTIONARYVAR
  2
AcDbDictionaryVar
  3
ObjectDBX Classes
 90
        0
 91
        4
280
     0
281
     0
  0
CLASS
  1
CELLSTYLEMAP
  2
AcDbCellStyleMap
  3
ObjectDBX Classes
 90
     1152
 91
        4
280
     0
281
     0
  0
ENDSEC
  0
SECTION
  2
TABLES
  0
TABLE
  2
VPORT
  5
8
330
0
100
AcDbSymbolTable
 70
     1
  0
VPORT
  5
29
330
8
100
AcDbSymbolTableRecord
100
AcDbViewportTableRecord
  2
*Active
 70
     0
 10
0.0
 20
0.0
 11
1.0
 21
1.0
 12
148.5
 22
105.0
 13
0.0
 23
0.0
 14
10.0
 24
10.0
 15
10.0
 25
10.0
 16
0.0
 26
0.0
 36
1.0
 17
0.0
 27
0.0
 37
0.0
 40
210.0
 41
1.4142857143
 42
50.0
 43
0.0
 44
0.0
 50
0.0
 51
0.0
 71
     0
 72
  2000
 73
     1
 74
     3
 75
     0
 76
     0
 77
     0
 78
     0
281
     0
 65
     1
110
0.0
120
0.0
130
0.0
111
1.0
121
0.0
131
0.0
112
0.0
122
1.0
132
0.0
 79
     0
146
0.0
  0
ENDTAB
  0
TABLE
  2
LTYPE
  5
5
330
0
100
AcDbSymbolTable
 70
     8
  0
LTYPE
  5
14
330
5
100
AcDbSymbolTableRecord
100
AcDbLinetypeTableRecord
  2
ByBlock
 70
     0
  3

 72
    65
 73
     0
 40
0.0
  0
LTYPE
  5
15
330
5
100
AcDbSymbolTableRecord
100
AcDbLinetypeTableRecord
  2
ByLayer
 70
     0
  3

 72
    65
 73
     0
 40
0.0
  0
LTYPE
  5
16
330
5
100
AcDbSymbolTableRecord
100
AcDbLinetypeTableRecord
  2
Continuous
 70
     0
  3
Solid line
 72
    65
 73
     0
 40
0.0
  0
LTYPE
  5
6E
330
5
100
AcDbSymbolTableRecord
100
AcDbLinetypeTableRecord
  2
SLD-Durchgehend
 70
     0
  3
SolidWorks Line Style
 72
    65
 73
     0
 40
0.0
  0
LTYPE
  5
6F
330
5
100
AcDbSymbolTableRecord
100
AcDbLinetypeTableRecord
  2
SLD-Gestrichelt
 70
     0
  3
SolidWorks Line Style
 72
    65
 73
     2
 40
1.905
 49
1.27
 74
     0
 49
-0.635
 74
     0
  0
LTYPE
  5
70
330
5
100
AcDbSymbolTableRecord
100
AcDbLinetypeTableRecord
  2
SLD-Phantom
 70
     0
  3
SolidWorks Line Style
 72
    65
 73
     6
 40
12.7
 49
6.35
 74
     0
 49
-1.27
 74
     0
 49
1.27
 74
     0
 49
-1.27
 74
     0
 49
1.27
 74
     0
 49
-1.27
 74
     0
  0
LTYPE
  5
71
330
5
100
AcDbSymbolTableRecord
100
AcDbLinetypeTableRecord
  2
SLD-Kette
 70
     0
  3
SolidWorks Line Style
 72
    65
 73
     4
 40
10.16
 49
6.35
 74
     0
 49
-1.27
 74
     0
 49
1.27
 74
     0
 49
-1.27
 74
     0
  0
LTYPE
  5
72
330
5
100
AcDbSymbolTableRecord
100
AcDbLinetypeTableRecord
  2
SLD-Punktstrich
 70
     0
  3
SolidWorks Line Style
 72
    65
 73
     4
 40
19.05
 49
15.24
 74
     0
 49
-1.27
 74
     0
 49
1.27
 74
     0
 49
-1.27
 74
     0
  0
LTYPE
  5
73
330
5
100
AcDbSymbolTableRecord
100
AcDbLinetypeTableRecord
  2
SLD-Naht
 70
     0
  3
SolidWorks Line Style
 72
    65
 73
     2
 40
0.635
 49
0.0
 74
     0
 49
-0.635
 74
     0
  0
LTYPE
  5
74
330
5
100
AcDbSymbolTableRecord
100
AcDbLinetypeTableRecord
  2
SLD-Dicke-Dünne-Kette
 70
     0
  3
SolidWorks Line Style
 72
    65
 73
     4
 40
10.16
 49
6.35
 74
     0
 49
-1.27
 74
     0
 49
1.27
 74
     0
 49
-1.27
 74
     0
  0
ENDTAB
  0
TABLE
  2
LAYER
  5
2
330
0
100
AcDbSymbolTable
 70
     3
  0
LAYER
  5
10
330
2
100
AcDbSymbolTableRecord
100
AcDbLayerTableRecord
  2
0
 70
     0
 62
     7
  6
Continuous
370
    -3
390
F
  0
LAYER
  5
75
330
2
100
AcDbSymbolTableRecord
100
AcDbLayerTableRecord
  2
1
 70
     0
 62
     4
  6
Continuous
370
    -1
390
F
  0
LAYER
  5
76
330
2
100
AcDbSymbolTableRecord
100
AcDbLayerTableRecord
  2
2
 70
     0
 62
     7
  6
SLD-Durchgehend
370
    -3
390
F
  0
ENDTAB
  0
TABLE
  2
STYLE
  5
3
330
0
100
AcDbSymbolTable
 70
     2
  0
STYLE
  5
11
330
3
100
AcDbSymbolTableRecord
100
AcDbTextStyleTableRecord
  2
Standard
 70
     0
 40
0.0
 41
1.0
 50
0.0
 71
     0
 42
3.5
  3
txt
  4

  0
STYLE
  5
105
330
3
100
AcDbSymbolTableRecord
100
AcDbTextStyleTableRecord
  2
SLDTEXTSTYLE0
 70
     0
 40
0.0
 41
0.75
 50
0.0
 71
     0
 42
3.5
  3
TXT
  4

  0
ENDTAB
  0
TABLE
  2
VIEW
  5
6
330
0
100
AcDbSymbolTable
 70
     0
  0
ENDTAB
  0
TABLE
  2
UCS
  5
7
330
0
100
AcDbSymbolTable
 70
     0
  0
ENDTAB
  0
TABLE
  2
APPID
  5
9
330
0
100
AcDbSymbolTable
 70
     2
  0
APPID
  5
12
330
9
100
AcDbSymbolTableRecord
100
AcDbRegAppTableRecord
  2
ACAD
 70
     0
  0
APPID
  5
15A
330
9
100
AcDbSymbolTableRecord
100
AcDbRegAppTableRecord
  2
ACAD_MLEADERVER
 70
     0
  0
ENDTAB
  0
TABLE
  2
DIMSTYLE
  5
A
330
0
100
AcDbSymbolTable
 70
     5
100
AcDbDimStyleTable
  0
DIMSTYLE
105
27
330
A
100
AcDbSymbolTableRecord
100
AcDbDimStyleTableRecord
  2
ISO-25
 70
     0
 41
2.5
 42
0.625
 43
3.75
 44
1.25
 73
     0
 74
     0
 77
     1
 78
     8
140
2.5
141
2.5
143
0.0393700787
147
0.625
171
     3
172
     1
178
     0
271
     2
272
     2
274
     3
278
    44
283
     0
284
     8
340
11
  0
DIMSTYLE
105
106
102
{ACAD_REACTORS
330
104
330
111
102
}
330
A
100
AcDbSymbolTableRecord
100
AcDbDimStyleTableRecord
  2
SLDDIMSTYLE0
 70
     0
 41
3.302
 44
0.0
 45
0.000000001
 73
     0
 74
     0
 77
     1
 78
    12
 79
     3
140
3.5
147
0.875
173
     1
178
     0
271
     2
272
     2
276
     2
284
    12
340
105
  0
DIMSTYLE
105
11C
102
{ACAD_REACTORS
330
11B
102
}
330
A
100
AcDbSymbolTableRecord
100
AcDbDimStyleTableRecord
  2
SLDDIMSTYLE1
 70
     0
 41
3.302
 44
0.0
 45
0.000000001
 73
     0
 74
     0
 77
     1
 78
    12
 79
     3
140
3.5
147
0.875
173
     1
178
     0
271
     1
272
     2
276
     2
284
    12
340
105
  0
DIMSTYLE
105
127
102
{ACAD_REACTORS
330
126
102
}
330
A
100
AcDbSymbolTableRecord
100
AcDbDimStyleTableRecord
  2
SLDDIMSTYLE2
 70
     0
 41
3.302
 44
0.0
 45
0.000000001
 73
     0
 74
     0
 77
     1
 78
    12
 79
     3
140
3.5
147
0.875
173
     1
178
     0
271
     1
272
     1
276
     2
284
    12
340
105
  0
DIMSTYLE
105
132
102
{ACAD_REACTORS
330
131
102
}
330
A
100
AcDbSymbolTableRecord
100
AcDbDimStyleTableRecord
  2
SLDDIMSTYLE3
 70
     0
 41
3.302
 44
0.0
 45
0.000000001
 73
     0
 74
     0
 77
     1
 78
    12
 79
     3
140
3.5
147
0.875
173
     1
178
     0
271
     0
272
     0
276
     2
284
    12
340
105
  0
ENDTAB
  0
TABLE
  2
BLOCK_RECORD
  5
1
330
0
100
AcDbSymbolTable
 70
     8
  0
BLOCK_RECORD
  5
1F
330
1
100
AcDbSymbolTableRecord
100
AcDbBlockTableRecord
  2
*Model_Space
340
22
  0
BLOCK_RECORD
  5
1B
330
1
100
AcDbSymbolTableRecord
100
AcDbBlockTableRecord
  2
*Paper_Space
340
1E
  0
BLOCK_RECORD
  5
23
330
1
100
AcDbSymbolTableRecord
100
AcDbBlockTableRecord
  2
*Paper_Space0
340
26
  0
BLOCK_RECORD
  5
107
330
1
100
AcDbSymbolTableRecord
100
AcDbBlockTableRecord
  2
_D
340
0
  0
BLOCK_RECORD
  5
112
330
1
100
AcDbSymbolTableRecord
100
AcDbBlockTableRecord
  2
_D_1
340
0
  0
BLOCK_RECORD
  5
11D
330
1
100
AcDbSymbolTableRecord
100
AcDbBlockTableRecord
  2
_D_2
340
0
  0
BLOCK_RECORD
  5
128
330
1
100
AcDbSymbolTableRecord
100
AcDbBlockTableRecord
  2
_D_3
340
0
  0
BLOCK_RECORD
  5
133
330
1
100
AcDbSymbolTableRecord
100
AcDbBlockTableRecord
  2
_D_4
340
0
  0
BLOCK_RECORD
  5
13D
330
1
100
AcDbSymbolTableRecord
100
AcDbBlockTableRecord
  2
SW_CENTERMARKSYMBOL_0
340
0
102
{BLKREFS
331
148
102
}
  0
BLOCK_RECORD
  5
149
330
1
100
AcDbSymbolTableRecord
100
AcDbBlockTableRecord
  2
SW_CENTERMARKSYMBOL_1
340
0
102
{BLKREFS
331
154
102
}
  0
ENDTAB
  0
ENDSEC
  0
SECTION
  2
BLOCKS
  0
BLOCK
  5
20
330
1F
100
AcDbEntity
  8
0
100
AcDbBlockBegin
  2
*Model_Space
 70
     0
 10
0.0
 20
0.0
 30
0.0
  3
*Model_Space
  1

  0
ENDBLK
  5
21
330
1F
100
AcDbEntity
  8
0
100
AcDbBlockEnd
  0
BLOCK
  5
1C
330
1B
100
AcDbEntity
 67
     1
  8
0
100
AcDbBlockBegin
  2
*Paper_Space
 70
     0
 10
0.0
 20
0.0
 30
0.0
  3
*Paper_Space
  1

  0
ENDBLK
  5
1D
330
1B
100
AcDbEntity
 67
     1
  8
0
100
AcDbBlockEnd
  0
BLOCK
  5
24
330
23
100
AcDbEntity
  8
0
100
AcDbBlockBegin
  2
*Paper_Space0
 70
     0
 10
0.0
 20
0.0
 30
0.0
  3
*Paper_Space0
  1

  0
ENDBLK
  5
25
330
23
100
AcDbEntity
  8
0
100
AcDbBlockEnd
  0
BLOCK
  5
108
330
107
100
AcDbEntity
  8
0
100
AcDbBlockBegin
  2
_D
 70
     0
 10
0.0
 20
0.0
 30
0.0
  3
_D
  1

  0
SOLID
  5
10A
330
107
100
AcDbEntity
  8
2
 62
     7
420
 16777215
100
AcDbTrace
 10
-62.3474352056
 20
31.50067955
 30
0.0
 11
-62.8554352056
 21
28.19867955
 31
0.0
 12
-61.8394352056
 22
28.19867955
 32
0.0
 13
-61.8394352056
 23
28.19867955
 33
0.0
  0
SOLID
  5
10B
330
107
100
AcDbEntity
  8
2
 62
     7
420
 16777215
100
AcDbTrace
 10
-62.3474352056
 20
-31.49932045
 30
0.0
 11
-61.8394352056
 21
-28.19732045
 31
0.0
 12
-62.8554352056
 22
-28.19732045
 32
0.0
 13
-62.8554352056
 23
-28.19732045
 33
0.0
  0
LINE
  5
10C
330
107
100
AcDbEntity
  8
2
 62
     7
420
 16777215
100
AcDbLine
 10
-25.021992384
 20
31.50067955
 30
0.0
 11
-63.3474352056
 21
31.50067955
 31
0.0
  0
LINE
  5
10D
330
107
100
AcDbEntity
  8
2
 62
     7
420
 16777215
100
AcDbLine
 10
-25.021992384
 20
-31.49932045
 30
0.0
 11
-63.3474352056
 21
-31.49932045
 31
0.0
  0
LINE
  5
10E
330
107
100
AcDbEntity
  8
2
 62
     7
420
 16777215
100
AcDbLine
 10
-62.3474352056
 20
31.50067955
 30
0.0
 11
-62.3474352056
 21
-31.49932045
 31
0.0
  0
MTEXT
  5
10F
330
107
100
AcDbEntity
  8
2
 62
     7
420
 16777215
100
AcDbMText
 10
-66.8591722948
 20
-5.2246505756
 30
0.0
 40
3.5
 41
0.0
 71
     1
 72
     1
  1
%%c
  7
SLDTEXTSTYLE0
 11
-7.044195017643634E-15
 21
1.0
 31
0.0
 73
     1
 44
1.0
  0
MTEXT
  5
110
330
107
100
AcDbEntity
  8
2
 62
     7
420
 16777215
100
AcDbMText
 10
-66.9126444714
 20
0.0537868228
 30
0.0
 40
3.5
 41
0.0
 71
     1
 72
     1
  1
63
  7
SLDTEXTSTYLE0
 11
-7.044195017643634E-15
 21
1.0
 31
0.0
 73
     1
 44
1.0
  0
ENDBLK
  5
109
330
107
100
AcDbEntity
  8
0
100
AcDbBlockEnd
  0
BLOCK
  5
113
330
112
100
AcDbEntity
  8
0
100
AcDbBlockBegin
  2
_D_1
 70
     0
 10
0.0
 20
0.0
 30
0.0
  3
_D_1
  1

  0
SOLID
  5
115
330
112
100
AcDbEntity
  8
2
 62
     7
420
 16777215
100
AcDbTrace
 10
-24.021992384
 20
-50.17432045
 30
0.0
 11
-20.719992384
 21
-50.68232045
 31
0.0
 12
-20.719992384
 22
-49.66632045
 32
0.0
 13
-20.719992384
 23
-49.66632045
 33
0.0
  0
SOLID
  5
116
330
112
100
AcDbEntity
  8
2
 62
     7
420
 16777215
100
AcDbTrace
 10
17.978007616
 20
-50.17432045
 30
0.0
 11
14.676007616
 21
-49.66632045
 31
0.0
 12
14.676007616
 22
-50.68232045
 32
0.0
 13
14.676007616
 23
-50.68232045
 33
0.0
  0
LINE
  5
117
330
112
100
AcDbEntity
  8
2
 62
     7
420
 16777215
100
AcDbLine
 10
-24.021992384
 20
-32.49932045
 30
0.0
 11
-24.021992384
 21
-51.17432045
 31
0.0
  0
LINE
  5
118
330
112
100
AcDbEntity
  8
2
 62
     7
420
 16777215
100
AcDbLine
 10
17.978007616
 20
-45.17432045
 30
0.0
 11
17.978007616
 21
-51.17432045
 31
0.0
  0
LINE
  5
119
330
112
100
AcDbEntity
  8
2
 62
     7
420
 16777215
100
AcDbLine
 10
-24.021992384
 20
-50.17432045
 30
0.0
 11
17.978007616
 21
-50.17432045
 31
0.0
  0
MTEXT
  5
11A
330
112
100
AcDbEntity
  8
2
 62
     7
420
 16777215
100
AcDbMText
 10
-5.6081035776
 20
-45.6625835354
 30
0.0
 40
3.5
 41
0.0
 71
     1
 72
     1
  1
42
  7
SLDTEXTSTYLE0
 73
     1
 44
1.0
  0
ENDBLK
  5
114
330
112
100
AcDbEntity
  8
0
100
AcDbBlockEnd
  0
BLOCK
  5
11E
330
11D
100
AcDbEntity
  8
0
100
AcDbBlockBegin
  2
_D_2
 70
     0
 10
0.0
 20
0.0
 30
0.0
  3
_D_2
  1

  0
SOLID
  5
120
330
11D
100
AcDbEntity
  8
2
 62
     7
420
 16777215
100
AcDbTrace
 10
42.970679133
 20
-56.17432045
 30
0.0
 11
39.668679133
 21
-55.66632045
 31
0.0
 12
39.668679133
 22
-56.68232045
 32
0.0
 13
39.668679133
 23
-56.68232045
 33
0.0
  0
SOLID
  5
121
330
11D
100
AcDbEntity
  8
2
 62
     7
420
 16777215
100
AcDbTrace
 10
-24.021992384
 20
-56.17432045
 30
0.0
 11
-20.719992384
 21
-56.68232045
 31
0.0
 12
-20.719992384
 22
-55.66632045
 32
0.0
 13
-20.719992384
 23
-55.66632045
 33
0.0
  0
LINE
  5
122
330
11D
100
AcDbEntity
  8
2
 62
     7
420
 16777215
100
AcDbLine
 10
42.970679133
 20
-45.17432045
 30
0.0
 11
42.970679133
 21
-57.17432045
 31
0.0
  0
LINE
  5
123
330
11D
100
AcDbEntity
  8
2
 62
     7
420
 16777215
100
AcDbLine
 10
-24.021992384
 20
-32.49932045
 30
0.0
 11
-24.021992384
 21
-57.17432045
 31
0.0
  0
LINE
  5
124
330
11D
100
AcDbEntity
  8
2
 62
     7
420
 16777215
100
AcDbLine
 10
42.970679133
 20
-56.17432045
 30
0.0
 11
-24.021992384
 21
-56.17432045
 31
0.0
  0
MTEXT
  5
125
330
11D
100
AcDbEntity
  8
2
 62
     7
420
 16777215
100
AcDbMText
 10
6.8882321809
 20
-51.6625835354
 30
0.0
 40
3.5
 41
0.0
 71
     1
 72
     1
  1
67
  7
SLDTEXTSTYLE0
 73
     1
 44
1.0
  0
ENDBLK
  5
11F
330
11D
100
AcDbEntity
  8
0
100
AcDbBlockEnd
  0
BLOCK
  5
129
330
128
100
AcDbEntity
  8
0
100
AcDbBlockBegin
  2
_D_3
 70
     0
 10
0.0
 20
0.0
 30
0.0
  3
_D_3
  1

  0
SOLID
  5
12B
330
128
100
AcDbEntity
  8
2
 62
     7
420
 16777215
100
AcDbTrace
 10
55.9195058387
 20
0.00067955
 30
0.0
 11
55.4115058387
 21
-3.30132045
 31
0.0
 12
56.4275058387
 22
-3.30132045
 32
0.0
 13
56.4275058387
 23
-3.30132045
 33
0.0
  0
SOLID
  5
12C
330
128
100
AcDbEntity
  8
2
 62
     7
420
 16777215
100
AcDbTrace
 10
55.9195058387
 20
-38.67432045
 30
0.0
 11
56.4275058387
 21
-35.37232045
 31
0.0
 12
55.4115058387
 22
-35.37232045
 32
0.0
 13
55.4115058387
 23
-35.37232045
 33
0.0
  0
LINE
  5
12D
330
128
100
AcDbEntity
  8
2
 62
     7
420
 16777215
100
AcDbLine
 10
5.995679133
 20
0.00067955
 30
0.0
 11
56.9195058387
 21
0.00067955
 31
0.0
  0
LINE
  5
12E
330
128
100
AcDbEntity
  8
2
 62
     7
420
 16777215
100
AcDbLine
 10
49.470679133
 20
-38.67432045
 30
0.0
 11
56.9195058387
 21
-38.67432045
 31
0.0
  0
LINE
  5
12F
330
128
100
AcDbEntity
  8
2
 62
     7
420
 16777215
100
AcDbLine
 10
55.9195058387
 20
0.00067955
 30
0.0
 11
55.9195058387
 21
-38.67432045
 31
0.0
  0
MTEXT
  5
130
330
128
100
AcDbEntity
  8
2
 62
     7
420
 16777215
100
AcDbMText
 10
51.4077689241
 20
-23.8625149805
 30
0.0
 40
3.5
 41
0.0
 71
     1
 72
     1
  1
38,7
  7
SLDTEXTSTYLE0
 11
-1.326144395554451E-14
 21
1.0
 31
0.0
 73
     1
 44
1.0
  0
ENDBLK
  5
12A
330
128
100
AcDbEntity
  8
0
100
AcDbBlockEnd
  0
BLOCK
  5
134
330
133
100
AcDbEntity
  8
0
100
AcDbBlockBegin
  2
_D_4
 70
     0
 10
0.0
 20
0.0
 30
0.0
  3
_D_4
  1

  0
SOLID
  5
136
330
133
100
AcDbEntity
  8
2
 62
     7
420
 16777215
100
AcDbTrace
 10
67.9195058387
 20
-26.29932045
 30
0.0
 11
68.4275058387
 21
-22.99732045
 31
0.0
 12
67.4115058387
 22
-22.99732045
 32
0.0
 13
67.4115058387
 23
-22.99732045
 33
0.0
  0
SOLID
  5
137
330
133
100
AcDbEntity
  8
2
 62
     7
420
 16777215
100
AcDbTrace
 10
67.9195058387
 20
26.30067955
 30
0.0
 11
67.4115058387
 21
22.99867955
 31
0.0
 12
68.4275058387
 22
22.99867955
 32
0.0
 13
68.4275058387
 23
22.99867955
 33
0.0
  0
LINE
  5
138
330
133
100
AcDbEntity
  8
2
 62
     7
420
 16777215
100
AcDbLine
 10
17.978007616
 20
-26.29932045
 30
0.0
 11
68.9195058387
 21
-26.29932045
 31
0.0
  0
LINE
  5
139
330
133
100
AcDbEntity
  8
2
 62
     7
420
 16777215
100
AcDbLine
 10
18.149903987
 20
26.30067955
 30
0.0
 11
68.9195058387
 21
26.30067955
 31
0.0
  0
LINE
  5
13A
330
133
100
AcDbEntity
  8
2
 62
     7
420
 16777215
100
AcDbLine
 10
67.9195058387
 20
-26.29932045
 30
0.0
 11
67.9195058387
 21
26.30067955
 31
0.0
  0
MTEXT
  5
13B
330
133
100
AcDbEntity
  8
2
 62
     7
420
 16777215
100
AcDbMText
 10
63.4077687494
 20
-5.2246505756
 30
0.0
 40
3.5
 41
0.0
 71
     1
 72
     1
  1
%%c
  7
SLDTEXTSTYLE0
 11
6.123233995736766E-17
 21
1.0
 31
0.0
 73
     1
 44
1.0
  0
MTEXT
  5
13C
330
133
100
AcDbEntity
  8
2
 62
     7
420
 16777215
100
AcDbMText
 10
63.3542965728
 20
0.0537868228
 30
0.0
 40
3.5
 41
0.0
 71
     1
 72
     1
  1
53
  7
SLDTEXTSTYLE0
 11
6.123233995736766E-17
 21
1.0
 31
0.0
 73
     1
 44
1.0
  0
ENDBLK
  5
135
330
133
100
AcDbEntity
  8
0
100
AcDbBlockEnd
  0
BLOCK
  5
13E
330
13D
100
AcDbEntity
  8
0
100
AcDbBlockBegin
  2
SW_CENTERMARKSYMBOL_0
 70
     0
 10
0.0
 20
0.0
 30
0.0
  3
SW_CENTERMARKSYMBOL_0
  1

  0
LINE
  5
140
330
13D
100
AcDbEntity
  8
0
  6
SLD-Punktstrich
 62
     0
370
    15
100
AcDbLine
 10
0.0
 20
0.0
 30
0.0
 11
0.0
 21
2.5
 31
0.0
  0
LINE
  5
141
330
13D
100
AcDbEntity
  8
0
  6
SLD-Punktstrich
 62
     0
370
    15
100
AcDbLine
 10
0.0
 20
0.0
 30
0.0
 11
-2.5
 21
0.0
 31
0.0
  0
LINE
  5
142
330
13D
100
AcDbEntity
  8
0
  6
SLD-Punktstrich
 62
     0
370
    15
100
AcDbLine
 10
0.0
 20
0.0
 30
0.0
 11
0.0
 21
-2.5
 31
0.0
  0
LINE
  5
143
330
13D
100
AcDbEntity
  8
0
  6
SLD-Punktstrich
 62
     0
370
    15
100
AcDbLine
 10
0.0
 20
0.0
 30
0.0
 11
2.5
 21
0.0
 31
0.0
  0
LINE
  5
144
330
13D
100
AcDbEntity
  8
0
  6
SLD-Punktstrich
 62
     0
370
    15
100
AcDbLine
 10
0.0
 20
2.5
 30
0.0
 11
0.0
 21
3.63
 31
0.0
  0
LINE
  5
145
330
13D
100
AcDbEntity
  8
0
  6
SLD-Punktstrich
 62
     0
370
    15
100
AcDbLine
 10
-2.5
 20
0.0
 30
0.0
 11
-3.63
 21
0.0
 31
0.0
  0
LINE
  5
146
330
13D
100
AcDbEntity
  8
0
  6
SLD-Punktstrich
 62
     0
370
    15
100
AcDbLine
 10
0.0
 20
-2.5
 30
0.0
 11
0.0
 21
-3.63
 31
0.0
  0
LINE
  5
147
330
13D
100
AcDbEntity
  8
0
  6
SLD-Punktstrich
 62
     0
370
    15
100
AcDbLine
 10
2.5
 20
0.0
 30
0.0
 11
3.63
 21
0.0
 31
0.0
  0
ENDBLK
  5
13F
330
13D
100
AcDbEntity
  8
0
100
AcDbBlockEnd
  0
BLOCK
  5
14A
330
149
100
AcDbEntity
  8
0
100
AcDbBlockBegin
  2
SW_CENTERMARKSYMBOL_1
 70
     0
 10
0.0
 20
0.0
 30
0.0
  3
SW_CENTERMARKSYMBOL_1
  1

  0
LINE
  5
14C
330
149
100
AcDbEntity
  8
0
  6
SLD-Punktstrich
 62
     0
370
    15
100
AcDbLine
 10
0.0
 20
0.0
 30
0.0
 11
0.0
 21
2.5
 31
0.0
  0
LINE
  5
14D
330
149
100
AcDbEntity
  8
0
  6
SLD-Punktstrich
 62
     0
370
    15
100
AcDbLine
 10
0.0
 20
0.0
 30
0.0
 11
-2.5
 21
0.0
 31
0.0
  0
LINE
  5
14E
330
149
100
AcDbEntity
  8
0
  6
SLD-Punktstrich
 62
     0
370
    15
100
AcDbLine
 10
0.0
 20
0.0
 30
0.0
 11
0.0
 21
-2.5
 31
0.0
  0
LINE
  5
14F
330
149
100
AcDbEntity
  8
0
  6
SLD-Punktstrich
 62
     0
370
    15
100
AcDbLine
 10
0.0
 20
0.0
 30
0.0
 11
2.5
 21
0.0
 31
0.0
  0
LINE
  5
150
330
149
100
AcDbEntity
  8
0
  6
SLD-Punktstrich
 62
     0
370
    15
100
AcDbLine
 10
0.0
 20
2.5
 30
0.0
 11
0.0
 21
3.63
 31
0.0
  0
LINE
  5
151
330
149
100
AcDbEntity
  8
0
  6
SLD-Punktstrich
 62
     0
370
    15
100
AcDbLine
 10
-2.5
 20
0.0
 30
0.0
 11
-3.63
 21
0.0
 31
0.0
  0
LINE
  5
152
330
149
100
AcDbEntity
  8
0
  6
SLD-Punktstrich
 62
     0
370
    15
100
AcDbLine
 10
0.0
 20
-2.5
 30
0.0
 11
0.0
 21
-3.63
 31
0.0
  0
LINE
  5
153
330
149
100
AcDbEntity
  8
0
  6
SLD-Punktstrich
 62
     0
370
    15
100
AcDbLine
 10
2.5
 20
0.0
 30
0.0
 11
3.63
 21
0.0
 31
0.0
  0
ENDBLK
  5
14B
330
149
100
AcDbEntity
  8
0
100
AcDbBlockEnd
  0
ENDSEC
  0
SECTION
  2
ENTITIES
  0
LINE
  5
77
330
1F
100
AcDbEntity
  8
1
 62
     4
420
    65535
100
AcDbLine
 10
-0.004320867
 20
0.00067955
 30
0.0
 11
-0.004320867
 21
-0.0357629351
 31
0.0
  0
LINE
  5
78
330
1F
100
AcDbEntity
  8
0
  6
SLD-Punktstrich
 62
     7
100
AcDbLine
 10
-0.004320867
 20
0.00067955
 30
0.0
 11
4.995679133
 21
0.00067955
 31
0.0
  0
POINT
  5
79
330
1F
100
AcDbEntity
  8
1
 62
     4
420
    65535
100
AcDbPoint
 10
-0.004320867
 20
0.00067955
 30
0.0
  0
LINE
  5
7A
330
1F
100
AcDbEntity
  8
1
 62
     4
420
    65535
100
AcDbLine
 10
-24.021992384
 20
-31.49932045
 30
0.0
 11
-19.021992384
 21
-31.49932045
 31
0.0
  0
LINE
  5
7B
330
1F
100
AcDbEntity
  8
1
 62
     4
420
    65535
100
AcDbLine
 10
-19.0234237012
 20
31.50067955
 30
0.0
 11
-24.021992384
 21
31.50067955
 31
0.0
  0
LINE
  5
7C
330
1F
100
AcDbEntity
  8
1
 62
     4
420
    65535
100
AcDbLine
 10
-19.0230279896
 20
31.50067955
 30
0.0
 11
-19.0234237012
 21
31.50067955
 31
0.0
  0
LINE
  5
7D
330
1F
100
AcDbEntity
  8
1
 62
     4
420
    65535
100
AcDbLine
 10
-19.021992384
 20
31.50067955
 30
0.0
 11
-19.0230279896
 21
31.50067955
 31
0.0
  0
LINE
  5
7E
330
1F
100
AcDbEntity
  8
1
 62
     4
420
    65535
100
AcDbLine
 10
2.4414031411
 20
-26.29932045
 30
0.0
 11
16.978007616
 21
-26.29932045
 31
0.0
  0
LINE
  5
7F
330
1F
100
AcDbEntity
  8
1
 62
     4
420
    65535
100
AcDbLine
 10
17.1567375128
 20
26.30067955
 30
0.0
 11
2.4414031411
 21
26.30067955
 31
0.0
  0
ARC
  5
80
330
1F
100
AcDbEntity
  8
1
 62
     4
420
    65535
100
AcDbCircle
 10
16.978007616
 20
-27.29932045
 30
0.0
 40
1.0
100
AcDbArc
 50
360.0
 51
90.0
  0
LINE
  5
81
330
1F
100
AcDbEntity
  8
1
 62
     4
420
    65535
100
AcDbLine
 10
-37.2686339546
 20
23.658711487
 30
0.0
 11
-49.921992384
 21
23.027617376
 31
0.0
  0
LINE
  5
82
330
1F
100
AcDbEntity
  8
1
 62
     4
420
    65535
100
AcDbLine
 10
-24.021992384
 20
24.319395963
 30
0.0
 11
-28.82307101
 21
24.0799391845
 31
0.0
  0
LINE
  5
83
330
1F
100
AcDbEntity
  8
1
 62
     4
420
    65535
100
AcDbLine
 10
-28.8228348603
 20
-24.0785918627
 30
0.0
 11
-24.021992384
 21
-24.3180368631
 31
0.0
  0
LINE
  5
84
330
1F
100
AcDbEntity
  8
1
 62
     4
420
    65535
100
AcDbLine
 10
-45.921992384
 20
-23.2257607605
 30
0.0
 11
-37.2687822767
 21
-23.6573449893
 31
0.0
  0
LINE
  5
85
330
1F
100
AcDbEntity
  8
1
 62
     4
420
    65535
100
AcDbLine
 10
-54.021992384
 20
-20.86932045
 30
0.0
 11
-47.321992384
 21
-20.86932045
 31
0.0
  0
ARC
  5
86
330
1F
100
AcDbEntity
  8
1
 62
     4
420
    65535
100
AcDbCircle
 10
-47.321992384
 20
-22.26932045
 30
0.0
 40
1.399999999999999
100
AcDbArc
 50
41.4439804422
 51
90.0
  0
LINE
  5
87
330
1F
100
AcDbEntity
  8
1
 62
     4
420
    65535
100
AcDbLine
 10
-56.0222703298
 20
-19.7144594396
 30
0.0
 11
-54.021992384
 21
-20.86932045
 31
0.0
  0
ARC
  5
88
330
1F
100
AcDbEntity
  8
1
 62
     4
420
    65535
100
AcDbCircle
 10
-51.321992384
 20
22.27067955
 30
0.0
 40
1.400000000000001
100
AcDbArc
 50
270.0
 51
301.8317526229
  0
LINE
  5
89
330
1F
100
AcDbEntity
  8
1
 62
     4
420
    65535
100
AcDbLine
 10
-51.321992384
 20
20.87067955
 30
0.0
 11
-54.7304674058
 21
20.87067955
 31
0.0
  0
LINE
  5
8A
330
1F
100
AcDbEntity
  8
1
 62
     4
420
    65535
100
AcDbLine
 10
-54.8897250153
 20
20.8604416106
 30
0.0
 11
-55.7708499809
 21
20.3517238745
 31
0.0
  0
SPLINE
  5
8B
330
1F
100
AcDbEntity
  8
1
 62
     4
420
    65535
100
AcDbSpline
210
0.0
220
0.0
230
1.0
 70
     8
 71
     3
 72
    13
 73
     9
 74
     0
 42
0.000000001
 43
0.00000001
 40
0.0
 40
0.0
 40
0.0
 40
0.0
 40
0.1192562887465093
 40
0.4518534223912747
 40
0.7174867494323391
 40
0.9047318027687176
 40
0.9842996065151156
 40
0.9999999999999999
 40
0.9999999999999999
 40
0.9999999999999999
 40
0.9999999999999999
 10
2.440477228178643
 20
26.30416958214855
 30
0.0
 10
2.423119706893781
 20
26.30278991026201
 30
0.0
 10
2.357353318561295
 20
26.29756243362103
 30
0.0
 10
2.252744979604912
 20
26.31172176889548
 30
0.0
 10
2.140921115907775
 20
26.33681190006853
 30
0.0
 10
2.068125580756516
 20
26.36182126010647
 30
0.0
 10
2.03213237918524
 20
26.37636781471848
 30
0.0
 10
2.024344446220744
 20
26.3797231376717
 30
0.0
 10
2.023060978961679
 20
26.38027610174749
 30
0.0
  0
SPLINE
  5
8C
330
1F
100
AcDbEntity
  8
1
 62
     4
420
    65535
100
AcDbSpline
210
0.0
220
0.0
230
1.0
 70
     8
 71
     3
 72
     9
 73
     5
 74
     0
 42
0.000000001
 43
0.00000001
 40
0.0
 40
0.0
 40
0.0
 40
0.0
 40
0.8340735221404516
 40
1.0
 40
1.0
 40
1.0
 40
1.0
 10
2.013636414480411
 20
-26.36240182624605
 30
0.0
 10
2.017427160432413
 20
-26.33815028019457
 30
0.0
 10
2.021972018710941
 20
-26.3090742510344
 30
0.0
 10
2.017759600439265
 20
-26.31979493647174
 30
0.0
 10
2.017060648712175
 20
-26.32157378204659
 30
0.0
  0
SPLINE
  5
8D
330
1F
100
AcDbEntity
  8
1
 62
     4
420
    65535
100
AcDbSpline
210
0.0
220
0.0
230
1.0
 70
     8
 71
     3
 72
    12
 73
     8
 74
     0
 42
0.000000001
 43
0.00000001
 40
0.0
 40
0.0
 40
0.0
 40
0.0
 40
0.0260562949038633
 40
0.1153077445777119
 40
0.4362286421076767
 40
0.8860757710717388
 40
1.0
 40
1.0
 40
1.0
 40
1.0
 10
2.02306877961857
 20
-26.37893423536655
 30
0.0
 10
2.025209667045854
 20
-26.37801177256445
 30
0.0
 10
2.034683803777331
 20
-26.37392956879913
 30
0.0
 10
2.092360742112735
 20
-26.35085723262266
 30
0.0
 10
2.212356649283827
 20
-26.31627151926464
 30
0.0
 10
2.34173491815829
 20
-26.29443645201737
 30
0.0
 10
2.423727684913244
 20
-26.3016596775075
 30
0.0
 10
2.440296392421149
 20
-26.30311931248685
 30
0.0
  0
LINE
  5
8E
330
1F
100
AcDbEntity
  8
1
 62
     4
420
    65535
100
AcDbLine
 10
-24.021992384
 20
0.00067955
 30
0.0
 11
-24.021992384
 21
31.50067955
 31
0.0
  0
LINE
  5
8F
330
1F
100
AcDbEntity
  8
1
 62
     4
420
    65535
100
AcDbLine
 10
-24.021992384
 20
-31.49932045
 30
0.0
 11
-24.021992384
 21
0.00067955
 31
0.0
  0
LINE
  5
90
330
1F
100
AcDbEntity
  8
1
 62
     4
420
    65535
100
AcDbLine
 10
-9.3994914588
 20
19.85067955
 30
0.0
 11
-9.3994914588
 21
-30.1810151299
 31
0.0
  0
LINE
  5
91
330
1F
100
AcDbEntity
  8
1
 62
     4
420
    65535
100
AcDbLine
 10
-9.3994914588
 20
-30.1810151299
 30
0.0
 11
-11.021992384
 21
-30.1810151299
 31
0.0
  0
SPLINE
  5
92
330
1F
100
AcDbEntity
  8
1
 62
     4
420
    65535
100
AcDbSpline
210
0.0
220
0.0
230
1.0
 70
     8
 71
     3
 72
    30
 73
    26
 74
     0
 42
0.000000001
 43
0.00000001
 40
0.0
 40
0.0
 40
0.0
 40
0.0
 40
0.1250000000000009
 40
0.1250000000000009
 40
0.1875000000000013
 40
0.1875000000000013
 40
0.2500000000000017
 40
0.2500000000000017
 40
0.3750000000000022
 40
0.3750000000000022
 40
0.4375000000000022
 40
0.4375000000000022
 40
0.5000000000000022
 40
0.5000000000000022
 40
0.6250000000000023
 40
0.6250000000000023
 40
0.687500000000002
 40
0.687500000000002
 40
0.7500000000000017
 40
0.7500000000000017
 40
0.8125000000000013
 40
0.8125000000000013
 40
0.875000000000001
 40
0.875000000000001
 40
1.0
 40
1.0
 40
1.0
 40
1.0
 10
-19.02199238403796
 20
-31.48288272860466
 30
0.0
 10
-19.02199238403797
 20
-31.46570770956139
 30
0.0
 10
-18.96957237937254
 20
-31.43539838312102
 30
0.0
 10
-18.81619195180926
 20
-31.37215653309856
 30
0.0
 10
-18.75251094644809
 20
-31.34810984252107
 30
0.0
 10
-18.59955812726119
 20
-31.29439108241117
 30
0.0
 10
-18.50998720406866
 20
-31.26464316688194
 30
0.0
 10
-18.2087690772568
 20
-31.16978219167564
 30
0.0
 10
-17.9634612587103
 20
-31.09849336239058
 30
0.0
 10
-17.529381473081
 20
-30.98410519164786
 30
0.0
 10
-17.37271944715053
 20
-30.94452797323792
 30
0.0
 10
-17.04073631557986
 20
-30.86477028879789
 30
0.0
 10
-16.86603619182721
 20
-30.8247209446846
 30
0.0
 10
-16.3163835310698
 20
-30.70545932701103
 30
0.0
 10
-15.91614504063924
 20
-30.62709675138999
 30
0.0
 10
-15.26257640540632
 20
-30.51712096354182
 30
0.0
 10
-15.03689664199167
 20
-30.48195550106519
 30
0.0
 10
-14.57718266467132
 20
-30.41656141231888
 30
0.0
 10
-14.34212804563133
 20
-30.38615648202182
 30
0.0
 10
-13.86161759768278
 20
-30.33069170254951
 30
0.0
 10
-13.61616218922356
 20
-30.3056307394468
 30
0.0
 10
-13.11454219555812
 20
-30.26165284707241
 30
0.0
 10
-12.85704759108172
 20
-30.24266716384206
 30
0.0
 10
-12.07893563291474
 20
-30.19684505500311
 30
0.0
 10
-11.55374984924712
 20
-30.18101512990077
 30
0.0
 10
-11.02199238403798
 20
-30.18101512990077
 30
0.0
  0
LINE
  5
93
330
1F
100
AcDbEntity
  8
1
 62
     4
420
    65535
100
AcDbLine
 10
-19.021992384
 20
-31.4828827286
 30
0.0
 11
-19.021992384
 21
-31.49932045
 31
0.0
  0
SPLINE
  5
94
330
1F
100
AcDbEntity
  8
1
 62
     4
420
    65535
100
AcDbSpline
210
0.0
220
0.0
230
1.0
 70
     8
 71
     3
 72
    28
 73
    24
 74
     0
 42
0.000000001
 43
0.00000001
 40
0.0
 40
0.0
 40
0.0
 40
0.0
 40
0.1249999999999998
 40
0.1249999999999998
 40
0.1874999999999996
 40
0.1874999999999996
 40
0.2499999999999993
 40
0.2499999999999993
 40
0.3749999999999989
 40
0.3749999999999989
 40
0.4374999999999987
 40
0.4374999999999987
 40
0.4999999999999984
 40
0.4999999999999984
 40
0.6249999999999987
 40
0.6249999999999987
 40
0.7499999999999989
 40
0.7499999999999989
 40
0.8124999999999992
 40
0.8124999999999992
 40
0.8749999999999994
 40
0.8749999999999994
 40
1.0
 40
1.0
 40
1.0
 40
1.0
 10
-11.02199238403797
 20
30.46327454368439
 30
0.0
 10
-11.55258460758722
 20
30.46327454368439
 30
0.0
 10
-12.07385866112563
 20
30.47716351468637
 30
0.0
 10
-12.84247402984514
 20
30.51666834783192
 30
0.0
 10
-13.09644736844619
 20
30.53294922655832
 30
0.0
 10
-13.59985690674887
 20
30.57136596923869
 30
0.0
 10
-13.84946560200836
 20
30.59355991080563
 30
0.0
 10
-14.57489050345733
 20
30.66645387140879
 30
0.0
 10
-15.03330176875135
 20
30.72384856588588
 30
0.0
 10
-15.68399879441465
 20
30.81804823904027
 30
0.0
 10
-15.89575880655839
 20
30.85098244182607
 30
0.0
 10
-16.30067179825462
 20
30.91772469482012
 30
0.0
 10
-16.49355318328351
 20
30.9514568965988
 30
0.0
 10
-17.04437489408066
 20
31.05230195856833
 30
0.0
 10
-17.37477545811448
 20
31.11907785092127
 30
0.0
 10
-17.95985498091286
 20
31.24426047279067
 30
0.0
 10
-18.20713549282699
 20
31.30105865321137
 30
0.0
 10
-18.50725988756002
 20
31.37216730665743
 30
0.0
 10
-18.59574140819976
 20
31.39359596867779
 30
0.0
 10
-18.74907159566199
 20
31.43121935931797
 30
0.0
 10
-18.81413098422073
 20
31.44746820564847
 30
0.0
 10
-18.96972865871384
 20
31.48669580056695
 30
0.0
 10
-19.02199238403795
 20
31.50037992948714
 30
0.0
 10
-19.02199238403796
 20
31.50067468887613
 30
0.0
  0
LINE
  5
95
330
1F
100
AcDbEntity
  8
1
 62
     4
420
    65535
100
AcDbLine
 10
-11.021992384
 20
30.4632745437
 30
0.0
 11
-9.3994914588
 21
30.4632745437
 31
0.0
  0
LINE
  5
96
330
1F
100
AcDbEntity
  8
1
 62
     4
420
    65535
100
AcDbLine
 10
-9.3994914588
 20
30.4632745437
 30
0.0
 11
-9.3994914588
 21
24.4593692124
 31
0.0
  0
LINE
  5
97
330
1F
100
AcDbEntity
  8
1
 62
     4
420
    65535
100
AcDbLine
 10
-9.3994914588
 20
24.4593692124
 30
0.0
 11
-11.7763720383
 21
24.4593692124
 31
0.0
  0
SPLINE
  5
98
330
1F
100
AcDbEntity
  8
1
 62
     4
420
    65535
100
AcDbSpline
210
0.0
220
0.0
230
1.0
 70
     8
 71
     3
 72
    22
 73
    18
 74
     0
 42
0.000000001
 43
0.00000001
 40
0.0
 40
0.0
 40
0.0
 40
0.0
 40
0.1249999999999994
 40
0.1249999999999994
 40
0.1874999999999992
 40
0.1874999999999992
 40
0.249999999999999
 40
0.249999999999999
 40
0.3749999999999988
 40
0.3749999999999988
 40
0.4999999999999989
 40
0.4999999999999989
 40
0.624999999999999
 40
0.624999999999999
 40
0.7499999999999991
 40
0.7499999999999991
 40
1.0
 40
1.0
 40
1.0
 40
1.0
 10
-11.776372038349
 20
24.45936921235495
 30
0.0
 10
-12.21828497094193
 20
24.45936921235496
 30
0.0
 10
-12.65185379554693
 20
24.42999067578907
 30
0.0
 10
-13.29043323808052
 20
24.34379449106466
 30
0.0
 10
-13.50131716367382
 20
24.30797967983537
 30
0.0
 10
-13.91910777640289
 20
24.22181723473415
 30
0.0
 10
-14.12620648781471
 20
24.17130544940038
 30
0.0
 10
-14.72772390152883
 20
24.00126264489729
 30
0.0
 10
-15.10738435762598
 20
23.86249731422678
 30
0.0
 10
-15.8273266320068
 20
23.53464159178583
 30
0.0
 10
-16.16748956477879
 20
23.34471922345311
 30
0.0
 10
-16.78857533461265
 20
22.92785063349499
 30
0.0
 10
-17.0729720040967
 20
22.69947795422223
 30
0.0
 10
-17.59502518865202
 20
22.20324792262995
 30
0.0
 10
-17.82895820304614
 20
21.93858395834152
 30
0.0
 10
-18.45386353128802
 20
21.1091331497443
 30
0.0
 10
-18.77367280662708
 20
20.50439940625688
 30
0.0
 10
-19.0219923840383
 20
19.85067954998747
 30
0.0
  0
LINE
  5
99
330
1F
100
AcDbEntity
  8
1
 62
     4
420
    65535
100
AcDbLine
 10
-19.021992384
 20
19.85067955
 30
0.0
 11
-9.3994914588
 21
19.85067955
 31
0.0
  0
LINE
  5
9A
330
1F
100
AcDbEntity
  8
1
 62
     4
420
    65535
100
AcDbLine
 10
1.978007616
 20
-30.1810151299
 30
0.0
 11
-2.6444933093
 21
-30.1810151299
 31
0.0
  0
LINE
  5
9B
330
1F
100
AcDbEntity
  8
1
 62
     4
420
    65535
100
AcDbLine
 10
-2.6444933093
 20
-30.1810151299
 30
0.0
 11
-2.6444933093
 21
19.85067955
 31
0.0
  0
LINE
  5
9C
330
1F
100
AcDbEntity
  8
1
 62
     4
420
    65535
100
AcDbLine
 10
-2.6444933093
 20
19.85067955
 30
0.0
 11
1.978007616
 21
19.85067955
 31
0.0
  0
LINE
  5
9D
330
1F
100
AcDbEntity
  8
1
 62
     4
420
    65535
100
AcDbLine
 10
1.978007616
 20
-30.1810151299
 30
0.0
 11
1.978007616
 21
19.85067955
 31
0.0
  0
SPLINE
  5
9E
330
1F
100
AcDbEntity
  8
1
 62
     4
420
    65535
100
AcDbSpline
210
0.0
220
0.0
230
1.0
 70
     8
 71
     3
 72
     8
 73
     4
 74
     0
 42
0.000000001
 43
0.00000001
 40
0.0
 40
0.0
 40
0.0
 40
0.0
 40
1.0
 40
1.0
 40
1.0
 40
1.0
 10
-4.109492384037976
 20
-27.52228962657641
 30
0.0
 10
-3.622772300659015
 20
-28.40940757167989
 30
0.0
 10
-3.134302690950615
 20
-29.29558426067861
 30
0.0
 10
-2.644493309278663
 20
-30.18101512990076
 30
0.0
  0
LINE
  5
9F
330
1F
100
AcDbEntity
  8
1
 62
     4
420
    65535
100
AcDbLine
 10
-4.109492384
 20
19.85067955
 30
0.0
 11
-4.109492384
 21
-27.5222896266
 31
0.0
  0
SPLINE
  5
A0
330
1F
100
AcDbEntity
  8
1
 62
     4
420
    65535
100
AcDbSpline
210
0.0
220
0.0
230
1.0
 70
    24
 71
     3
 72
     8
 73
     4
 74
     0
 42
0.000000001
 43
0.00000001
 40
0.0
 40
0.0
 40
0.0
 40
0.0
 40
1.0
 40
1.0
 40
1.0
 40
1.0
 10
-2.644493309278689
 20
19.85067954998747
 30
0.0
 10
-3.145172922375456
 20
19.85067954998748
 30
0.0
 10
-3.635016212950143
 20
19.85067954998749
 30
0.0
 10
-4.109492384038002
 20
19.8506795499875
 30
0.0
  0
SPLINE
  5
A1
330
1F
100
AcDbEntity
  8
1
 62
     4
420
    65535
100
AcDbSpline
210
0.0
220
0.0
230
1.0
 70
     8
 71
     3
 72
     8
 73
     4
 74
     0
 42
0.000000001
 43
0.00000001
 40
0.0
 40
0.0
 40
0.0
 40
0.0
 40
1.0
 40
1.0
 40
1.0
 40
1.0
 10
-9.399491458797318
 20
-30.18101512990076
 30
0.0
 10
-8.909682077125366
 20
-29.29558426067861
 30
0.0
 10
-8.421212467416966
 20
-28.40940757167988
 30
0.0
 10
-7.934492384038005
 20
-27.52228962657641
 30
0.0
  0
SPLINE
  5
A2
330
1F
100
AcDbEntity
  8
1
 62
     4
420
    65535
100
AcDbSpline
210
0.0
220
0.0
230
1.0
 70
    24
 71
     3
 72
     8
 73
     4
 74
     0
 42
0.000000001
 43
0.00000001
 40
0.0
 40
0.0
 40
0.0
 40
0.0
 40
1.0
 40
1.0
 40
1.0
 40
1.0
 10
-7.93449238403802
 20
19.8506795499875
 30
0.0
 10
-8.409144765165468
 20
19.85067954998749
 30
0.0
 10
-8.898824863144009
 20
19.85067954998748
 30
0.0
 10
-9.399491458797344
 20
19.85067954998747
 30
0.0
  0
LINE
  5
A3
330
1F
100
AcDbEntity
  8
1
 62
     4
420
    65535
100
AcDbLine
 10
-7.934492384
 20
19.85067955
 30
0.0
 11
-7.934492384
 21
-27.5222896266
 31
0.0
  0
SPLINE
  5
A4
330
1F
100
AcDbEntity
  8
1
 62
     4
420
    65535
100
AcDbSpline
210
0.0
220
0.0
230
1.0
 70
    24
 71
     3
 72
    14
 73
    10
 74
     0
 42
0.000000001
 43
0.00000001
 40
0.0
 40
0.0
 40
0.0
 40
0.0
 40
0.1249999999999996
 40
0.1249999999999996
 40
0.2499999999999992
 40
0.2499999999999992
 40
0.4999999999999984
 40
0.4999999999999984
 40
1.0
 40
1.0
 40
1.0
 40
1.0
 10
-4.859492384037979
 20
-26.39932045001241
 30
0.0
 10
-4.789633860607831
 20
-26.39932045001242
 30
0.0
 10
-4.725322013160021
 20
-26.39932045001241
 30
0.0
 10
-4.623417937889131
 20
-26.39932045001241
 30
0.0
 10
-4.581991236419556
 20
-26.39932045001241
 30
0.0
 10
-4.473772227991951
 20
-26.39932045001241
 30
0.0
 10
-4.421097712168013
 20
-26.39932045001241
 30
0.0
 10
-4.28426998518766
 20
-26.39932045001242
 30
0.0
 10
-4.226646737912872
 20
-26.39932045001242
 30
0.0
 10
-4.184733099813354
 20
-26.39932045001242
 30
0.0
  0
LINE
  5
A5
330
1F
100
AcDbEntity
  8
1
 62
     4
420
    65535
100
AcDbLine
 10
-4.859492384
 20
-26.39932045
 30
0.0
 11
-4.859492384
 21
26.40067955
 31
0.0
  0
SPLINE
  5
A6
330
1F
100
AcDbEntity
  8
1
 62
     4
420
    65535
100
AcDbSpline
210
0.0
220
0.0
230
1.0
 70
    24
 71
     3
 72
    12
 73
     8
 74
     0
 42
0.000000001
 43
0.00000001
 40
0.0
 40
0.0
 40
0.0
 40
0.0
 40
0.5000000000000003
 40
0.5000000000000003
 40
0.7500000000000001
 40
0.7500000000000001
 40
1.0
 40
1.0
 40
1.0
 40
1.0
 10
-4.459472513023701
 20
26.40067954998759
 30
0.0
 10
-4.501222095778228
 20
26.40067954998759
 30
0.0
 10
-4.549634015224208
 20
26.40067954998759
 30
0.0
 10
-4.642798858754923
 20
26.40067954998759
 30
0.0
 10
-4.677106278523043
 20
26.4006795499876
 30
0.0
 10
-4.76066614701199
 20
26.40067954998759
 30
0.0
 10
-4.809108441973442
 20
26.40067954998759
 30
0.0
 10
-4.859492384037977
 20
26.40067954998759
 30
0.0
  0
SPLINE
  5
A7
330
1F
100
AcDbEntity
  8
1
 62
     4
420
    65535
100
AcDbSpline
210
0.0
220
0.0
230
1.0
 70
     8
 71
     3
 72
    10
 73
     6
 74
     0
 42
0.000000001
 43
0.00000001
 40
0.0
 40
0.0
 40
0.0
 40
0.0
 40
0.5
 40
0.5
 40
1.0
 40
1.0
 40
1.0
 40
1.0
 10
-4.109492384037981
 20
27.06302088901444
 30
0.0
 10
-4.109492384037976
 20
26.93274063621141
 30
0.0
 10
-4.140961136080019
 20
26.80312505609361
 30
0.0
 10
-4.261657296438454
 20
26.57244306151158
 30
0.0
 10
-4.350678552553338
 20
26.47237126131447
 30
0.0
 10
-4.4594725130231
 20
26.40067954998808
 30
0.0
  0
SPLINE
  5
A8
330
1F
100
AcDbEntity
  8
1
 62
     4
420
    65535
100
AcDbSpline
210
0.0
220
0.0
230
1.0
 70
     8
 71
     3
 72
    10
 73
     6
 74
     0
 42
0.000000001
 43
0.00000001
 40
0.0
 40
0.0
 40
0.0
 40
0.0
 40
0.5
 40
0.5
 40
1.0
 40
1.0
 40
1.0
 40
1.0
 10
-4.125235222118468
 20
19.8506795499875
 30
0.0
 10
-4.120012938009798
 20
19.88615497386719
 30
0.0
 10
-4.116069043121669
 20
19.92202705455009
 30
0.0
 10
-4.110808156870495
 20
19.9940733695817
 30
0.0
 10
-4.109492384038002
 20
20.03014831960283
 30
0.0
 10
-4.109492384038002
 20
20.0662751055647
 30
0.0
  0
SPLINE
  5
A9
330
1F
100
AcDbEntity
  8
1
 62
     4
420
    65535
100
AcDbSpline
210
0.0
220
0.0
230
1.0
 70
     8
 71
     3
 72
    10
 73
     6
 74
     0
 42
0.000000001
 43
0.00000001
 40
0.0
 40
0.0
 40
0.0
 40
0.0
 40
0.5
 40
0.5
 40
1.0
 40
1.0
 40
1.0
 40
1.0
 10
-7.584512255052139
 20
26.40067954998755
 30
0.0
 10
-7.692657823159086
 20
26.47194399165743
 30
0.0
 10
-7.781899108966794
 20
26.57175354568238
 30
0.0
 10
-7.903114251242948
 20
26.80316941536216
 30
0.0
 10
-7.934492384037996
 20
26.93351911232531
 30
0.0
 10
-7.934492384037992
 20
27.06302088901444
 30
0.0
  0
SPLINE
  5
AA
330
1F
100
AcDbEntity
  8
1
 62
     4
420
    65535
100
AcDbSpline
210
0.0
220
0.0
230
1.0
 70
    24
 71
     3
 72
    12
 73
     8
 74
     0
 42
0.000000001
 43
0.00000001
 40
0.0
 40
0.0
 40
0.0
 40
0.0
 40
0.2500000000000009
 40
0.2500000000000009
 40
0.5000000000000018
 40
0.5000000000000018
 40
1.0
 40
1.0
 40
1.0
 40
1.0
 10
-7.184492384037971
 20
26.40067954998759
 30
0.0
 10
-7.234632236585161
 20
26.40067954998759
 30
0.0
 10
-7.283749609839339
 20
26.40067954998759
 30
0.0
 10
-7.366184090242986
 20
26.40067954998759
 30
0.0
 10
-7.401591019796887
 20
26.40067954998759
 30
0.0
 10
-7.495152943296024
 20
26.40067954998759
 30
0.0
 10
-7.543187489547741
 20
26.40067954998759
 30
0.0
 10
-7.584512255052118
 20
26.40067954998759
 30
0.0
  0
LINE
  5
AB
330
1F
100
AcDbEntity
  8
1
 62
     4
420
    65535
100
AcDbLine
 10
-7.184492384
 20
26.40067955
 30
0.0
 11
-7.184492384
 21
-26.39932045
 31
0.0
  0
SPLINE
  5
AC
330
1F
100
AcDbEntity
  8
1
 62
     4
420
    65535
100
AcDbSpline
210
0.0
220
0.0
230
1.0
 70
    24
 71
     3
 72
    14
 73
    10
 74
     0
 42
0.000000001
 43
0.00000001
 40
0.0
 40
0.0
 40
0.0
 40
0.0
 40
0.4999999999999996
 40
0.4999999999999996
 40
0.7500000000000011
 40
0.7500000000000011
 40
0.8750000000000006
 40
0.8750000000000006
 40
1.0
 40
1.0
 40
1.0
 40
1.0
 10
-7.859251668262611
 20
-26.39932045001242
 30
0.0
 10
-7.817162029169261
 20
-26.39932045001242
 30
0.0
 10
-7.758158418254465
 20
-26.39932045001242
 30
0.0
 10
-7.621655300071138
 20
-26.39932045001242
 30
0.0
 10
-7.56853782787791
 20
-26.39932045001241
 30
0.0
 10
-7.460604011931457
 20
-26.39932045001242
 30
0.0
 10
-7.419320251056643
 20
-26.39932045001241
 30
0.0
 10
-7.31762581607267
 20
-26.39932045001241
 30
0.0
 10
-7.253688396775699
 20
-26.3993204500124
 30
0.0
 10
-7.184492384037971
 20
-26.39932045001241
 30
0.0
  0
SPLINE
  5
AD
330
1F
100
AcDbEntity
  8
1
 62
     4
420
    65535
100
AcDbSpline
210
0.0
220
0.0
230
1.0
 70
     8
 71
     3
 72
     9
 73
     5
 74
     0
 42
0.000000001
 43
0.00000001
 40
0.0
 40
0.0
 40
0.0
 40
0.0
 40
0.5
 40
1.0
 40
1.0
 40
1.0
 40
1.0
 10
-7.934492384037992
 20
20.0662751055647
 30
0.0
 10
-7.934492384037992
 20
20.02991763033929
 30
0.0
 10
-7.931827551581327
 20
19.95763420602682
 30
0.0
 10
-7.92397706191905
 20
19.88619051429234
 30
0.0
 10
-7.918749545957526
 20
19.8506795499875
 30
0.0
  0
LINE
  5
AE
330
1F
100
AcDbEntity
  8
1
 62
     4
420
    65535
100
AcDbLine
 10
-7.184492384
 20
26.40067955
 30
0.0
 11
-4.859492384
 21
26.40067955
 31
0.0
  0
LINE
  5
AF
330
1F
100
AcDbEntity
  8
1
 62
     4
420
    65535
100
AcDbLine
 10
-4.859492384
 20
-26.39932045
 30
0.0
 11
-7.184492384
 21
-26.39932045
 31
0.0
  0
LINE
  5
B0
330
1F
100
AcDbEntity
  8
1
 62
     4
420
    65535
100
AcDbLine
 10
2.978007616
 20
25.433646583
 30
0.0
 11
2.978007616
 21
-25.432287483
 31
0.0
  0
ARC
  5
B1
330
1F
100
AcDbEntity
  8
1
 62
     4
420
    65535
100
AcDbCircle
 10
2.9617958058
 20
-26.4160849355
 30
0.0
 40
0.9839310191409808
100
AcDbArc
 50
89.0559192507
 51
179.023731616
  0
ARC
  5
B2
330
1F
100
AcDbEntity
  8
1
 62
     4
420
    65535
100
AcDbCircle
 10
2.9617958058
 20
26.4174440355
 30
0.0
 40
0.9839310191406915
100
AcDbArc
 50
180.976268384
 51
270.9440807493
  0
SPLINE
  5
B3
330
1F
100
AcDbEntity
  8
1
 62
     4
420
    65535
100
AcDbSpline
210
0.0
220
0.0
230
1.0
 70
    24
 71
     3
 72
    27
 73
    23
 74
     0
 42
0.000000001
 43
0.00000001
 40
0.0
 40
0.0
 40
0.0
 40
0.0
 40
0.0342407189457294
 40
0.0776166628977312
 40
0.1222838478632048
 40
0.1669526426136475
 40
0.2099399637172647
 40
0.2529292811371666
 40
0.2970051762606861
 40
0.3410835194302697
 40
0.3872652012537803
 40
0.4334497065772079
 40
0.4806987701838622
 40
0.5279504987784402
 40
0.579848978867973
 40
0.6317505086631843
 40
0.6848291887080253
 40
0.73791025179805
 40
0.8024770053712544
 40
0.86704686237703
 40
0.9335228644499063
 40
0.9999999999999999
 40
0.9999999999999999
 40
0.9999999999999999
 40
0.9999999999999999
 10
17.1567375127562
 20
26.28884228274698
 30
0.0
 10
17.15896982838967
 20
26.28497538918737
 30
0.0
 10
17.16403002850635
 20
26.27620993731839
 30
0.0
 10
17.26995041020854
 20
26.09273102614058
 30
0.0
 10
17.4591018356823
 20
25.76507645167688
 30
0.0
 10
17.73161987242534
 20
25.29301137926691
 30
0.0
 10
18.07645295091864
 20
24.69567971596205
 30
0.0
 10
18.49002992283257
 20
23.97926752715068
 30
0.0
 10
18.97512278071475
 20
23.13897307244775
 30
0.0
 10
19.53708529153649
 20
22.16552237342895
 30
0.0
 10
20.17086691175057
 20
21.06766415452297
 30
0.0
 10
20.87890134121932
 20
19.84118267751502
 30
0.0
 10
21.6476272606152
 20
18.50956932399151
 30
0.0
 10
22.49910204053242
 20
17.03461556151493
 30
0.0
 10
23.42745623613647
 20
15.42648864335743
 30
0.0
 10
24.43805693219103
 20
13.67589152155891
 30
0.0
 10
25.49695840662193
 20
11.84162613796678
 30
0.0
 10
26.67745492863198
 20
9.796729650370862
 30
0.0
 10
27.97324135995478
 20
7.552124035121213
 30
0.0
 10
29.39489005129827
 20
5.089495504396172
 30
0.0
 10
30.85145150567247
 20
2.566389890373804
 30
0.0
 10
31.83888649955332
 20
0.8559211909166267
 30
0.0
 10
32.33260820562747
 20
0.0006795499825186
 30
0.0
  0
LINE
  5
B4
330
1F
100
AcDbEntity
  8
1
 62
     4
420
    65535
100
AcDbLine
 10
32.3326082056
 20
0.00067955
 30
0.0
 11
16.978007616
 21
0.00067955
 31
0.0
  0
SPLINE
  5
B5
330
1F
100
AcDbEntity
  8
1
 62
     4
420
    65535
100
AcDbSpline
210
0.0
220
0.0
230
1.0
 70
     8
 71
     3
 72
    12
 73
     8
 74
     0
 42
0.000000001
 43
0.00000001
 40
0.0
 40
0.0
 40
0.0
 40
0.0
 40
0.5
 40
0.5
 40
0.75
 40
0.75
 40
1.0
 40
1.0
 40
1.0
 40
1.0
 10
16.978007615962
 20
0.0006795499873918
 30
0.0
 10
17.21418353584001
 20
-1.210519936744971
 30
0.0
 10
17.45146831642967
 20
-2.422151597451432
 30
0.0
 10
17.73496505993975
 20
-4.250122635867323
 30
0.0
 10
17.817333184784
 20
-4.861194692990426
 30
0.0
 10
17.93862806208869
 20
-6.089599893838968
 30
0.0
 10
17.97800761596335
 20
-6.70576511522328
 30
0.0
 10
17.978007615962
 20
-7.320522537137671
 30
0.0
  0
LINE
  5
B6
330
1F
100
AcDbEntity
  8
1
 62
     4
420
    65535
100
AcDbLine
 10
32.1899703744
 20
-17.6274962178
 30
0.0
 11
17.978007616
 21
-17.6274962178
 31
0.0
  0
LINE
  5
B7
330
1F
100
AcDbEntity
  8
1
 62
     4
420
    65535
100
AcDbLine
 10
17.978007616
 20
-17.6274962178
 30
0.0
 11
17.978007616
 21
-7.3205225371
 31
0.0
  0
LINE
  5
B8
330
1F
100
AcDbEntity
  8
1
 62
     4
420
    65535
100
AcDbLine
 10
35.4612598054
 20
-5.4188778549
 30
0.0
 11
32.1899703744
 21
-17.6274962178
 31
0.0
  0
LINE
  5
B9
330
1F
100
AcDbEntity
  8
1
 62
     4
420
    65535
100
AcDbLine
 10
32.3326082056
 20
0.00067955
 30
0.0
 11
35.4612598054
 21
-5.4188778549
 31
0.0
  0
LINE
  5
BA
330
1F
100
AcDbEntity
  8
1
 62
     4
420
    65535
100
AcDbLine
 10
26.2207535014
 20
-39.9049168693
 30
0.0
 11
17.978007616
 21
-39.9049168693
 31
0.0
  0
LINE
  5
BB
330
1F
100
AcDbEntity
  8
1
 62
     4
420
    65535
100
AcDbLine
 10
17.978007616
 20
-39.9049168693
 30
0.0
 11
17.978007616
 21
-17.6274962178
 31
0.0
  0
LINE
  5
BC
330
1F
100
AcDbEntity
  8
1
 62
     4
420
    65535
100
AcDbLine
 10
32.1899703744
 20
-17.6274962178
 30
0.0
 11
26.2207535014
 21
-39.9049168693
 31
0.0
  0
LINE
  5
BD
330
1F
100
AcDbEntity
  8
1
 62
     4
420
    65535
100
AcDbLine
 10
-11.7763720383
 20
24.4593692124
 30
0.0
 11
-11.7763720383
 21
19.85067955
 31
0.0
  0
LINE
  5
BE
330
1F
100
AcDbEntity
  8
1
 62
     4
420
    65535
100
AcDbLine
 10
-45.921992384
 20
-23.2257607605
 30
0.0
 11
-45.921992384
 21
-21.9725032602
 31
0.0
  0
SPLINE
  5
BF
330
1F
100
AcDbEntity
  8
1
 62
     4
420
    65535
100
AcDbSpline
210
0.0
220
0.0
230
1.0
 70
     8
 71
     3
 72
    16
 73
    12
 74
     0
 42
0.000000001
 43
0.00000001
 40
0.0
 40
0.0
 40
0.0
 40
0.0
 40
0.2499999999999997
 40
0.2499999999999997
 40
0.4999999999999993
 40
0.4999999999999993
 40
0.749999999999999
 40
0.749999999999999
 40
0.8749999999999994
 40
0.8749999999999994
 40
1.0
 40
1.0
 40
1.0
 40
1.0
 10
-45.92199238403798
 20
-21.97250326017979
 30
0.0
 10
-45.92199238403798
 20
-21.88321153644179
 30
0.0
 10
-45.95568191927977
 20
-21.78842507810297
 30
0.0
 10
-46.06992422766044
 20
-21.58883591524853
 30
0.0
 10
-46.14966985611675
 20
-21.48614331842166
 30
0.0
 10
-46.33057317845818
 20
-21.27430071761041
 30
0.0
 10
-46.43338588917252
 20
-21.16525023992651
 30
0.0
 10
-46.5687217955421
 20
-20.9944548441784
 30
0.0
 10
-46.61032957668542
 20
-20.93628811758601
 30
0.0
 10
-46.67157691289706
 20
-20.81618786296114
 30
0.0
 10
-46.69052073531125
 20
-20.75314916407773
 30
0.0
 10
-46.68964909034833
 20
-20.68991094761141
 30
0.0
  0
SPLINE
  5
C0
330
1F
100
AcDbEntity
  8
1
 62
     4
420
    65535
100
AcDbSpline
210
0.0
220
0.0
230
1.0
 70
     8
 71
     3
 72
    18
 73
    14
 74
     0
 42
0.000000001
 43
0.00000001
 40
0.0
 40
0.0
 40
0.0
 40
0.0
 40
0.4999999999999957
 40
0.4999999999999957
 40
0.749999999999994
 40
0.749999999999994
 40
0.8749999999999944
 40
0.8749999999999944
 40
0.9374999999999968
 40
0.9374999999999968
 40
0.9687499999999983
 40
0.9687499999999983
 40
1.0
 40
1.0
 40
1.0
 40
1.0
 10
-46.68964909034845
 20
-20.68991094761137
 30
0.0
 10
-46.68687935563605
 20
-20.48896550451616
 30
0.0
 10
-46.70865671917718
 20
-20.27522985168916
 30
0.0
 10
-46.80439851993723
 20
-19.93918462354857
 30
0.0
 10
-46.84593660144072
 20
-19.82428493944954
 30
0.0
 10
-46.94922772245617
 20
-19.6527036067506
 30
0.0
 10
-46.98983106104263
 20
-19.59504959224704
 30
0.0
 10
-47.08024531567639
 20
-19.51598708099022
 30
0.0
 10
-47.11563474063932
 20
-19.49027242447204
 30
0.0
 10
-47.18640959780914
 20
-19.46269453834238
 30
0.0
 10
-47.21305834296072
 20
-19.45580845287731
 30
0.0
 10
-47.26844966186653
 20
-19.45098400538767
 30
0.0
 10
-47.29670177031434
 20
-19.45325314480588
 30
0.0
 10
-47.32199238403796
 20
-19.45889727285081
 30
0.0
  0
SPLINE
  5
C1
330
1F
100
AcDbEntity
  8
1
 62
     4
420
    65535
100
AcDbSpline
210
0.0
220
0.0
230
1.0
 70
     8
 71
     3
 72
    16
 73
    12
 74
     0
 42
0.000000001
 43
0.00000001
 40
0.0
 40
0.0
 40
0.0
 40
0.0
 40
0.125
 40
0.125
 40
0.25
 40
0.25
 40
0.5
 40
0.5
 40
0.75
 40
0.75
 40
1.0
 40
1.0
 40
1.0
 40
1.0
 10
-49.71603667684921
 20
-20.55541923967493
 30
0.0
 10
-49.724687053735
 20
-20.48685571623379
 30
0.0
 10
-49.70297127603815
 20
-20.41930167730618
 30
0.0
 10
-49.60925900725789
 20
-20.28957971782535
 30
0.0
 10
-49.53997138082775
 20
-20.22975537429118
 30
0.0
 10
-49.28789001991051
 20
-20.06021090328469
 30
0.0
 10
-49.07322154565436
 20
-19.96622160684129
 30
0.0
 10
-48.60874975672161
 20
-19.7953054435221
 30
0.0
 10
-48.36116976706744
 20
-19.72037039971059
 30
0.0
 10
-47.85187345504966
 20
-19.58195229942574
 30
0.0
 10
-47.58940893563676
 20
-19.51857685496967
 30
0.0
 10
-47.321992384038
 20
-19.45889727285076
 30
0.0
  0
SPLINE
  5
C2
330
1F
100
AcDbEntity
  8
1
 62
     4
420
    65535
100
AcDbSpline
210
0.0
220
0.0
230
1.0
 70
     8
 71
     3
 72
    18
 73
    14
 74
     0
 42
0.000000001
 43
0.00000001
 40
0.0
 40
0.0
 40
0.0
 40
0.0
 40
0.0312500000000017
 40
0.0312500000000017
 40
0.0625000000000035
 40
0.0625000000000035
 40
0.1250000000000033
 40
0.1250000000000033
 40
0.2500000000000028
 40
0.2500000000000028
 40
0.5000000000000019
 40
0.5000000000000019
 40
1.0
 40
1.0
 40
1.0
 40
1.0
 10
-49.7160366768493
 20
-20.55541923967492
 30
0.0
 10
-49.71323334707035
 20
-20.57763863769072
 30
0.0
 10
-49.73382838900389
 20
-20.59762006461266
 30
0.0
 10
-49.79259697091334
 20
-20.62947133074439
 30
0.0
 10
-49.82931165257708
 20
-20.64188744749308
 30
0.0
 10
-49.94599862249554
 20
-20.67447961890311
 30
0.0
 10
-50.03099806256585
 20
-20.68959727230836
 30
0.0
 10
-50.29227239242746
 20
-20.72919793459014
 30
0.0
 10
-50.47477740278396
 20
-20.74666021514827
 30
0.0
 10
-51.02225976854053
 20
-20.79065120460519
 30
0.0
 10
-51.39356338709269
 20
-20.80791677825386
 30
0.0
 10
-52.51320554783424
 20
-20.84882332618293
 30
0.0
 10
-53.26721068315872
 20
-20.85964862015814
 30
0.0
 10
-54.02199238403724
 20
-20.86526106601703
 30
0.0
  0
SPLINE
  5
C3
330
1F
100
AcDbEntity
  8
1
 62
     4
420
    65535
100
AcDbSpline
210
0.0
220
0.0
230
1.0
 70
     8
 71
     3
 72
    12
 73
     8
 74
     0
 42
0.000000001
 43
0.00000001
 40
0.0
 40
0.0
 40
0.0
 40
0.0
 40
0.2499999999999994
 40
0.2499999999999994
 40
0.4999999999999989
 40
0.4999999999999989
 40
1.0
 40
1.0
 40
1.0
 40
1.0
 10
-54.4291459511707
 20
-20.34597013859771
 30
0.0
 10
-54.42972013298368
 20
-20.39331397787423
 30
0.0
 10
-54.41979406746803
 20
-20.43997448399884
 30
0.0
 10
-54.38060835659364
 20
-20.53201232797437
 30
0.0
 10
-54.35097381861421
 20
-20.57771684235686
 30
0.0
 10
-54.24073780039933
 20
-20.70857923275152
 30
0.0
 10
-54.13936271014383
 20
-20.78902465881227
 30
0.0
 10
-54.02199238403799
 20
-20.86526106601463
 30
0.0
  0
ELLIPSE
  5
C4
330
1F
100
AcDbEntity
  8
1
 62
     4
420
    65535
100
AcDbEllipse
 10
-90.7829335408
 20
-1.6148727339
 30
0.0
 11
36.1324708185634
 21
-19.63370609807896
 31
0.0
210
0.0
220
0.0
230
1.0
 40
0.2040844192
 41
0.107297038453995
 42
0.2684401628604755
  0
LINE
  5
C5
330
1F
100
AcDbEntity
  8
1
 62
     4
420
    65535
100
AcDbLine
 10
-54.8817688263
 20
20.8650256699
 30
0.0
 11
-54.8817688263
 21
-18.5896035739
 31
0.0
  0
SPLINE
  5
C6
330
1F
100
AcDbEntity
  8
1
 62
     4
420
    65535
100
AcDbSpline
210
0.0
220
0.0
230
1.0
 70
     8
 71
     3
 72
     8
 73
     4
 74
     0
 42
0.000000001
 43
0.00000001
 40
0.000000330910863
 40
0.000000330910863
 40
0.000000330910863
 40
0.000000330910863
 40
0.0000164666222657
 40
0.0000164666222657
 40
0.0000164666222657
 40
0.0000164666222657
 10
-54.88176882629395
 20
20.86502566987612
 30
0.0
 10
-54.87851790237233
 20
20.86689270885442
 30
0.0
 10
-54.87525903850185
 20
20.86875660217619
 30
0.0
 10
-54.87199238403809
 20
20.87061737032989
 30
0.0
  0
SPLINE
  5
C7
330
1F
100
AcDbEntity
  8
1
 62
     4
420
    65535
100
AcDbSpline
210
0.0
220
0.0
230
1.0
 70
     8
 71
     3
 72
    10
 73
     6
 74
     0
 42
0.000000001
 43
0.00000001
 40
0.0
 40
0.0
 40
0.0
 40
0.0
 40
0.5
 40
0.5
 40
1.0
 40
1.0
 40
1.0
 40
1.0
 10
-51.32199238403798
 20
20.82433226265137
 30
0.0
 10
-51.90966281573008
 20
20.84510365022456
 30
0.0
 10
-52.50041925338777
 20
20.85575324008921
 30
0.0
 10
-53.68442114102772
 20
20.86897336341492
 30
0.0
 10
-54.27780219995611
 20
20.8710960249677
 30
0.0
 10
-54.87199238403797
 20
20.87061737032987
 30
0.0
  0
SPLINE
  5
C8
330
1F
100
AcDbEntity
  8
1
 62
     4
420
    65535
100
AcDbSpline
210
0.0
220
0.0
230
1.0
 70
     8
 71
     3
 72
    18
 73
    14
 74
     0
 42
0.000000001
 43
0.00000001
 40
0.0
 40
0.0
 40
0.0
 40
0.0
 40
0.0624999999999993
 40
0.0624999999999993
 40
0.1249999999999986
 40
0.1249999999999986
 40
0.2499999999999971
 40
0.2499999999999971
 40
0.499999999999998
 40
0.499999999999998
 40
0.749999999999999
 40
0.749999999999999
 40
1.0
 40
1.0
 40
1.0
 40
1.0
 10
-51.32199238403798
 20
20.82433226265137
 30
0.0
 10
-51.25624454027263
 20
20.82200838540436
 30
0.0
 10
-51.18859618372233
 20
20.82799864379771
 30
0.0
 10
-51.06427672945316
 20
20.8525727204509
 30
0.0
 10
-51.00736702882896
 20
20.87035720913281
 30
0.0
 10
-50.8521915522445
 20
20.92839644999403
 30
0.0
 10
-50.7647398620592
 20
20.97398058198064
 30
0.0
 10
-50.52600549404253
 20
21.11095183037282
 30
0.0
 10
-50.393727949934
 20
21.20746574893664
 30
0.0
 10
-50.17188225886146
 20
21.39641160886443
 30
0.0
 10
-50.08337104059559
 20
21.48946390024513
 30
0.0
 10
-49.95804221183324
 20
21.67178498333342
 30
0.0
 10
-49.92199238403799
 20
21.76141533084382
 30
0.0
 10
-49.92199238403798
 20
21.84409613199381
 30
0.0
  0
LINE
  5
C9
330
1F
100
AcDbEntity
  8
1
 62
     4
420
    65535
100
AcDbLine
 10
-49.921992384
 20
21.844096132
 30
0.0
 11
-49.921992384
 21
23.027617376
 31
0.0
  0
SPLINE
  5
CA
330
1F
100
AcDbEntity
  8
1
 62
     4
420
    65535
100
AcDbSpline
210
0.0
220
0.0
230
1.0
 70
     8
 71
     3
 72
    24
 73
    20
 74
     0
 42
0.000000001
 43
0.00000001
 40
0.0
 40
0.0
 40
0.0
 40
0.0
 40
0.0596437617801142
 40
0.1226723443517041
 40
0.1853763001413605
 40
0.2481280383486109
 40
0.3106842011971465
 40
0.372699908532708
 40
0.4347339452182292
 40
0.4966345738427196
 40
0.5583618037643845
 40
0.6204730695969038
 40
0.6826137642582216
 40
0.7450622921822023
 40
0.8079202250950992
 40
0.8705750995120719
 40
0.933701319722131
 40
0.9967991127153292
 40
0.9999999999999999
 40
0.9999999999999999
 40
0.9999999999999999
 40
0.9999999999999999
 10
-28.82303401749033
 20
24.07919749017804
 30
0.0
 10
-28.83517916264198
 20
24.07628805633544
 30
0.0
 10
-28.86015869753009
 20
24.07030407645965
 30
0.0
 10
-29.10165990570916
 20
24.01548988984907
 30
0.0
 10
-29.48140109854947
 20
23.93349146606815
 30
0.0
 10
-30.00310288173336
 20
23.83153419035555
 30
0.0
 10
-30.63752120194259
 20
23.72285675486838
 30
0.0
 10
-31.36473025753239
 20
23.61987287829034
 30
0.0
 10
-32.15734336544635
 20
23.53410470719777
 30
0.0
 10
-32.98656558112502
 20
23.47437448825861
 30
0.0
 10
-33.82025685767704
 20
23.44541950898987
 30
0.0
 10
-34.62414030822742
 20
23.44729371350187
 30
0.0
 10
-35.36804290174801
 20
23.47464027081901
 30
0.0
 10
-36.02023429683172
 20
23.51963697402376
 30
0.0
 10
-36.55628606155688
 20
23.57048675480503
 30
0.0
 10
-36.96167190605038
 20
23.61756425835162
 30
0.0
 10
-37.19782710197855
 20
23.64826511427126
 30
0.0
 10
-37.29681254811182
 20
23.6617884605973
 30
0.0
 10
-37.26989736423839
 20
23.65816368854287
 30
0.0
 10
-37.26859790443821
 20
23.65798868525879
 30
0.0
  0
SPLINE
  5
CB
330
1F
100
AcDbEntity
  8
1
 62
     4
420
    65535
100
AcDbSpline
210
0.0
220
0.0
230
1.0
 70
     8
 71
     3
 72
    24
 73
    20
 74
     0
 42
0.000000001
 43
0.00000001
 40
0.0
 40
0.0
 40
0.0
 40
0.0
 40
0.003070050886854
 40
0.0661223240747482
 40
0.1292775974348258
 40
0.1921867895682586
 40
0.2548046128031358
 40
0.3172336825028418
 40
0.3793656404111828
 40
0.4414693108055728
 40
0.5032336322110205
 40
0.5651232469955224
 40
0.6272256350791882
 40
0.6892260638594748
 40
0.7517842910509799
 40
0.8144872159074474
 40
0.8771636900461742
 40
0.9401582211815072
 40
0.9999999999999999
 40
0.9999999999999999
 40
0.9999999999999999
 40
0.9999999999999999
 10
-37.26874760365288
 20
-23.65664979905341
 30
0.0
 10
-37.26999803907771
 20
-23.65681819179365
 30
0.0
 10
-37.2969297413335
 20
-23.66044501094159
 30
0.0
 10
-37.19826197332608
 20
-23.64694389996668
 30
0.0
 10
-36.96187484283837
 20
-23.61630206740411
 30
0.0
 10
-36.55784121558931
 20
-23.5690376093155
 30
0.0
 10
-36.0205117361748
 20
-23.51837624383174
 30
0.0
 10
-35.36989466945372
 20
-23.47336108306182
 30
0.0
 10
-34.62621293806302
 20
-23.44598299714542
 30
0.0
 10
-33.82239734827047
 20
-23.44402311063369
 30
0.0
 10
-32.98862895842374
 20
-23.47290288074658
 30
0.0
 10
-32.15893382896516
 20
-23.53259701994163
 30
0.0
 10
-31.36601682005318
 20
-23.61834823682838
 30
0.0
 10
-30.63848227444862
 20
-23.72134756749526
 30
0.0
 10
-30.00408852985206
 20
-23.82999177205773
 30
0.0
 10
-29.48243870772353
 20
-23.93193226195988
 30
0.0
 10
-29.10248405815108
 20
-24.01394608379547
 30
0.0
 10
-28.86040822068133
 20
-24.06887869891444
 30
0.0
 10
-28.83511971042492
 20
-24.0749398520822
 30
0.0
 10
-28.82279998641188
 20
-24.07789264500954
 30
0.0
  0
SPLINE
  5
CC
330
1F
100
AcDbEntity
  8
1
 62
     4
420
    65535
100
AcDbSpline
210
0.0
220
0.0
230
1.0
 70
     8
 71
     3
 72
    20
 73
    16
 74
     0
 42
0.000000001
 43
0.00000001
 40
0.0
 40
0.0
 40
0.0
 40
0.0
 40
0.2500000000000053
 40
0.2500000000000053
 40
0.5000000000000107
 40
0.5000000000000107
 40
0.6250000000000139
 40
0.6250000000000139
 40
0.6875000000000147
 40
0.6875000000000147
 40
0.7500000000000154
 40
0.7500000000000154
 40
0.8750000000000078
 40
0.8750000000000078
 40
1.0
 40
1.0
 40
1.0
 40
1.0
 10
-56.02199238403823
 20
19.97674338392018
 30
0.0
 10
-56.02199238403829
 20
20.06493772059894
 30
0.0
 10
-55.99443274390232
 20
20.14276703660382
 30
0.0
 10
-55.89540286231428
 20
20.2729747175675
 30
0.0
 10
-55.82529009999325
 20
20.32464922032934
 30
0.0
 10
-55.67328493036984
 20
20.40347851567173
 30
0.0
 10
-55.61394961761471
 20
20.43017929235248
 30
0.0
 10
-55.49986243222929
 20
20.48685668947902
 30
0.0
 10
-55.4574703376226
 20
20.50895092834429
 30
0.0
 10
-55.37033068372713
 20
20.55818049376231
 30
0.0
 10
-55.32705164718092
 20
20.58443166117347
 30
0.0
 10
-55.20599936969968
 20
20.6604923491383
 30
0.0
 10
-55.13488002204786
 20
20.70801796139161
 30
0.0
 10
-55.00334151205539
 20
20.79247679404077
 30
0.0
 10
-54.94183348793131
 20
20.83052991814546
 30
0.0
 10
-54.88176882629392
 20
20.86502566987611
 30
0.0
  0
SPLINE
  5
CD
330
1F
100
AcDbEntity
  8
1
 62
     4
420
    65535
100
AcDbSpline
210
0.0
220
0.0
230
1.0
 70
     8
 71
     3
 72
    30
 73
    26
 74
     0
 42
0.000000001
 43
0.00000001
 40
0.0
 40
0.0
 40
0.0
 40
0.0
 40
0.0625000000000052
 40
0.0625000000000052
 40
0.1250000000000104
 40
0.1250000000000104
 40
0.1562500000000136
 40
0.1562500000000136
 40
0.1875000000000168
 40
0.1875000000000168
 40
0.2031250000000179
 40
0.2031250000000179
 40
0.2187500000000189
 40
0.2187500000000189
 40
0.2500000000000185
 40
0.2500000000000185
 40
0.3125000000000168
 40
0.3125000000000168
 40
0.375000000000015
 40
0.375000000000015
 40
0.5000000000000123
 40
0.5000000000000123
 40
0.7500000000000062
 40
0.7500000000000062
 40
1.0
 40
1.0
 40
1.0
 40
1.0
 10
-54.88176882629353
 20
-18.5896035739476
 30
0.0
 10
-54.91242453672353
 20
-18.52358884695909
 30
0.0
 10
-54.94636421938884
 20
-18.45654948093976
 30
0.0
 10
-55.02486306862247
 20
-18.3191573415656
 30
0.0
 10
-55.06919086294543
 20
-18.24875884859763
 30
0.0
 10
-55.15010040016865
 20
-18.14127891474356
 30
0.0
 10
-55.17949320772833
 20
-18.1050613868144
 30
0.0
 10
-55.24805161880994
 20
-18.03104973869801
 30
0.0
 10
-55.28799371510698
 20
-17.99233409660929
 30
0.0
 10
-55.35806136919214
 20
-17.93987359394691
 30
0.0
 10
-55.38334213228621
 20
-17.9233480806185
 30
0.0
 10
-55.43435175380884
 20
-17.89626980521771
 30
0.0
 10
-55.46013412231615
 20
-17.88579255730724
 30
0.0
 10
-55.53048806144699
 20
-17.8657490218615
 30
0.0
 10
-55.56790196088372
 20
-17.86641644324546
 30
0.0
 10
-55.65877253067688
 20
-17.88376378745755
 30
0.0
 10
-55.69701482760964
 20
-17.91449999046975
 30
0.0
 10
-55.76024843649657
 20
-17.98217006798179
 30
0.0
 10
-55.78427858277324
 20
-18.02115213512839
 30
0.0
 10
-55.84555329212652
 20
-18.14543606886842
 30
0.0
 10
-55.87140025901297
 20
-18.23684450502938
 30
0.0
 10
-55.93232485843667
 20
-18.5197482462181
 30
0.0
 10
-55.94998581444585
 20
-18.72096245462122
 30
0.0
 10
-55.97285041598109
 20
-19.13023491431199
 30
0.0
 10
-55.97682318035748
 20
-19.33902000075755
 30
0.0
 10
-55.97634943858395
 20
-19.55005330087746
 30
0.0
  0
SPLINE
  5
CE
330
1F
100
AcDbEntity
  8
1
 62
     4
420
    65535
100
AcDbSpline
210
0.0
220
0.0
230
1.0
 70
     8
 71
     3
 72
     9
 73
     5
 74
     0
 42
0.000000001
 43
0.00000001
 40
0.0
 40
0.0
 40
0.0
 40
0.0
 40
0.4717077974844086
 40
1.0
 40
1.0
 40
1.0
 40
1.0
 10
-56.00927439827792
 20
-19.69194982597682
 30
0.0
 10
-56.00271972063686
 20
-19.70069467534204
 30
0.0
 10
-55.98882408932442
 20
-19.71923337538443
 30
0.0
 10
-55.98066161180815
 20
-19.60853460048521
 30
0.0
 10
-55.97634943858309
 20
-19.55005330087792
 30
0.0
  0
LINE
  5
CF
330
1F
100
AcDbEntity
  8
1
 62
     4
420
    65535
100
AcDbLine
 10
-56.021992384
 20
-19.6936940233
 30
0.0
 11
-56.021992384
 21
19.9767433839
 31
0.0
  0
LINE
  5
D0
330
1F
100
AcDbEntity
  8
1
 62
     4
420
    65535
100
AcDbLine
 10
-2.6444933093
 20
24.4593692124
 30
0.0
 11
-2.6444933093
 21
30.4632745437
 31
0.0
  0
LINE
  5
D1
330
1F
100
AcDbEntity
  8
1
 62
     4
420
    65535
100
AcDbLine
 10
-2.6444933093
 20
30.4632745437
 30
0.0
 11
1.978007616
 21
30.4632745437
 31
0.0
  0
LINE
  5
D2
330
1F
100
AcDbEntity
  8
1
 62
     4
420
    65535
100
AcDbLine
 10
1.978007616
 20
24.4593692124
 30
0.0
 11
-2.6444933093
 21
24.4593692124
 31
0.0
  0
LINE
  5
D3
330
1F
100
AcDbEntity
  8
1
 62
     4
420
    65535
100
AcDbLine
 10
1.978007616
 20
24.4593692124
 30
0.0
 11
1.978007616
 21
30.4632745437
 31
0.0
  0
SPLINE
  5
D4
330
1F
100
AcDbEntity
  8
1
 62
     4
420
    65535
100
AcDbSpline
210
0.0
220
0.0
230
1.0
 70
     8
 71
     3
 72
     8
 73
     4
 74
     0
 42
0.000000001
 43
0.00000001
 40
0.0
 40
0.0
 40
0.0
 40
0.0
 40
1.0
 40
1.0
 40
1.0
 40
1.0
 10
-2.644493309278658
 20
30.46327454368438
 30
0.0
 10
-3.133962407168537
 20
29.58661783031668
 30
0.0
 10
-3.622399747910362
 20
28.70937681288371
 30
0.0
 10
-4.109492384037985
 20
27.83139697326093
 30
0.0
  0
SPLINE
  5
D5
330
1F
100
AcDbEntity
  8
1
 62
     4
420
    65535
100
AcDbSpline
210
0.0
220
0.0
230
1.0
 70
     8
 71
     3
 72
     8
 73
     4
 74
     0
 42
0.000000001
 43
0.00000001
 40
0.0
 40
0.0
 40
0.0
 40
0.0
 40
1.0
 40
1.0
 40
1.0
 40
1.0
 10
-4.109492384038
 20
21.09111905569935
 30
0.0
 10
-3.634806557729308
 20
22.22018163980071
 30
0.0
 10
-3.145171875104255
 20
23.34251369488401
 30
0.0
 10
-2.644493309278663
 20
24.45936921235499
 30
0.0
  0
LINE
  5
D6
330
1F
100
AcDbEntity
  8
1
 62
     4
420
    65535
100
AcDbLine
 10
-4.109492384
 20
27.8313969733
 30
0.0
 11
-4.109492384
 21
21.0911190557
 31
0.0
  0
SPLINE
  5
D7
330
1F
100
AcDbEntity
  8
1
 62
     4
420
    65535
100
AcDbSpline
210
0.0
220
0.0
230
1.0
 70
     8
 71
     3
 72
     8
 73
     4
 74
     0
 42
0.000000001
 43
0.00000001
 40
0.0
 40
0.0
 40
0.0
 40
0.0
 40
1.0
 40
1.0
 40
1.0
 40
1.0
 10
-7.934492384037992
 20
27.83139697326093
 30
0.0
 10
-8.421585020165617
 20
28.70937681288371
 30
0.0
 10
-8.91002236090744
 20
29.58661783031667
 30
0.0
 10
-9.399491458797325
 20
30.46327454368437
 30
0.0
  0
LINE
  5
D8
330
1F
100
AcDbEntity
  8
1
 62
     4
420
    65535
100
AcDbLine
 10
-7.934492384
 20
27.8313969733
 30
0.0
 11
-7.934492384
 21
21.0911190557
 31
0.0
  0
SPLINE
  5
D9
330
1F
100
AcDbEntity
  8
1
 62
     4
420
    65535
100
AcDbSpline
210
0.0
220
0.0
230
1.0
 70
     8
 71
     3
 72
     8
 73
     4
 74
     0
 42
0.000000001
 43
0.00000001
 40
0.0
 40
0.0
 40
0.0
 40
0.0
 40
1.0
 40
1.0
 40
1.0
 40
1.0
 10
-9.399491458797351
 20
24.45936921235498
 30
0.0
 10
-8.898805707894622
 20
23.34249766724953
 30
0.0
 10
-8.409046773584496
 20
22.21986901127429
 30
0.0
 10
-7.93449238403802
 20
21.09111905569934
 30
0.0
  0
LINE
  5
DA
330
1F
100
AcDbEntity
  8
1
 62
     4
420
    65535
100
AcDbLine
 10
-4.109492384
 20
20.0662751056
 30
0.0
 11
-4.109492384
 21
21.0911190557
 31
0.0
  0
LINE
  5
DB
330
1F
100
AcDbEntity
  8
1
 62
     4
420
    65535
100
AcDbLine
 10
1.978007616
 20
24.4593692124
 30
0.0
 11
1.978007616
 21
19.85067955
 31
0.0
  0
LINE
  5
DC
330
1F
100
AcDbEntity
  8
1
 62
     4
420
    65535
100
AcDbLine
 10
-7.934492384
 20
20.0662751056
 30
0.0
 11
-7.934492384
 21
21.0911190557
 31
0.0
  0
LINE
  5
DD
330
1F
100
AcDbEntity
  8
1
 62
     4
420
    65535
100
AcDbLine
 10
-55.9763494386
 20
-19.5500533009
 30
0.0
 11
-54.4291459512
 21
-20.3459701386
 31
0.0
  0
LINE
  5
DE
330
1F
100
AcDbEntity
  8
1
 62
     4
420
    65535
100
AcDbLine
 10
25.0767702598
 20
-44.17432045
 30
0.0
 11
17.978007616
 21
-44.17432045
 31
0.0
  0
LINE
  5
DF
330
1F
100
AcDbEntity
  8
1
 62
     4
420
    65535
100
AcDbLine
 10
17.978007616
 20
-44.17432045
 30
0.0
 11
17.978007616
 21
-39.9049168693
 31
0.0
  0
LINE
  5
E0
330
1F
100
AcDbEntity
  8
1
 62
     4
420
    65535
100
AcDbLine
 10
26.2207535014
 20
-39.9049168693
 30
0.0
 11
25.0767702598
 21
-44.17432045
 31
0.0
  0
ARC
  5
E1
330
1F
100
AcDbEntity
  8
1
 62
     4
420
    65535
100
AcDbCircle
 10
-47.3191595608
 20
-22.0958986989
 30
0.0
 40
1.540482063862064
100
AcDbArc
 50
65.8802485667
 51
90.1053624131
  0
LINE
  5
E2
330
1F
100
AcDbEntity
  8
1
 62
     4
420
    65535
100
AcDbLine
 10
-47.321992384
 20
-19.4588972729
 30
0.0
 11
-47.321992384
 21
-20.5554192397
 31
0.0
  0
LINE
  5
E3
330
1F
100
AcDbEntity
  8
1
 62
     4
420
    65535
100
AcDbLine
 10
-47.321992384
 20
-20.5554192397
 30
0.0
 11
-49.7160366768
 21
-20.5554192397
 31
0.0
  0
LINE
  5
E4
330
1F
100
AcDbEntity
  8
1
 62
     4
420
    65535
100
AcDbLine
 10
-54.021992384
 20
-20.865261066
 30
0.0
 11
-54.021992384
 21
-20.86932045
 31
0.0
  0
LINE
  5
E5
330
1F
100
AcDbEntity
  8
1
 62
     4
420
    65535
100
AcDbLine
 10
27.3763035627
 20
-38.6833079739
 30
0.0
 11
36.0269262414
 21
-6.3987446199
 31
0.0
  0
SPLINE
  5
E6
330
1F
100
AcDbEntity
  8
1
 62
     4
420
    65535
100
AcDbSpline
210
0.0
220
0.0
230
1.0
 70
     8
 71
     3
 72
    10
 73
     6
 74
     0
 42
0.000000001
 43
0.00000001
 40
0.0
 40
0.0
 40
0.0
 40
0.0
 40
0.5
 40
0.5
 40
1.0
 40
1.0
 40
1.0
 40
1.0
 10
26.97067913296203
 20
-39.1743204500124
 30
0.0
 10
26.97067913296203
 20
-39.05989802978121
 30
0.0
 10
27.01244856466417
 20
-38.94383698785742
 30
0.0
 10
27.15833191965554
 20
-38.76745794450325
 30
0.0
 10
27.26171617724475
 20
-38.70533236299597
 30
0.0
 10
27.37630356271299
 20
-38.68330797385704
 30
0.0
  0
LINE
  5
E7
330
1F
100
AcDbEntity
  8
1
 62
     4
420
    65535
100
AcDbLine
 10
26.970679133
 20
-40.1971189545
 30
0.0
 11
26.970679133
 21
-39.17432045
 31
0.0
  0
LINE
  5
E8
330
1F
100
AcDbEntity
  8
1
 62
     4
420
    65535
100
AcDbLine
 10
25.9049912041
 20
-44.17432045
 30
0.0
 11
26.970679133
 21
-40.1971189545
 31
0.0
  0
LINE
  5
E9
330
1F
100
AcDbEntity
  8
1
 62
     4
420
    65535
100
AcDbLine
 10
25.0767702598
 20
-44.17432045
 30
0.0
 11
25.9049912041
 21
-44.17432045
 31
0.0
  0
SPLINE
  5
EA
330
1F
100
AcDbEntity
  8
1
 62
     4
420
    65535
100
AcDbSpline
210
0.0
220
0.0
230
1.0
 70
    24
 71
     3
 72
    14
 73
    10
 74
     0
 42
0.000000001
 43
0.00000001
 40
0.0
 40
0.0
 40
0.0
 40
0.0
 40
0.25
 40
0.25
 40
0.5
 40
0.5
 40
0.75
 40
0.75
 40
1.0
 40
1.0
 40
1.0
 40
1.0
 10
36.02692624139809
 20
-6.398744619896572
 30
0.0
 10
35.96295006907524
 20
-6.287922904090014
 30
0.0
 10
35.90023683062344
 20
-6.179288885569092
 30
0.0
 10
35.77747001207167
 20
-5.966627999773047
 30
0.0
 10
35.71713393759139
 20
-5.862111786061544
 30
0.0
 10
35.60809460633884
 20
-5.673230123700969
 30
0.0
 10
35.55835295049656
 20
-5.587065924635048
 30
0.0
 10
35.48408607670022
 20
-5.458418303452469
 30
0.0
 10
35.4612598054298
 20
-5.418877854941687
 30
0.0
 10
35.46125980542979
 20
-5.418877854941687
 30
0.0
  0
LINE
  5
EB
330
1F
100
AcDbEntity
  8
1
 62
     4
420
    65535
100
AcDbLine
 10
41.070679133
 20
-15.1357060425
 30
0.0
 11
41.070679133
 21
-38.67432045
 31
0.0
  0
LINE
  5
EC
330
1F
100
AcDbEntity
  8
1
 62
     4
420
    65535
100
AcDbLine
 10
41.070679133
 20
-38.67432045
 30
0.0
 11
27.470679133
 21
-38.67432045
 31
0.0
  0
ARC
  5
ED
330
1F
100
AcDbEntity
  8
1
 62
     4
420
    65535
100
AcDbCircle
 10
27.470679133
 20
-39.17432045
 30
0.0
 40
0.5000000000000466
100
AcDbArc
 50
90.0
 51
100.8799111573
  0
LINE
  5
EE
330
1F
100
AcDbEntity
  8
1
 62
     4
420
    65535
100
AcDbLine
 10
41.070679133
 20
-15.1357060425
 30
0.0
 11
36.0269262414
 21
-6.3987446199
 31
0.0
  0
LINE
  5
EF
330
1F
100
AcDbEntity
  8
1
 62
     4
420
    65535
100
AcDbLine
 10
42.470679133
 20
-17.5608339689
 30
0.0
 11
42.470679133
 21
-38.67432045
 31
0.0
  0
LINE
  5
F0
330
1F
100
AcDbEntity
  8
1
 62
     4
420
    65535
100
AcDbLine
 10
41.070679133
 20
-38.67432045
 30
0.0
 11
42.470679133
 21
-38.67432045
 31
0.0
  0
LINE
  5
F1
330
1F
100
AcDbEntity
  8
1
 62
     4
420
    65535
100
AcDbLine
 10
41.070679133
 20
-15.1357060425
 30
0.0
 11
42.470679133
 21
-17.5608339689
 31
0.0
  0
LINE
  5
F2
330
1F
100
AcDbEntity
  8
1
 62
     4
420
    65535
100
AcDbLine
 10
26.970679133
 20
-44.17432045
 30
0.0
 11
26.970679133
 21
-40.1971189545
 31
0.0
  0
LINE
  5
F3
330
1F
100
AcDbEntity
  8
1
 62
     4
420
    65535
100
AcDbLine
 10
25.9049912041
 20
-44.17432045
 30
0.0
 11
26.970679133
 21
-44.17432045
 31
0.0
  0
LINE
  5
F4
330
1F
100
AcDbEntity
  8
1
 62
     4
420
    65535
100
AcDbLine
 10
48.470679133
 20
-27.9542393681
 30
0.0
 11
48.470679133
 21
-38.67432045
 31
0.0
  0
LINE
  5
F5
330
1F
100
AcDbEntity
  8
1
 62
     4
420
    65535
100
AcDbLine
 10
42.470679133
 20
-38.67432045
 30
0.0
 11
48.470679133
 21
-38.67432045
 31
0.0
  0
SPLINE
  5
F6
330
1F
100
AcDbEntity
  8
1
 62
     4
420
    65535
100
AcDbSpline
210
0.0
220
0.0
230
1.0
 70
    24
 71
     3
 72
    20
 73
    16
 74
     0
 42
0.000000001
 43
0.00000001
 40
0.0
 40
0.0
 40
0.0
 40
0.0
 40
0.2499999999999998
 40
0.2499999999999998
 40
0.3124999999999998
 40
0.3124999999999998
 40
0.3749999999999999
 40
0.3749999999999999
 40
0.5000000000000001
 40
0.5000000000000001
 40
0.6250000000000003
 40
0.6250000000000003
 40
0.7500000000000006
 40
0.7500000000000006
 40
1.0
 40
1.0
 40
1.0
 40
1.0
 10
42.47067913296205
 20
-17.56083396892651
 30
0.0
 10
42.47067913296206
 20
-17.56083396892649
 30
0.0
 10
42.63877436214233
 20
-17.85201427934944
 30
0.0
 10
43.03336924077583
 20
-18.53554503636264
 30
0.0
 10
43.12191605933076
 20
-18.68892886670417
 30
0.0
 10
43.31407016056396
 20
-19.02178477890952
 30
0.0
 10
43.41789301080594
 20
-19.2016302742867
 30
0.0
 10
43.75072952849584
 20
-19.77818108428726
 30
0.0
 10
44.00103363388408
 20
-20.21176642435055
 30
0.0
 10
44.55086554399156
 20
-21.16420408154286
 30
0.0
 10
44.85049290511942
 20
-21.68322885369104
 30
0.0
 10
45.49331434618793
 20
-22.79674615974299
 30
0.0
 10
45.83224333153356
 20
-23.38385055078144
 30
0.0
 10
46.89335234921202
 20
-25.22193991635816
 30
0.0
 10
47.65942474246989
 20
-26.54895674106688
 30
0.0
 10
48.47067913296209
 20
-27.95423936810887
 30
0.0
  0
ARC
  5
F7
330
1F
100
AcDbEntity
  8
1
 62
     4
420
    65535
100
AcDbCircle
 10
43.470679133
 20
-39.17432045
 30
0.0
 40
0.5
100
AcDbArc
 50
90.0
 51
180.0
  0
LINE
  5
F8
330
1F
100
AcDbEntity
  8
1
 62
     4
420
    65535
100
AcDbLine
 10
42.970679133
 20
-39.17432045
 30
0.0
 11
41.670679133
 21
-39.17432045
 31
0.0
  0
ELLIPSE
  5
F9
330
1F
100
AcDbEntity
  8
1
 62
     4
420
    65535
100
AcDbEllipse
 10
41.8777859141
 20
-39.17432045
 30
0.0
 11
0.0
 21
0.5
 31
0.0
210
0.0
220
0.0
230
1.0
 40
0.4142135624
 41
0.0
 42
1.570796326794897
  0
LINE
  5
FA
330
1F
100
AcDbEntity
  8
1
 62
     4
420
    65535
100
AcDbLine
 10
41.670679133
 20
-39.17432045
 30
0.0
 11
41.670679133
 21
-44.17432045
 31
0.0
  0
LINE
  5
FB
330
1F
100
AcDbEntity
  8
1
 62
     4
420
    65535
100
AcDbLine
 10
41.670679133
 20
-44.17432045
 30
0.0
 11
26.970679133
 21
-44.17432045
 31
0.0
  0
LINE
  5
FC
330
1F
100
AcDbEntity
  8
1
 62
     4
420
    65535
100
AcDbLine
 10
41.670679133
 20
-44.17432045
 30
0.0
 11
42.970679133
 21
-44.17432045
 31
0.0
  0
LINE
  5
FD
330
1F
100
AcDbEntity
  8
1
 62
     4
420
    65535
100
AcDbLine
 10
42.970679133
 20
-39.17432045
 30
0.0
 11
42.970679133
 21
-44.17432045
 31
0.0
  0
SPLINE
  5
FE
330
1F
100
AcDbEntity
  8
1
 62
     4
420
    65535
100
AcDbSpline
210
0.0
220
0.0
230
1.0
 70
     8
 71
     3
 72
    12
 73
     8
 74
     0
 42
0.000000001
 43
0.00000001
 40
0.0
 40
0.0
 40
0.0
 40
0.0
 40
0.1265621493982981
 40
0.3622577574122084
 40
0.6028935730097098
 40
0.8434236034833206
 40
1.0
 40
1.0
 40
1.0
 40
1.0
 10
2.441403141102219
 20
26.28850327274357
 30
0.0
 10
2.439254817103258
 20
26.29040594848847
 30
0.0
 10
2.433105687701158
 20
26.29585196099463
 30
0.0
 10
2.604735169642269
 20
26.19861436162956
 30
0.0
 10
2.803008784596616
 20
26.00152431901491
 30
0.0
 10
2.950942300199225
 20
25.73837803526577
 30
0.0
 10
2.970353794256147
 20
25.51982182748536
 30
0.0
 10
2.978007615962015
 20
25.43364658295465
 30
0.0
  0
SPLINE
  5
FF
330
1F
100
AcDbEntity
  8
1
 62
     4
420
    65535
100
AcDbSpline
210
0.0
220
0.0
230
1.0
 70
     8
 71
     3
 72
    12
 73
     8
 74
     0
 42
0.000000001
 43
0.00000001
 40
0.0
 40
0.0
 40
0.0
 40
0.0
 40
0.2209437389802302
 40
0.4420596977542345
 40
0.6667515646753286
 40
0.8913013493341886
 40
1.0
 40
1.0
 40
1.0
 40
1.0
 10
2.978007615962015
 20
-25.43228748297945
 30
0.0
 10
2.963808777151653
 20
-25.55168633311687
 30
0.0
 10
2.93540003191207
 20
-25.79057710163359
 30
0.0
 10
2.764938787590545
 20
-26.04409381172089
 30
0.0
 10
2.577582126770848
 20
-26.2138567653067
 30
0.0
 10
2.416870558306013
 20
-26.29800257560839
 30
0.0
 10
2.435369254395355
 20
-26.28981484030863
 30
0.0
 10
2.441403141102219
 20
-26.28714417276828
 30
0.0
  0
LINE
  5
100
330
1F
100
AcDbEntity
  8
1
 62
     4
420
    65535
100
AcDbLine
 10
16.978007616
 20
-26.29932045
 30
0.0
 11
16.978007616
 21
0.00067955
 31
0.0
  0
LINE
  5
101
330
1F
100
AcDbEntity
  8
1
 62
     4
420
    65535
100
AcDbLine
 10
-47.321992384
 20
-20.5554192397
 30
0.0
 11
-47.321992384
 21
-20.86932045
 31
0.0
  0
LINE
  5
102
330
1F
100
AcDbEntity
  8
1
 62
     4
420
    65535
100
AcDbLine
 10
-51.321992384
 20
20.87067955
 30
0.0
 11
-51.321992384
 21
20.8243322627
 31
0.0
  0
LINE
  5
103
330
1F
100
AcDbEntity
  8
1
 62
     4
420
    65535
100
AcDbLine
 10
41.670679133
 20
-39.17432045
 30
0.0
 11
26.970679133
 21
-39.17432045
 31
0.0
  0
DIMENSION
  5
104
330
1F
100
AcDbEntity
  8
2
 62
     7
420
 16777215
100
AcDbDimension
  2
_D
 10
-62.3474352056
 20
-31.49932045
 30
0.0
 11
-62.3474352056
 21
0.00067955
 31
0.0
 70
   160
  1
%%c<>
 71
     2
 42
-1.0
  3
SLDDIMSTYLE0
100
AcDbAlignedDimension
 13
-24.021992384
 23
31.50067955
 33
0.0
 14
-24.021992384
 24
-31.49932045
 34
0.0
 50
90.0
100
AcDbRotatedDimension
  0
DIMENSION
  5
111
330
1F
100
AcDbEntity
  8
2
 62
     7
420
 16777215
100
AcDbDimension
  2
_D_1
 10
17.978007616
 20
-50.17432045
 30
0.0
 11
-3.021992384
 21
-50.17432045
 31
0.0
 70
   160
  1
<>
 71
     2
 42
-1.0
  3
SLDDIMSTYLE0
100
AcDbAlignedDimension
 13
-24.021992384
 23
-31.49932045
 33
0.0
 14
17.978007616
 24
-44.17432045
 34
0.0
100
AcDbRotatedDimension
  0
DIMENSION
  5
11B
330
1F
100
AcDbEntity
  8
2
 62
     7
420
 16777215
100
AcDbDimension
  2
_D_2
 10
-24.021992384
 20
-56.17432045
 30
0.0
 11
9.4743433745
 21
-56.17432045
 31
0.0
 70
   160
  1
<>
 71
     2
 42
-1.0
  3
SLDDIMSTYLE1
100
AcDbAlignedDimension
 13
42.970679133
 23
-44.17432045
 33
0.0
 14
-24.021992384
 24
-31.49932045
 34
0.0
100
AcDbRotatedDimension
  0
DIMENSION
  5
126
330
1F
100
AcDbEntity
  8
2
 62
     7
420
 16777215
100
AcDbDimension
  2
_D_3
 10
55.9195058387
 20
-38.67432045
 30
0.0
 11
55.9195058387
 21
-19.33682045
 31
0.0
 70
   160
  1
<>
 71
     2
 42
-1.0
  3
SLDDIMSTYLE2
100
AcDbAlignedDimension
 13
4.995679133
 23
0.00067955
 33
0.0
 14
48.470679133
 24
-38.67432045
 34
0.0
 50
90.0
100
AcDbRotatedDimension
  0
DIMENSION
  5
131
330
1F
100
AcDbEntity
  8
2
 62
     7
420
 16777215
100
AcDbDimension
  2
_D_4
 10
67.9195058387
 20
26.30067955
 30
0.0
 11
67.9195058387
 21
0.00067955
 31
0.0
 70
   160
  1
%%c<>
 71
     2
 42
-1.0
  3
SLDDIMSTYLE3
100
AcDbAlignedDimension
 13
16.978007616
 23
-26.29932045
 33
0.0
 14
17.149903987
 24
26.30067955
 34
0.0
 50
90.0
100
AcDbRotatedDimension
  0
INSERT
  5
148
330
1F
100
AcDbEntity
  8
0
  6
SLD-Punktstrich
 62
     2
420
 16776960
370
    15
100
AcDbBlockReference
  2
SW_CENTERMARKSYMBOL_0
 10
57.1307593043
 20
2.7128953243
 30
0.0
  0
INSERT
  5
154
330
1F
100
AcDbEntity
  8
0
  6
SLD-Punktstrich
 62
     2
420
 16776960
370
    15
100
AcDbBlockReference
  2
SW_CENTERMARKSYMBOL_1
 10
57.1701102516
 20
-4.2120967338
 30
0.0
  0
ENDSEC
  0
SECTION
  2
OBJECTS
  0
DICTIONARY
  5
C
330
0
100
AcDbDictionary
281
     1
  3
ACAD_DETAILVIEWSTYLE
350
15E
  3
ACAD_GROUP
350
D
  3
ACAD_LAYOUT
350
1A
  3
ACAD_MATERIAL
350
43
  3
ACAD_MLEADERSTYLE
350
6B
  3
ACAD_MLINESTYLE
350
17
  3
ACAD_PLOTSETTINGS
350
19
  3
ACAD_PLOTSTYLENAME
350
E
  3
ACAD_SCALELIST
350
47
  3
ACAD_SECTIONVIEWSTYLE
350
15F
  3
ACAD_TABLESTYLE
350
69
  3
ACDB_RECOMPOSE_DATA
350
15B
  3
AcDbVariableDictionary
350
155
  0
DICTIONARY
  5
15E
102
{ACAD_REACTORS
330
C
102
}
330
C
100
AcDbDictionary
281
     1
  0
DICTIONARY
  5
D
102
{ACAD_REACTORS
330
C
102
}
330
C
100
AcDbDictionary
281
     1
  0
DICTIONARY
  5
1A
102
{ACAD_REACTORS
330
C
102
}
330
C
100
AcDbDictionary
281
     1
  3
Layout1
350
1E
  3
Layout2
350
26
  3
Model
350
22
  0
DICTIONARY
  5
43
102
{ACAD_REACTORS
330
C
102
}
330
C
100
AcDbDictionary
281
     1
  3
ByBlock
350
45
  3
ByLayer
350
44
  3
Global
350
46
  0
DICTIONARY
  5
6B
102
{ACAD_REACTORS
330
C
102
}
330
C
100
AcDbDictionary
281
     1
  3
Standard
350
6C
  0
DICTIONARY
  5
17
102
{ACAD_REACTORS
330
C
102
}
330
C
100
AcDbDictionary
281
     1
  3
Standard
350
18
  0
DICTIONARY
  5
19
102
{ACAD_REACTORS
330
C
102
}
330
C
100
AcDbDictionary
281
     1
  0
ACDBDICTIONARYWDFLT
  5
E
102
{ACAD_REACTORS
330
C
102
}
330
C
100
AcDbDictionary
281
     1
  3
Normal
350
F
100
AcDbDictionaryWithDefault
340
F
  0
DICTIONARY
  5
47
102
{ACAD_REACTORS
330
C
102
}
330
C
100
AcDbDictionary
281
     1
  3
A0
350
48
  3
A1
350
49
  3
A2
350
4A
  3
A3
350
4B
  3
A4
350
4C
  3
A5
350
4D
  3
A6
350
4E
  3
A7
350
4F
  3
A8
350
50
  3
A9
350
51
  3
B0
350
52
  3
B1
350
53
  3
B2
350
54
  3
B3
350
55
  3
B4
350
56
  3
B5
350
57
  3
B6
350
58
  3
B7
350
59
  3
B8
350
5A
  3
B9
350
5B
  3
C0
350
5C
  3
C1
350
5D
  3
C2
350
5E
  3
C3
350
5F
  3
C4
350
60
  3
C5
350
61
  3
C6
350
62
  3
C7
350
63
  3
C8
350
64
  3
C9
350
65
  3
D0
350
66
  3
D1
350
67
  3
D2
350
68
  0
DICTIONARY
  5
15F
102
{ACAD_REACTORS
330
C
102
}
330
C
100
AcDbDictionary
281
     1
  0
DICTIONARY
  5
69
102
{ACAD_REACTORS
330
C
102
}
330
C
100
AcDbDictionary
281
     1
  3
Standard
350
6A
  0
XRECORD
  5
15B
102
{ACAD_REACTORS
330
C
102
}
330
C
100
AcDbXrecord
280
     1
 90
        1
330
6A
  0
DICTIONARY
  5
155
102
{ACAD_REACTORS
330
C
102
}
330
C
100
AcDbDictionary
281
     1
  3
CANNOSCALE
350
156
  3
CMLEADERSTYLE
350
15D
  3
CTABLESTYLE
350
15C
  0
LAYOUT
  5
1E
102
{ACAD_REACTORS
330
1A
102
}
330
1A
100
AcDbPlotSettings
  1

  2
none_device
  4

  6

 40
0.0
 41
0.0
 42
0.0
 43
0.0
 44
0.0
 45
0.0
 46
0.0
 47
0.0
 48
0.0
 49
0.0
140
0.0
141
0.0
142
1.0
143
1.0
 70
   688
 72
     1
 73
     0
 74
     5
  7

 75
    16
 76
     0
 77
     2
 78
   300
147
1.0
148
0.0
149
0.0
100
AcDbLayout
  1
Layout1
 70
     1
 71
     1
 10
0.0
 20
0.0
 11
420.0
 21
297.0
 12
0.0
 22
0.0
 32
0.0
 14
1.0000000000E+20
 24
1.0000000000E+20
 34
1.0000000000E+20
 15
-1.0000000000E+20
 25
-1.0000000000E+20
 35
-1.0000000000E+20
146
0.0
 13
0.0
 23
0.0
 33
0.0
 16
1.0
 26
0.0
 36
0.0
 17
0.0
 27
1.0
 37
0.0
 76
     0
330
1B
  0
LAYOUT
  5
26
102
{ACAD_REACTORS
330
1A
102
}
330
1A
100
AcDbPlotSettings
  1

  2
none_device
  4

  6

 40
0.0
 41
0.0
 42
0.0
 43
0.0
 44
0.0
 45
0.0
 46
0.0
 47
0.0
 48
0.0
 49
0.0
140
0.0
141
0.0
142
1.0
143
1.0
 70
   688
 72
     1
 73
     0
 74
     5
  7

 75
    16
 76
     0
 77
     2
 78
   300
147
1.0
148
0.0
149
0.0
100
AcDbLayout
  1
Layout2
 70
     1
 71
     2
 10
0.0
 20
0.0
 11
0.0
 21
0.0
 12
0.0
 22
0.0
 32
0.0
 14
0.0
 24
0.0
 34
0.0
 15
0.0
 25
0.0
 35
0.0
146
0.0
 13
0.0
 23
0.0
 33
0.0
 16
1.0
 26
0.0
 36
0.0
 17
0.0
 27
1.0
 37
0.0
 76
     0
330
23
  0
LAYOUT
  5
22
102
{ACAD_REACTORS
330
1A
102
}
330
1A
100
AcDbPlotSettings
  1

  2
none_device
  4
Letter_(8.50_x_11.00_Inches)
  6

 40
6.35
 41
6.35
 42
6.35000508
 43
6.35000508
 44
215.9
 45
279.4
 46
0.0
 47
0.0
 48
0.0
 49
0.0
140
0.0
141
0.0
142
1.0
143
1.0
 70
  1712
 72
     1
 73
     0
 74
     0
  7

 75
     0
 76
     0
 77
     2
 78
   300
147
1.0
148
0.0
149
0.0
100
AcDbLayout
  1
Model
 70
     1
 71
     0
 10
0.0
 20
0.0
 11
297.0
 21
210.0
 12
0.0
 22
0.0
 32
0.0
 14
0.0
 24
0.0
 34
0.0
 15
297.0
 25
210.0
 35
0.0
146
0.0
 13
0.0
 23
0.0
 33
0.0
 16
1.0
 26
0.0
 36
0.0
 17
0.0
 27
1.0
 37
0.0
 76
     0
330
1F
331
29
  0
MATERIAL
  5
45
102
{ACAD_REACTORS
330
43
102
}
330
43
100
AcDbMaterial
  1
ByBlock
  0
MATERIAL
  5
44
102
{ACAD_REACTORS
330
43
102
}
330
43
100
AcDbMaterial
  1
ByLayer
  0
MATERIAL
  5
46
102
{ACAD_REACTORS
330
43
102
}
330
43
100
AcDbMaterial
  1
Global
  0
MLEADERSTYLE
  5
6C
102
{ACAD_REACTORS
330
6B
102
}
330
6B
100
AcDbMLeaderStyle
170
     2
171
     1
172
     0
 90
        2
 40
0.0
 41
0.0
173
     1
 91
-1056964608
340
14
 92
       -2
290
     1
 42
2.0
291
     1
 43
8.0
  3
Standard
341
0
 44
4.0
300

342
11
174
     1
178
     6
175
     1
176
     0
 93
-1056964608
 45
4.0
292
     0
297
     0
 46
4.0
343
0
 94
-1056964608
 47
1.0
 49
1.0
140
1.0
293
     1
141
0.0
294
     1
177
     0
142
1.0
295
     0
296
     0
143
3.75
1001
ACAD_MLEADERVER
1070
     2
  0
MLINESTYLE
  5
18
102
{ACAD_REACTORS
330
17
102
}
330
17
100
AcDbMlineStyle
  2
Standard
 70
     0
  3

 62
   256
 51
90.0
 52
90.0
 71
     2
 49
0.5
 62
   256
  6
BYLAYER
 49
-0.5
 62
   256
  6
BYLAYER
  0
ACDBPLACEHOLDER
  5
F
102
{ACAD_REACTORS
330
E
102
}
330
E
  0
SCALE
  5
48
102
{ACAD_REACTORS
330
47
102
}
330
47
100
AcDbScale
 70
     0
300
1:1
140
1.0
141
1.0
290
     1
  0
SCALE
  5
49
102
{ACAD_REACTORS
330
47
102
}
330
47
100
AcDbScale
 70
     0
300
1:2
140
1.0
141
2.0
290
     0
  0
SCALE
  5
4A
102
{ACAD_REACTORS
330
47
102
}
330
47
100
AcDbScale
 70
     0
300
1:4
140
1.0
141
4.0
290
     0
  0
SCALE
  5
4B
102
{ACAD_REACTORS
330
47
102
}
330
47
100
AcDbScale
 70
     0
300
1:5
140
1.0
141
5.0
290
     0
  0
SCALE
  5
4C
102
{ACAD_REACTORS
330
47
102
}
330
47
100
AcDbScale
 70
     0
300
1:8
140
1.0
141
8.0
290
     0
  0
SCALE
  5
4D
102
{ACAD_REACTORS
330
47
102
}
330
47
100
AcDbScale
 70
     0
300
1:10
140
1.0
141
10.0
290
     0
  0
SCALE
  5
4E
102
{ACAD_REACTORS
330
47
102
}
330
47
100
AcDbScale
 70
     0
300
1:16
140
1.0
141
16.0
290
     0
  0
SCALE
  5
4F
102
{ACAD_REACTORS
330
47
102
}
330
47
100
AcDbScale
 70
     0
300
1:20
140
1.0
141
20.0
290
     0
  0
SCALE
  5
50
102
{ACAD_REACTORS
330
47
102
}
330
47
100
AcDbScale
 70
     0
300
1:30
140
1.0
141
30.0
290
     0
  0
SCALE
  5
51
102
{ACAD_REACTORS
330
47
102
}
330
47
100
AcDbScale
 70
     0
300
1:40
140
1.0
141
40.0
290
     0
  0
SCALE
  5
52
102
{ACAD_REACTORS
330
47
102
}
330
47
100
AcDbScale
 70
     0
300
1:50
140
1.0
141
50.0
290
     0
  0
SCALE
  5
53
102
{ACAD_REACTORS
330
47
102
}
330
47
100
AcDbScale
 70
     0
300
1:100
140
1.0
141
100.0
290
     0
  0
SCALE
  5
54
102
{ACAD_REACTORS
330
47
102
}
330
47
100
AcDbScale
 70
     0
300
2:1
140
2.0
141
1.0
290
     0
  0
SCALE
  5
55
102
{ACAD_REACTORS
330
47
102
}
330
47
100
AcDbScale
 70
     0
300
4:1
140
4.0
141
1.0
290
     0
  0
SCALE
  5
56
102
{ACAD_REACTORS
330
47
102
}
330
47
100
AcDbScale
 70
     0
300
8:1
140
8.0
141
1.0
290
     0
  0
SCALE
  5
57
102
{ACAD_REACTORS
330
47
102
}
330
47
100
AcDbScale
 70
     0
300
10:1
140
10.0
141
1.0
290
     0
  0
SCALE
  5
58
102
{ACAD_REACTORS
330
47
102
}
330
47
100
AcDbScale
 70
     0
300
100:1
140
100.0
141
1.0
290
     0
  0
SCALE
  5
59
102
{ACAD_REACTORS
330
47
102
}
330
47
100
AcDbScale
 70
     0
300
1/128" = 1'-0"
140
0.0078125
141
12.0
290
     0
  0
SCALE
  5
5A
102
{ACAD_REACTORS
330
47
102
}
330
47
100
AcDbScale
 70
     0
300
1/64" = 1'-0"
140
0.015625
141
12.0
290
     0
  0
SCALE
  5
5B
102
{ACAD_REACTORS
330
47
102
}
330
47
100
AcDbScale
 70
     0
300
1/32" = 1'-0"
140
0.03125
141
12.0
290
     0
  0
SCALE
  5
5C
102
{ACAD_REACTORS
330
47
102
}
330
47
100
AcDbScale
 70
     0
300
1/16" = 1'-0"
140
0.0625
141
12.0
290
     0
  0
SCALE
  5
5D
102
{ACAD_REACTORS
330
47
102
}
330
47
100
AcDbScale
 70
     0
300
3/32" = 1'-0"
140
0.09375
141
12.0
290
     0
  0
SCALE
  5
5E
102
{ACAD_REACTORS
330
47
102
}
330
47
100
AcDbScale
 70
     0
300
1/8" = 1'-0"
140
0.125
141
12.0
290
     0
  0
SCALE
  5
5F
102
{ACAD_REACTORS
330
47
102
}
330
47
100
AcDbScale
 70
     0
300
3/16" = 1'-0"
140
0.1875
141
12.0
290
     0
  0
SCALE
  5
60
102
{ACAD_REACTORS
330
47
102
}
330
47
100
AcDbScale
 70
     0
300
1/4" = 1'-0"
140
0.25
141
12.0
290
     0
  0
SCALE
  5
61
102
{ACAD_REACTORS
330
47
102
}
330
47
100
AcDbScale
 70
     0
300
3/8" = 1'-0"
140
0.375
141
12.0
290
     0
  0
SCALE
  5
62
102
{ACAD_REACTORS
330
47
102
}
330
47
100
AcDbScale
 70
     0
300
1/2" = 1'-0"
140
0.5
141
12.0
290
     0
  0
SCALE
  5
63
102
{ACAD_REACTORS
330
47
102
}
330
47
100
AcDbScale
 70
     0
300
3/4" = 1'-0"
140
0.75
141
12.0
290
     0
  0
SCALE
  5
64
102
{ACAD_REACTORS
330
47
102
}
330
47
100
AcDbScale
 70
     0
300
1" = 1'-0"
140
1.0
141
12.0
290
     0
  0
SCALE
  5
65
102
{ACAD_REACTORS
330
47
102
}
330
47
100
AcDbScale
 70
     0
300
1-1/2" = 1'-0"
140
1.5
141
12.0
290
     0
  0
SCALE
  5
66
102
{ACAD_REACTORS
330
47
102
}
330
47
100
AcDbScale
 70
     0
300
3" = 1'-0"
140
3.0
141
12.0
290
     0
  0
SCALE
  5
67
102
{ACAD_REACTORS
330
47
102
}
330
47
100
AcDbScale
 70
     0
300
6" = 1'-0"
140
6.0
141
12.0
290
     0
  0
SCALE
  5
68
102
{ACAD_REACTORS
330
47
102
}
330
47
100
AcDbScale
 70
     0
300
1'-0" = 1'-0"
140
12.0
141
12.0
290
     0
  0
TABLESTYLE
  5
6A
102
{ACAD_REACTORS
330
69
102
}
102
{ACAD_XDICTIONARY
360
157
102
}
330
69
100
AcDbTableStyle
  3
Standard
 70
     0
 71
     0
 40
0.06
 41
0.06
280
     0
281
     0
  7
Standard
140
4.5
170
     2
 62
     0
 63
   257
283
     0
274
    -2
284
     1
 64
     0
275
    -2
285
     1
 65
     0
276
    -2
286
     1
 66
     0
277
    -2
287
     1
 67
     0
278
    -2
288
     1
 68
     0
279
    -2
289
     1
 69
     0
  7
Standard
140
6.0
170
     5
 62
     0
 63
   257
283
     0
274
    -2
284
     1
 64
     0
275
    -2
285
     1
 65
     0
276
    -2
286
     1
 66
     0
277
    -2
287
     1
 67
     0
278
    -2
288
     1
 68
     0
279
    -2
289
     1
 69
     0
  7
Standard
140
4.5
170
     5
 62
     0
 63
   257
283
     0
274
    -2
284
     1
 64
     0
275
    -2
285
     1
 65
     0
276
    -2
286
     1
 66
     0
277
    -2
287
     1
 67
     0
278
    -2
288
     1
 68
     0
279
    -2
289
     1
 69
     0
  0
DICTIONARYVAR
  5
156
102
{ACAD_REACTORS
330
155
102
}
330
155
100
DictionaryVariables
280
     0
  1
1:1
  0
DICTIONARYVAR
  5
15D
102
{ACAD_REACTORS
330
155
102
}
330
155
100
DictionaryVariables
280
     0
  1
Standard
  0
DICTIONARYVAR
  5
15C
102
{ACAD_REACTORS
330
155
102
}
330
155
100
DictionaryVariables
280
     0
  1
Standard
  0
DICTIONARY
  5
157
330
6A
100
AcDbDictionary
280
     1
281
     1
  3
ACAD_ROUNDTRIP_2008_TABLESTYLE_CELLSTYLEMAP
360
159
  3
ACAD_XREC_ROUNDTRIP
360
158
  0
CELLSTYLEMAP
  5
159
102
{ACAD_REACTORS
330
157
102
}
330
157
100
AcDbCellStyleMap
 90
        3
300
CELLSTYLE
  1
TABLEFORMAT_BEGIN
 90
        5
170
     1
 91
        0
 92
    32768
 62
   257
 93
        1
300
CONTENTFORMAT
  1
CONTENTFORMAT_BEGIN
 90
        0
 91
        0
 92
        4
 93
        0
300

 40
0.0
140
1.0
 94
        5
 62
     0
340
11
144
6.0
309
CONTENTFORMAT_END
171
     1
301
MARGIN
  1
CELLMARGIN_BEGIN
 40
1.5
 40
1.5
 40
1.5
 40
1.5
 40
1.5
 40
1.5
309
CELLMARGIN_END
 94
        6
 95
        1
302
GRIDFORMAT
  1
GRIDFORMAT_BEGIN
 90
        0
 91
        1
 62
     0
 92
       -2
340
14
 93
        0
 40
0.045
309
GRIDFORMAT_END
 95
        2
302
GRIDFORMAT
  1
GRIDFORMAT_BEGIN
 90
        0
 91
        1
 62
     0
 92
       -2
340
14
 93
        0
 40
0.045
309
GRIDFORMAT_END
 95
        4
302
GRIDFORMAT
  1
GRIDFORMAT_BEGIN
 90
        0
 91
        1
 62
     0
 92
       -2
340
14
 93
        0
 40
0.045
309
GRIDFORMAT_END
 95
        8
302
GRIDFORMAT
  1
GRIDFORMAT_BEGIN
 90
        0
 91
        1
 62
     0
 92
       -2
340
14
 93
        0
 40
0.045
309
GRIDFORMAT_END
 95
       16
302
GRIDFORMAT
  1
GRIDFORMAT_BEGIN
 90
        0
 91
        1
 62
     0
 92
       -2
340
14
 93
        0
 40
0.045
309
GRIDFORMAT_END
 95
       32
302
GRIDFORMAT
  1
GRIDFORMAT_BEGIN
 90
        0
 91
        1
 62
     0
 92
       -2
340
14
 93
        0
 40
0.045
309
GRIDFORMAT_END
309
TABLEFORMAT_END
  1
CELLSTYLE_BEGIN
 90
        1
 91
        1
300
_TITLE
309
CELLSTYLE_END
300
CELLSTYLE
  1
TABLEFORMAT_BEGIN
 90
        5
170
     1
 91
        0
 92
        0
 62
   257
 93
        1
300
CONTENTFORMAT
  1
CONTENTFORMAT_BEGIN
 90
        0
 91
        0
 92
        4
 93
        0
300

 40
0.0
140
1.0
 94
        5
 62
     0
340
11
144
4.5
309
CONTENTFORMAT_END
171
     1
301
MARGIN
  1
CELLMARGIN_BEGIN
 40
1.5
 40
1.5
 40
1.5
 40
1.5
 40
1.5
 40
1.5
309
CELLMARGIN_END
 94
        6
 95
        1
302
GRIDFORMAT
  1
GRIDFORMAT_BEGIN
 90
        0
 91
        1
 62
     0
 92
       -2
340
14
 93
        0
 40
0.045
309
GRIDFORMAT_END
 95
        2
302
GRIDFORMAT
  1
GRIDFORMAT_BEGIN
 90
        0
 91
        1
 62
     0
 92
       -2
340
14
 93
        0
 40
0.045
309
GRIDFORMAT_END
 95
        4
302
GRIDFORMAT
  1
GRIDFORMAT_BEGIN
 90
        0
 91
        1
 62
     0
 92
       -2
340
14
 93
        0
 40
0.045
309
GRIDFORMAT_END
 95
        8
302
GRIDFORMAT
  1
GRIDFORMAT_BEGIN
 90
        0
 91
        1
 62
     0
 92
       -2
340
14
 93
        0
 40
0.045
309
GRIDFORMAT_END
 95
       16
302
GRIDFORMAT
  1
GRIDFORMAT_BEGIN
 90
        0
 91
        1
 62
     0
 92
       -2
340
14
 93
        0
 40
0.045
309
GRIDFORMAT_END
 95
       32
302
GRIDFORMAT
  1
GRIDFORMAT_BEGIN
 90
        0
 91
        1
 62
     0
 92
       -2
340
14
 93
        0
 40
0.045
309
GRIDFORMAT_END
309
TABLEFORMAT_END
  1
CELLSTYLE_BEGIN
 90
        2
 91
        1
300
_HEADER
309
CELLSTYLE_END
300
CELLSTYLE
  1
TABLEFORMAT_BEGIN
 90
        5
170
     1
 91
        0
 92
        0
 62
   257
 93
        1
300
CONTENTFORMAT
  1
CONTENTFORMAT_BEGIN
 90
        0
 91
        0
 92
        4
 93
        0
300

 40
0.0
140
1.0
 94
        2
 62
     0
340
11
144
4.5
309
CONTENTFORMAT_END
171
     1
301
MARGIN
  1
CELLMARGIN_BEGIN
 40
1.5
 40
1.5
 40
1.5
 40
1.5
 40
1.5
 40
1.5
309
CELLMARGIN_END
 94
        6
 95
        1
302
GRIDFORMAT
  1
GRIDFORMAT_BEGIN
 90
        0
 91
        1
 62
     0
 92
       -2
340
14
 93
        0
 40
0.045
309
GRIDFORMAT_END
 95
        2
302
GRIDFORMAT
  1
GRIDFORMAT_BEGIN
 90
        0
 91
        1
 62
     0
 92
       -2
340
14
 93
        0
 40
0.045
309
GRIDFORMAT_END
 95
        4
302
GRIDFORMAT
  1
GRIDFORMAT_BEGIN
 90
        0
 91
        1
 62
     0
 92
       -2
340
14
 93
        0
 40
0.045
309
GRIDFORMAT_END
 95
        8
302
GRIDFORMAT
  1
GRIDFORMAT_BEGIN
 90
        0
 91
        1
 62
     0
 92
       -2
340
14
 93
        0
 40
0.045
309
GRIDFORMAT_END
 95
       16
302
GRIDFORMAT
  1
GRIDFORMAT_BEGIN
 90
        0
 91
        1
 62
     0
 92
       -2
340
14
 93
        0
 40
0.045
309
GRIDFORMAT_END
 95
       32
302
GRIDFORMAT
  1
GRIDFORMAT_BEGIN
 90
        0
 91
        1
 62
     0
 92
       -2
340
14
 93
        0
 40
0.045
309
GRIDFORMAT_END
309
TABLEFORMAT_END
  1
CELLSTYLE_BEGIN
 90
        3
 91
        2
300
_DATA
309
CELLSTYLE_END
  0
XRECORD
  5
158
102
{ACAD_REACTORS
330
157
102
}
330
157
100
AcDbXrecord
280
     1
102
ACAD_ROUNDTRIP_PRE2007_TABLESTYLE
 90
        4
 91
        0
  1

 92
        4
 93
        0
  2

 94
        4
 95
        0
  3

  0
ENDSEC
  0
EOF
